osu file format v14

[General]
AudioFilename: GTA feat. Sam Bruno - Red Lips (Mendus Remix).mp3
AudioLeadIn: 0
PreviewTime: 56887
Countdown: 0
SampleSet: Soft
StackLeniency: 0.7
Mode: 0
LetterboxInBreaks: 0
WidescreenStoryboard: 1

[Editor]
Bookmarks: 19312,38512,48112,57712,96112,115312,134512,144112,153712,192112,196912
DistanceSpacing: 1.1
BeatDivisor: 8
GridSize: 32
TimelineZoom: 2

[Metadata]
Title:Red Lips (Mendus Remix)
TitleUnicode:Red Lips (Mendus Remix)
Artist:GTA feat. Sam Bruno
ArtistUnicode:GTA feat. Sam Bruno
Creator:Euny
Version:Normal
Source:
Tags:HabiHolic Alarido Natsu Come[Back]Home CBH
BeatmapID:1109421
BeatmapSetID:512810

[Difficulty]
HPDrainRate:3
CircleSize:3.5
OverallDifficulty:4
ApproachRate:5
SliderMultiplier:1.8
SliderTickRate:1

[Events]
//Background and Video events
0,0,"^ 3^.png",0,0
//Break Periods
2,96312,109312
//Storyboard Layer 0 (Background)
//Storyboard Layer 1 (Fail)
//Storyboard Layer 2 (Pass)
//Storyboard Layer 3 (Foreground)
//Storyboard Sound Samples

[TimingPoints]
19312,600,4,2,44,50,1,0
19312,-100,4,2,44,50,0,0
38512,-100,4,2,44,50,0,0
48112,-100,4,2,44,60,0,0
57112,-100,4,2,44,40,0,0
57712,-100,4,2,44,70,0,1
58312,-100,4,2,44,70,0,0
61462,-100,4,2,44,70,0,0
61912,-100,4,2,44,70,0,0
62512,-100,4,2,44,70,0,0
66262,-100,4,2,44,60,0,0
66712,-100,4,2,44,70,0,0
67312,-100,4,2,44,70,0,0
71062,-100,4,2,44,70,0,0
71512,-100,4,2,44,70,0,0
72112,-100,4,2,44,70,0,0
76912,-100,4,2,44,70,0,1
77512,-100,4,2,44,70,0,0
80662,-100,4,2,44,70,0,0
81112,-100,4,2,44,70,0,0
81712,-100,4,2,44,70,0,0
85462,-100,4,2,44,60,0,0
85912,-100,4,2,44,70,0,0
86512,-100,4,2,44,70,0,0
90262,-100,4,2,44,70,0,0
90712,-100,4,2,44,70,0,0
91312,-100,4,2,44,70,0,0
115312,-100,4,2,44,50,0,0
134512,-100,4,2,44,50,0,0
144112,-100,4,2,44,60,0,0
153112,-100,4,2,43,60,0,0
153712,-100,4,2,44,70,0,1
154312,-100,4,2,44,70,0,0
157462,-100,4,2,44,70,0,0
157912,-100,4,2,44,70,0,0
158512,-100,4,2,44,70,0,0
162262,-100,4,2,44,70,0,0
162712,-100,4,2,44,70,0,0
163312,-100,4,2,44,70,0,0
167062,-100,4,2,44,70,0,0
167512,-100,4,2,44,70,0,0
168112,-100,4,2,44,70,0,0
172912,-100,4,2,44,70,0,1
173512,-100,4,2,44,70,0,0
176662,-100,4,2,44,70,0,0
177112,-100,4,2,44,70,0,0
177712,-100,4,2,44,70,0,0
181462,-100,4,2,44,70,0,0
181912,-100,4,2,44,70,0,0
182512,-100,4,2,44,70,0,0
186262,-100,4,2,44,70,0,0
186712,-100,4,2,44,70,0,0
187312,-100,4,2,44,70,0,0
192112,-100,4,2,44,40,0,0
193312,-100,4,2,44,30,0,0
194512,-100,4,2,44,20,0,0
195712,-100,4,2,44,10,0,0
196912,-100,4,2,44,5,0,0

[Colours]
Combo1 : 255,157,157
Combo2 : 255,0,0

[HitObjects]
311,105,19312,6,0,L|339:215,1,90,6|0,0:0|0:0,0:0:0:0:
340,290,19912,2,0,P|284:269|240:273,2,90,8|2|0,0:0|0:0|0:0,0:0:0:0:
470,140,21112,1,8,0:0:0:0:
296,43,21712,6,0,L|207:80,1,90,2|0,0:0|0:0,0:0:0:0:
118,105,22312,2,0,L|21:72,2,90,8|2|0,0:0|0:0|0:0,0:0:0:0:
164,192,23212,2,0,L|254:160,2,90,2|8|2,0:0|0:0|0:0,0:0:0:0:
191,287,24112,6,0,B|282:254|282:330|376:275,1,180,2|8,0:0|0:0,0:0:0:0:
485,124,25312,2,0,P|429:129|392:126,1,90,0|0,0:0|0:0,0:0:0:0:
302,92,25912,2,0,L|319:192,1,90,8|0,0:0|0:0,0:0:0:0:
343,276,26512,6,0,P|288:273|244:291,1,90,2|0,0:0|0:0,0:0:0:0:
183,352,27112,2,0,P|161:268|212:197,2,180,8|0|8,0:0|0:0|0:0,0:0:0:0:
282,359,28612,1,2,0:0:0:0:
380,344,28912,6,0,B|426:322|466:332|466:332|462:281|476:222,1,180,0|8,0:0|0:0,0:0:0:0:
498,145,29812,1,2,0:0:0:0:
402,172,30112,2,0,P|315:193|230:168,2,180,0|8|2,0:0|0:0|0:0,0:0:0:0:
498,145,31612,5,0,0:0:0:0:
477,241,31912,1,8,0:0:0:0:
388,284,32212,2,0,P|343:293|296:293,1,90,2|0,0:0|0:0,0:0:0:0:
205,259,32812,2,0,P|214:302|206:346,1,90,2|8,0:0|0:0,0:0:0:0:
108,365,33412,1,2,0:0:0:0:
55,281,33712,6,0,P|78:243|115:219,1,90,2|0,0:0|0:0,0:0:0:0:
205,259,34312,2,0,P|241:228|263:175,1,90,8|2,0:0|0:0,0:0:0:0:
268,91,34912,2,0,B|202:97|142:54|142:54|109:100,1,180,0|8,0:0|0:0,0:0:0:0:
206,270,36112,6,0,P|116:272|37:231,1,180,2|8,0:0|0:0,0:0:0:0:
21,329,37012,2,0,P|109:364|203:361,1,180,2|2,0:0|0:0,0:0:0:0:
242,276,37912,2,0,P|286:269|330:277,1,90,8|2,0:0|0:0,0:0:0:0:
421,314,38512,6,0,P|420:249|381:160,1,135,6|2,0:0|0:3,0:0:0:0:
370,141,39112,2,0,L|471:142,2,90,2|2|2,0:3|0:3|0:0,0:0:0:0:
326,117,39862,1,2,0:3:0:0:
326,117,40012,2,0,P|267:129|209:123,1,90,2|2,0:3|0:3,0:0:0:0:
159,67,40612,1,0,0:0:0:0:
60,53,40912,6,0,P|56:126|72:188,1,135,2|2,0:0|0:3,0:0:0:0:
104,222,41512,2,0,P|164:205|214:210,2,90,2|2|2,0:3|0:3|0:0,0:0:0:0:
89,269,42262,1,2,0:3:0:0:
89,269,42412,2,0,P|45:257|-5:266,2,90,2|2|2,0:3|0:3|0:3,0:0:0:0:
177,313,43312,6,0,L|325:286,1,135,2|2,0:0|0:3,0:0:0:0:
341,250,43912,2,0,P|333:208|301:162,2,90,2|2|2,0:3|0:3|0:0,0:0:0:0:
388,266,44662,1,2,0:3:0:0:
388,266,44812,2,0,P|403:306|442:345,1,90,2|2,0:3|0:3,0:0:0:0:
487,255,45412,1,2,0:3:0:0:
477,156,45712,6,0,P|409:113|371:60,1,135,2|2,0:0|0:3,0:0:0:0:
347,29,46312,2,0,L|443:18,2,90,2|2|2,0:3|0:3|0:0,0:0:0:0:
297,28,47062,1,2,0:3:0:0:
297,28,47212,2,0,P|293:73|274:124,1,90,2|2,0:3|0:3,0:0:0:0:
218,194,47812,1,2,0:3:0:0:
128,151,48112,6,0,P|120:211|138:260,1,90,2|2,0:0|0:3,0:0:0:0:
154,280,48562,1,2,0:3:0:0:
154,280,48712,1,2,0:0:0:0:
233,338,49012,2,0,P|283:328|337:339,1,90,2|2,0:3|0:3,0:0:0:0:
367,351,49462,1,2,0:3:0:0:
367,351,49612,2,0,L|359:243,1,90,2|2,0:3|0:0,0:0:0:0:
340,163,50212,1,2,0:3:0:0:
262,101,50512,6,0,P|205:125|151:132,1,90,2|2,0:0|0:3,0:0:0:0:
128,119,50962,1,2,0:3:0:0:
128,119,51112,1,0,0:0:0:0:
50,57,51412,2,0,P|31:97|31:142,1,90,2|2,0:3|0:0,0:0:0:0:
56,185,51862,1,2,0:3:0:0:
56,185,52012,2,0,P|71:229|60:284,1,90,2|2,0:3|0:0,0:0:0:0:
13,356,52612,1,2,0:3:0:0:
111,358,52912,6,0,L|211:355,1,90,2|2,0:0|2:3,0:0:0:0:
240,325,53362,1,2,2:3:0:0:
240,325,53512,2,0,L|339:338,1,90,2|2,2:0|0:3,0:0:0:0:
428,345,54112,2,0,P|422:290|435:238,1,90,2|2,0:0|2:3,0:0:0:0:
459,217,54562,1,2,2:3:0:0:
459,217,54712,2,0,P|470:159|454:113,1,90,2|2,2:0|0:3,0:0:0:0:
363,127,55312,6,0,B|408:230|267:302|179:171|260:103|260:103|142:139|166:34|39:93,1,540,2|0,0:0|0:0,0:0:0:0:
22,284,57712,6,0,P|88:270|151:290,1,135,6|2,0:0|0:0,0:0:0:0:
177,332,58312,2,0,P|220:321|264:330,1,90,8|2,0:0|0:0,0:0:0:0:
361,343,58912,2,0,B|364:237,1,90,2|2,0:0|0:0,0:0:0:0:
379,205,59362,1,2,0:0:0:0:
379,205,59512,2,0,P|336:194|302:153,1,90,8|2,0:0|0:0,0:0:0:0:
216,119,60112,6,0,L|217:270,1,135,2|2,0:0|0:0,0:0:0:0:
221,303,60712,1,8,0:0:0:0:
139,358,61012,2,0,P|95:367|51:359,1,90,2|0,0:0|0:0,0:0:0:0:
18,321,61462,2,0,P|34:280|37:235,1,90,2|0,0:0|0:0,0:0:0:0:
23,186,61912,1,8,0:0:0:0:
4,88,62212,1,2,0:0:0:0:
97,119,62512,6,0,P|152:132|223:100,1,135,2|2,0:0|0:0,0:0:0:0:
234,53,63112,2,0,P|282:80|330:73,1,90,8|2,0:0|0:0,0:0:0:0:
414,86,63712,2,0,B|418:119|418:119|426:141|426:141|426:184,1,90,2|2,0:0|0:0,0:0:0:0:
434,224,64162,1,2,0:0:0:0:
434,224,64312,2,0,P|389:216|346:224,1,90,8|2,0:0|0:0,0:0:0:0:
333,322,64912,6,0,P|268:337|200:321,1,135,2|2,0:0|0:0,0:0:0:0:
172,282,65512,1,8,0:0:0:0:
112,202,65812,2,0,L|203:153,1,90,2|0,0:0|0:0,0:0:0:0:
240,156,66262,2,0,P|227:92|240:45,1,90,4|0,0:3|0:0,0:0:0:0:
267,34,66712,1,8,0:0:0:0:
362,57,67012,1,2,0:0:0:0:
453,17,67312,6,0,P|470:81|458:147,1,135,2|2,0:0|0:0,0:0:0:0:
413,170,67912,2,0,P|421:213|409:257,1,90,8|2,0:0|0:0,0:0:0:0:
394,355,68512,2,0,B|347:365|349:341|304:353,1,90,2|2,0:0|0:0,0:0:0:0:
256,356,68962,1,2,0:0:0:0:
256,356,69112,2,0,B|257:307|257:307|250:266,1,90,8|2,0:0|0:0,0:0:0:0:
196,182,69712,6,0,L|50:211,1,135,2|2,0:0|0:0,0:0:0:0:
14,199,70312,1,8,0:0:0:0:
40,103,70612,2,0,L|153:81,1,90,2|8,0:0|0:0,0:0:0:0:
162,49,71062,1,2,0:0:0:0:
162,49,71212,2,0,L|272:67,1,90,2|8,0:0|0:0,0:0:0:0:
348,83,71812,1,8,0:0:0:0:
427,23,72112,6,0,P|444:86|419:151,1,135,2|2,0:0|0:0,0:0:0:0:
378,176,72712,2,0,P|404:212|404:257,1,90,8|2,0:0|0:0,0:0:0:0:
344,335,73312,2,0,P|300:326|255:329,1,90,2|2,0:0|0:0,0:0:0:0:
209,348,73762,1,2,0:0:0:0:
209,348,73912,2,0,P|167:364|122:364,1,90,8|2,0:0|0:0,0:0:0:0:
46,300,74512,6,0,B|64:267|51:229|51:229|76:205|76:205|59:159|78:122,1,180,2|2,0:3|0:3,0:0:0:0:
88,36,75412,2,0,B|161:32|161:32|193:47|193:47|269:40,1,180,2|2,0:3|0:3,0:0:0:0:
363,36,76312,2,0,P|349:78|355:122,1,90,2|2,0:3|0:3,0:0:0:0:
381,164,76762,1,2,0:3:0:0:
381,164,76912,6,0,P|317:143|252:158,1,135,6|2,0:0|0:0,0:0:0:0:
230,202,77512,2,0,P|188:191|143:204,1,90,8|2,0:0|0:0,0:0:0:0:
45,209,78112,2,0,B|35:108,1,90,2|2,0:0|0:0,0:0:0:0:
35,69,78562,1,2,0:0:0:0:
35,69,78711,2,0,P|78:79|120:67,1,90,8|2,0:0|0:0,0:0:0:0:
202,10,79312,6,0,L|351:22,1,135,2|2,0:0|0:0,0:0:0:0:
385,28,79912,1,8,0:0:0:0:
480,3,80212,2,0,P|481:47|452:98,1,90,2|0,0:0|0:0,0:0:0:0:
420,115,80662,2,0,P|423:159|439:201,1,90,2|0,0:0|0:0,0:0:0:0:
479,230,81112,1,8,0:0:0:0:
443,322,81412,1,8,0:0:0:0:
349,288,81712,6,0,P|286:311|220:300,1,135,2|2,0:0|0:0,0:0:0:0:
180,271,82312,2,0,P|145:298|101:303,1,90,8|2,0:0|0:0,0:0:0:0:
17,249,82912,2,0,L|8:141,1,90,2|2,0:0|0:0,0:0:0:0:
34,116,83362,1,2,0:0:0:0:
34,116,83512,2,0,P|78:115|122:104,1,90,8|2,0:0|0:0,0:0:0:0:
194,36,84112,6,0,P|267:25|347:48,1,135,2|2,0:0|0:0,0:0:0:0:
366,66,84712,1,8,0:0:0:0:
464,73,85012,2,0,L|455:174,1,90,2|0,0:0|0:0,0:0:0:0:
416,192,85462,2,0,L|445:292,1,90,12|0,0:3|0:0,0:0:0:0:
460,323,85912,1,8,0:0:0:0:
380,381,86212,1,8,0:0:0:0:
315,306,86512,6,0,P|252:280|186:285,1,135,2|2,0:0|0:0,0:0:0:0:
160,328,87112,2,0,P|131:293|89:279,1,90,8|2,0:0|0:0,0:0:0:0:
11,218,87712,2,0,B|6:128,1,90,2|2,0:0|0:0,0:0:0:0:
38,90,88162,1,2,0:0:0:0:
38,90,88312,2,0,P|81:99|125:91,1,90,8|2,0:0|0:0,0:0:0:0:
214,44,88912,6,0,B|211:118|211:118|223:199,1,135,2|2,0:0|0:0,0:0:0:0:
252,215,89512,1,8,0:0:0:0:
347,189,89812,2,0,P|389:194|454:180,1,90,2|8,0:0|0:0,0:0:0:0:
471,152,90262,1,8,0:0:0:0:
471,152,90412,2,0,L|466:250,1,90,0|8,0:0|0:0,0:0:0:0:
461,341,91012,1,8,0:0:0:0:
362,347,91312,6,0,P|301:364|232:347,1,135,2|2,0:0|0:0,0:0:0:0:
194,314,91912,2,0,P|152:327|109:315,1,90,8|2,0:0|0:0,0:0:0:0:
18,276,92512,2,0,P|43:239|50:195,1,90,2|2,0:0|0:0,0:0:0:0:
31,149,92962,1,2,0:0:0:0:
31,149,93112,2,0,P|14:107|18:62,1,90,2|8,0:0|0:0,0:0:0:0:
118,56,93712,6,0,B|144:56|168:40|168:40|200:56|237:39|237:39|264:56|288:56,1,180,2|2,0:3|0:3,0:0:0:0:
386,41,94612,2,0,B|388:69|379:100|379:100|400:155|400:155|385:186|387:220,1,180,2|2,0:3|0:3,0:0:0:0:
408,311,95512,2,0,B|331:292|331:292|300:296|300:296|211:272,1,180,2|6,0:3|0:0,0:0:0:0:
256,192,110512,12,0,114112,0:0:0:0:
175,284,115312,6,0,P|219:282|259:262,1,90,6|0,0:0|0:0,0:0:0:0:
334,197,115912,2,0,L|350:285,2,90,8|2|0,0:0|0:0|0:0,0:0:0:0:
247,18,117112,1,8,0:0:0:0:
49,29,117712,6,0,P|47:70|65:124,1,90,2|0,0:0|0:0,0:0:0:0:
89,211,118312,2,0,L|0:195,2,90,8|2|0,0:0|0:0|0:0,0:0:0:0:
157,139,119212,2,0,L|247:107,2,90,2|8|2,0:0|0:0|0:0,0:0:0:0:
186,233,120112,6,0,P|237:289|344:285,1,180,2|8,0:0|0:0,0:0:0:0:
478,152,121312,2,0,L|487:264,1,90,0|0,0:0|0:0,0:0:0:0:
494,340,121912,2,0,P|453:329|402:337,1,90,8|0,0:0|0:0,0:0:0:0:
314,372,122512,6,0,P|269:378|226:367,1,90,2|0,0:0|0:0,0:0:0:0:
134,329,123112,2,0,P|63:364|43:288,2,180,8|0|8,0:0|0:0|0:0,0:0:0:0:
122,230,124612,1,2,0:0:0:0:
32,187,124912,6,0,L|18:3,1,180,2|8,0:0|0:0,0:0:0:0:
107,50,125812,2,0,B|142:52|142:52|176:40|176:40|211:54|211:54|284:2|365:56,1,270,2|8,0:0|0:0,0:0:0:0:
500,194,127312,2,0,L|497:293,1,90,2|0,0:0|0:0,0:0:0:0:
439,364,127912,1,8,0:0:0:0:
357,308,128212,2,0,P|313:310|269:327,1,90,2|0,0:0|0:0,0:0:0:0:
178,363,128812,1,2,0:0:0:0:
96,306,129112,2,0,P|109:263|102:219,1,90,8|2,0:0|0:0,0:0:0:0:
39,142,129712,6,0,L|129:127,1,90,2|0,0:0|0:0,0:0:0:0:
224,106,130312,1,8,0:0:0:0:
291,178,130612,2,0,P|355:163|271:42,1,270,2|8,0:0|0:0,0:0:0:0:
193,209,132112,6,0,P|262:262|355:258,1,180,2|8,0:0|0:0,0:0:0:0:
429,320,133012,2,0,P|341:355|247:352,1,180,2|2,0:0|0:0,0:0:0:0:
174,299,133912,2,0,P|130:292|86:300,1,90,8|0,0:0|0:0,0:0:0:0:
4,243,134512,6,0,L|32:110,1,135,6|2,0:0|0:3,0:0:0:0:
79,96,135112,2,0,L|46:-16,2,90,2|2|2,0:3|0:3|0:0,0:0:0:0:
117,126,135862,1,2,0:3:0:0:
117,126,136012,2,0,P|164:124|206:135,1,90,2|2,0:3|0:3,0:0:0:0:
276,203,136612,1,2,0:3:0:0:
345,131,136912,6,0,P|373:194|355:263,1,135,2|0,0:3|0:0,0:0:0:0:
346,305,137512,2,0,P|392:298|460:302,2,90,2|2|2,0:3|0:3|0:0,0:0:0:0:
316,344,138262,1,2,0:3:0:0:
316,344,138412,2,0,P|271:350|219:342,2,90,2|0|2,0:3|0:0|0:3,0:0:0:0:
269,256,139312,6,0,L|252:105,1,135,2|2,0:0|0:3,0:0:0:0:
241,74,139912,2,0,L|339:92,2,90,2|2|2,0:3|0:3|0:0,0:0:0:0:
206,47,140662,1,2,0:3:0:0:
207,47,140812,2,0,L|115:63,1,90,2|0,0:3|0:0,0:0:0:0:
27,102,141412,1,2,0:3:0:0:
108,158,141712,6,0,B|128:231|85:225|105:312,1,135,2|2,0:0|0:3,0:0:0:0:
108,339,142312,2,0,L|21:314,2,90,2|2|2,0:3|0:3|0:0,0:0:0:0:
153,357,143062,1,2,0:3:0:0:
153,357,143212,2,0,L|244:331,1,90,2|2,0:3|0:3,0:0:0:0:
334,304,143812,1,2,0:3:0:0:
422,348,144112,6,0,P|430:304|422:260,1,90,2|2,0:0|0:3,0:0:0:0:
397,217,144562,1,2,0:3:0:0:
397,217,144712,1,2,0:0:0:0:
394,118,145012,2,0,L|285:127,1,90,2|2,0:3|0:3,0:0:0:0:
255,132,145462,1,2,0:3:0:0:
255,132,145612,2,0,P|261:177|261:221,1,90,2|2,0:3|0:0,0:0:0:0:
221,312,146212,1,2,0:3:0:0:
145,375,146512,6,0,P|99:369|49:343,1,90,2|2,0:0|0:3,0:0:0:0:
29,311,146962,1,2,0:3:0:0:
29,311,147112,1,2,0:0:0:0:
91,234,147412,2,0,L|85:132,1,90,2|2,0:3|0:0,0:0:0:0:
70,97,147862,1,2,0:3:0:0:
70,97,148012,2,0,P|28:75|-1:28,1,90,2|2,0:3|0:0,0:0:0:0:
94,2,148612,1,2,0:3:0:0:
166,69,148912,6,0,P|207:73|263:62,1,90,2|2,0:3|0:3,0:0:0:0:
292,33,149362,1,2,0:3:0:0:
292,33,149512,2,0,L|391:55,1,90,2|2,0:3|0:3,0:0:0:0:
474,82,150112,2,0,P|453:133|451:186,1,90,2|2,0:3|0:3,0:0:0:0:
470,213,150562,1,2,0:3:0:0:
470,213,150712,2,0,P|464:271|436:311,1,90,2|2,0:3|0:3,0:0:0:0:
366,351,151312,2,0,B|350:316|360:272|360:272|218:330|218:330|249:227|115:158|27:317|153:363,1,540,2|2,0:0|0:0,0:0:0:0:
279,218,153712,6,0,P|230:170|166:154,1,135,6|2,0:0|0:0,0:0:0:0:
124,179,154312,2,0,P|81:168|37:177,1,90,8|2,0:0|0:0,0:0:0:0:
24,275,154912,2,0,P|67:289|99:320,1,90,2|2,0:0|0:0,0:0:0:0:
133,355,155362,1,2,0:0:0:0:
133,355,155512,2,0,P|181:345|233:352,1,90,8|2,0:0|0:0,0:0:0:0:
317,373,156112,6,0,L|309:237,1,135,2|2,0:0|0:0,0:0:0:0:
299,189,156712,1,8,0:0:0:0:
364,114,157012,2,0,P|408:121|451:112,1,90,0|2,0:0|0:0,0:0:0:0:
497,93,157462,2,0,L|491:193,1,90,8|0,0:0|0:0,0:0:0:0:
487,232,157912,1,8,0:0:0:0:
405,288,158212,1,8,0:0:0:0:
323,231,158512,6,0,P|268:218|197:250,1,135,2|2,0:0|0:0,0:0:0:0:
197,298,159112,2,0,P|149:271|101:278,1,90,8|2,0:0|0:0,0:0:0:0:
16,276,159712,2,0,B|16:178,1,90,2|2,0:0|0:0,0:0:0:0:
25,137,160162,1,2,0:0:0:0:
25,137,160312,2,0,P|70:145|113:137,1,90,8|2,0:0|0:0,0:0:0:0:
191,76,160912,6,0,P|207:140|192:208,1,135,2|2,0:0|0:0,0:0:0:0:
169,249,161512,1,8,0:0:0:0:
256,295,161812,2,0,L|353:267,1,90,0|12,0:0|0:3,0:0:0:0:
391,266,162262,2,0,P|379:224|382:179,1,90,8|0,0:0|0:0,0:0:0:0:
412,139,162712,1,8,0:0:0:0:
341,69,163012,1,8,0:0:0:0:
252,112,163312,6,0,P|186:124|121:107,1,135,0|2,0:0|0:0,0:0:0:0:
112,58,163912,2,0,P|69:66|25:54,1,90,8|2,0:0|0:0,0:0:0:0:
17,153,164512,2,0,L|14:242,1,90,2|2,0:0|0:0,0:0:0:0:
19,292,164962,1,2,0:0:0:0:
19,292,165112,2,0,P|64:308|116:334,1,90,8|2,0:0|0:0,0:0:0:0:
197,359,165712,6,0,P|257:330|322:340,1,135,2|2,0:0|0:0,0:0:0:0:
368,359,166312,1,8,0:0:0:0:
466,357,166612,2,0,L|452:262,1,90,0|8,0:0|0:0,0:0:0:0:
418,232,167062,1,2,0:0:0:0:
418,232,167212,2,0,L|440:135,1,90,2|8,0:0|0:0,0:0:0:0:
473,51,167812,1,8,0:0:0:0:
375,68,168112,6,0,P|312:88|246:66,1,135,2|2,0:0|0:0,0:0:0:0:
217,29,168712,2,0,P|181:55|136:55,1,90,8|2,0:0|0:0,0:0:0:0:
38,71,169312,2,0,B|39:160,1,90,2|2,0:0|0:0,0:0:0:0:
56,208,169762,1,2,0:0:0:0:
56,208,169912,2,0,P|98:194|143:193,1,90,8|0,0:0|0:0,0:0:0:0:
197,276,170512,6,0,B|231:260|231:260|268:270|268:270|300:258|300:258|335:280|382:269,1,180,2|2,0:3|0:3,0:0:0:0:
433,198,171412,2,0,B|440:240|466:267|466:267|465:315|425:361,1,180,2|2,0:3|0:3,0:0:0:0:
327,365,172312,2,0,P|291:374|235:361,1,90,2|2,0:3|0:3,0:0:0:0:
201,332,172762,1,2,0:3:0:0:
201,332,172912,6,0,P|137:311|72:326,1,135,6|2,0:0|0:0,0:0:0:0:
24,312,173512,2,0,P|35:269|26:225,1,90,8|2,0:0|0:0,0:0:0:0:
43,127,174112,2,0,B|159:125,1,90,2|2,0:0|0:0,0:0:0:0:
182,137,174562,1,2,0:0:0:0:
182,137,174712,2,0,P|173:93|175:48,1,90,8|2,0:0|0:0,0:0:0:0:
272,26,175312,6,0,L|417:46,1,135,2|2,0:0|0:0,0:0:0:0:
454,54,175912,1,8,0:0:0:0:
496,143,176212,2,0,L|478:235,1,90,2|0,0:0|0:0,0:0:0:0:
437,258,176662,2,0,L|388:164,1,90,2|0,0:0|0:0,0:0:0:0:
369,136,177112,1,8,0:0:0:0:
289,194,177412,1,8,0:0:0:0:
296,292,177712,6,0,P|232:273|192:219,1,135,2|2,0:0|0:0,0:0:0:0:
186,170,178312,2,0,P|138:197|90:190,1,90,8|2,0:0|0:0,0:0:0:0:
5,200,178912,2,0,B|3:294,1,90,2|2,0:0|0:0,0:0:0:0:
22,336,179362,1,2,0:0:0:0:
22,336,179512,2,0,P|67:328|110:336,1,90,8|2,0:0|0:0,0:0:0:0:
203,368,180112,6,0,B|272:344|272:395|334:369,1,135,2|2,0:0|0:0,0:0:0:0:
372,338,180712,1,8,0:0:0:0:
462,380,181012,2,0,P|469:331|453:285,1,90,2|0,0:0|0:0,0:0:0:0:
426,254,181462,2,0,P|422:210|431:166,1,90,12|0,0:3|0:0,0:0:0:0:
465,129,181912,1,8,0:0:0:0:
421,39,182212,1,8,0:0:0:0:
340,97,182512,6,0,P|276:117|213:100,1,135,2|2,0:0|0:0,0:0:0:0:
186,57,183112,2,0,P|143:71|99:67,1,90,8|2,0:0|0:0,0:0:0:0:
0,79,183712,2,0,B|10:168,1,90,2|2,0:0|0:0,0:0:0:0:
48,202,184162,1,2,0:0:0:0:
48,202,184312,2,0,B|90:183|90:183|139:179,1,90,8|2,0:0|0:0,0:0:0:0:
183,264,184912,6,0,B|279:283|279:283|339:275,1,135,2|2,0:0|0:0,0:0:0:0:
361,258,185512,1,8,0:0:0:0:
455,227,185812,2,0,L|497:324,1,90,2|8,0:0|0:0,0:0:0:0:
492,359,186262,2,0,P|445:351|399:350,1,90,8|8,0:0|0:0,0:0:0:0:
355,364,186712,1,8,0:0:0:0:
257,378,187012,1,8,0:0:0:0:
158,364,187312,6,0,P|175:301|150:236,1,135,2|2,0:0|0:0,0:0:0:0:
125,195,187912,2,0,P|151:159|151:114,1,90,8|2,0:0|0:0,0:0:0:0:
113,23,188512,2,0,P|150:16|202:31,1,90,2|2,0:0|0:0,0:0:0:0:
233,68,188962,1,2,0:0:0:0:
233,68,189112,2,0,P|277:75|321:70,1,90,8|2,0:0|0:0,0:0:0:0:
417,46,189712,6,0,B|430:70|413:116|413:116|438:140|438:140|425:178|443:211,1,180,2|2,0:3|0:3,0:0:0:0:
475,304,190612,2,0,B|382:279|388:344|299:310,1,180,2|2,0:3|0:3,0:0:0:0:
207,345,191512,2,0,P|200:300|214:258,1,90,2|2,0:3|0:3,0:0:0:0:
250,224,191962,1,2,0:3:0:0:
250,224,192112,5,6,0:0:0:0:
256,192,192262,12,0,196912,0:0:0:0:
