osu file format v12

[General]
AudioFilename: Legend_of_Zelda_Majora's_Mask_Inverting_the_Tower_Temple_OC_ReMix.mp3
AudioLeadIn: 0
PreviewTime: 90529
Countdown: 1
SampleSet: Normal
StackLeniency: 0.7
Mode: 0
LetterboxInBreaks: 1

[Editor]
DistanceSpacing: 1
BeatDivisor: 4
GridSize: 4

[Metadata]
Title:Inverting the Tower Temple OC ReMix
TitleUnicode:Inverting the Tower Temple OC ReMix
Artist:GSlicer
ArtistUnicode:GSlicer
Creator:Michi
Version:Insane
Source:Legend of Zelda: Majora's Mask
Tags:
BeatmapID:277641
BeatmapSetID:105862

[Difficulty]
HPDrainRate:7
CircleSize:4
OverallDifficulty:8
ApproachRate:9
SliderMultiplier:1.8
SliderTickRate:1

[Events]
//Background and Video events
//Break Periods
2,74991,87962
//Storyboard Layer 0 (Background)
//Storyboard Layer 1 (Fail)
//Storyboard Layer 2 (Pass)
//Storyboard Layer 3 (Foreground)
//Storyboard Sound Samples
//Background Colour Transformations
3,100,163,162,255

[TimingPoints]
3972.24191982814,491.803278688525,4,1,0,30,1,0
11841,-133.333333333333,4,1,0,30,0,0
27578,-100,4,1,0,30,0,0
43316,-83.3333333333333,4,1,0,30,0,0
46185,-83.3333333333333,4,1,0,5,0,0
46267,-83.3333333333333,4,1,0,30,0,0
59054,-66.6666666666667,4,1,0,30,0,0
90529,-58.8235294117647,4,1,0,30,0,0

[HitObjects]
208,304,11841,2,0,P|272:296|316:240,1,135.000005149842
316,244,12578,1,0,0:0:0:0:
360,124,12824,2,0,L|384:56,2,67.5000025749208
84,184,13808,6,0,P|144:176|192:120,1,135.000005149842
212,44,14546,1,0,0:0:0:0:
288,68,14791,1,0,0:0:0:0:
288,68,15037,1,0,0:0:0:0:
84,184,15283,2,0,P|144:176|192:120,1,135.000005149842
344,276,16267,6,0,P|312:288|284:312,1,67.5000025749208
192,248,16759,1,0,0:0:0:0:
192,248,17005,2,0,P|220:224|240:188,1,67.5000025749208
444,36,17742,6,0,P|400:88|332:96,1,135.000005149842
260,76,18480,1,0,0:0:0:0:
164,60,18726,2,0,P|132:64|96:80,2,67.5000025749208
192,272,19709,6,0,P|168:296|136:316,1,67.5000025749208
320,272,20201,2,0,P|344:296|376:316,1,67.5000025749208
256,76,20693,1,0,0:0:0:0:
136,192,20939,1,0,0:0:0:0:
376,192,21185,1,0,0:0:0:0:
256,308,21431,1,0,0:0:0:0:
320,112,21677,6,0,P|344:88|376:68,1,67.5000025749208
192,112,22168,2,0,P|168:88|136:68,1,67.5000025749208
256,308,22660,1,0,0:0:0:0:
256,308,22906,1,0,0:0:0:0:
256,76,23152,2,0,L|256:8,1,67.5000025749208
100,192,23644,5,0,0:0:0:0:
52,260,23890,2,0,L|12:320,1,67.5000025749208
256,196,24382,1,0,0:0:0:0:
256,276,24627,2,0,L|256:348,1,67.5000025749208
412,192,25119,1,0,0:0:0:0:
460,260,25365,2,0,L|500:320,1,67.5000025749208
256,192,25734,12,0,27455,0:0:0:0:
112,148,27578,6,0,P|156:140|196:104,1,90
252,44,27947,1,0,0:0:0:0:
292,124,28070,2,0,P|320:156|368:184,1,90
208,308,28562,6,0,P|164:288|116:292,1,90
44,336,28931,1,0,0:0:0:0:
36,248,29054,2,0,P|40:200|28:148,1,90
404,44,29546,6,0,P|384:80|336:112,1,90
256,128,29914,1,0,0:0:0:0:
88,80,30037,2,0,P|88:124|116:164,1,90
324,192,30529,6,0,P|288:228|284:276,1,90
284,356,30898,1,0,0:0:0:0:
408,212,31021,2,0,P|452:176|472:148,1,90
184,232,31513,6,0,P|192:192|188:144,1,90
196,56,31881,1,0,0:0:0:0:
275,102,32005,2,0,P|316:104|360:84,1,90
512,211,32497,6,0,P|472:236|444:268,1,90
404,348,32865,1,0,0:0:0:0:
342,279,32989,2,0,P|308:252|264:244,1,90
60,84,33480,6,0,P|88:124|132:148,1,90
212,140,33849,1,0,0:0:0:0:
216,316,33972,2,0,P|192:276|152:252,1,90
408,92,34464,5,0,0:0:0:0:
364,184,34586,2,0,P|312:156|296:80,1,135
64,288,35201,5,0,0:0:0:0:
132,228,35324,1,0,0:0:0:0:
220,248,35447,2,0,P|260:280|300:288,1,90
388,284,35816,1,0,0:0:0:0:
460,228,35939,2,0,P|480:184|480:136,1,90
208,76,36431,6,0,P|164:96|116:92,1,90
44,48,36800,1,0,0:0:0:0:
36,136,36923,2,0,P|40:184|28:236,1,90
404,340,37415,6,0,P|384:304|336:272,1,90
256,256,37783,1,0,0:0:0:0:
88,304,37906,2,0,P|88:260|116:220,1,90
324,192,38398,6,0,P|288:156|284:108,1,90
284,28,38767,1,0,0:0:0:0:
408,172,38890,2,0,P|452:208|472:236,1,90
184,224,39382,6,0,P|172:264|140:304,1,90
56,328,39750,1,0,0:0:0:0:
32,240,39873,2,0,P|20:192|24:144,1,90
192,60,40365,6,0,P|216:96|260:128,1,90
336,156,40734,1,0,0:0:0:0:
408,212,40857,2,0,P|424:168|424:120,1,90
272,280,41349,6,0,P|236:304|180:300,1,90
100,284,41718,1,0,0:0:0:0:
20,240,41841,2,0,P|32:192|64:160,1,90
240,64,42332,5,8,0:0:0:0:
324,96,42455,1,8,0:0:0:0:
364,176,42578,1,8,0:0:0:0:
364,176,42824,2,0,L|384:272,1,90
116,232,43316,6,0,P|164:296|244:304,1,161.999995056153
296,296,43808,1,0,0:0:0:0:
400,268,44054,1,0,0:0:0:0:
116,232,44300,2,0,P|164:296|244:304,1,161.999995056153
400,268,44791,2,0,L|296:296,1,107.999996704102
160,68,45283,2,0,L|276:96,1,107.999996704102
320,104,45652,1,0,0:0:0:0:
256,236,45775,1,0,0:0:0:0:
256,236,45857,1,0,0:0:0:0:
256,236,45939,1,0,0:0:0:0:
256,236,46021,2,0,L|168:224,1,71.9999978027344
112,288,46267,6,0,P|96:208|140:144,1,161.999995056153
252,40,46759,2,0,P|268:88|252:148,2,107.999996704102
456,168,47496,5,0,0:0:0:0:
456,168,47619,1,0,0:0:0:0:
456,168,47742,2,0,L|344:260,1,107.999996704102
56,168,48234,2,0,L|168:260,1,107.999996704102
152,336,48603,2,0,P|212:300|232:208,1,161.999995056153
352,68,49218,2,0,L|236:96,1,107.999996704102
192,104,49587,1,0,0:0:0:0:
256,236,49710,1,0,0:0:0:0:
256,236,49792,1,0,0:0:0:0:
256,236,49874,1,0,0:0:0:0:
256,236,49956,2,0,L|344:224,1,71.9999978027344
400,288,50202,6,0,P|416:208|372:144,1,161.999995056153
260,40,50694,2,0,P|244:88|260:148,2,107.999996704102
32,296,51431,5,0,0:0:0:0:
80,268,51554,1,0,0:0:0:0:
132,264,51677,2,0,P|184:272|232:304,1,107.999996704102
230,301,52168,1,0,0:0:0:0:
480,296,52414,5,0,0:0:0:0:
432,268,52537,1,0,0:0:0:0:
380,264,52660,2,0,P|328:272|280:304,1,107.999996704102
282,301,53151,1,0,0:0:0:0:
256,40,53398,1,0,0:0:0:0:
256,192,53644,1,0,0:0:0:0:
256,192,53726,1,0,0:0:0:0:
256,192,53808,1,0,0:0:0:0:
256,192,53890,1,0,0:0:0:0:
16,192,54136,6,0,L|180:192,1,161.999995056153
496,192,54627,2,0,L|384:192,1,107.999996704102
236,48,55119,6,0,P|184:64|156:128,1,107.999996704102
164,208,55488,1,0,0:0:0:0:
104,312,55611,2,0,P|160:320|204:288,1,107.999996704102
412,100,56103,2,0,L|304:232,1,161.999995056153
344,308,56595,2,0,P|288:312|248:276,1,107.999996704102
48,192,57086,5,0,0:0:0:0:
88,192,57332,1,0,0:0:0:0:
128,192,57578,2,0,L|168:192,3,35.9999989013672
384,192,58070,5,0,0:0:0:0:
384,192,58316,1,0,0:0:0:0:
384,192,58562,1,0,0:0:0:0:
356,88,58685,1,0,0:0:0:0:
252,64,58808,1,0,0:0:0:0:
156,116,58931,1,0,0:0:0:0:
44,104,59054,6,0,L|68:168,1,67.5000025749208
44,300,59300,2,0,L|100:260,1,67.5000025749208
224,304,59546,2,0,P|217:233|174:186,1,135.000005149842
88,168,59914,1,0,0:0:0:0:
320,92,60037,6,0,L|380:128,1,67.5000025749208
464,224,60283,2,0,L|396:240,1,67.5000025749208
328,316,60529,2,0,P|296:256|312:184,1,135.000005149842
360,124,60898,1,0,0:0:0:0:
416,56,61021,1,0,0:0:0:0:
332,28,61144,1,0,0:0:0:0:
276,96,61267,1,0,0:0:0:0:
204,44,61390,1,0,0:0:0:0:
192,132,61513,5,0,0:0:0:0:
192,132,61595,1,0,0:0:0:0:
192,132,61677,1,0,0:0:0:0:
192,132,61759,2,0,L|92:224,1,135.000005149842
52,300,62127,1,0,0:0:0:0:
140,308,62250,2,0,L|208:280,1,67.5000025749208
336,176,62496,2,0,P|352:240|308:304,1,135.000005149842
244,340,62865,1,0,0:0:0:0:
456,116,62988,6,0,L|384:96,1,67.5000025749208
264,40,63234,2,0,L|288:108,1,67.5000025749208
318,296,63480,2,0,P|352:240|336:176,1,135.000005149842
288,104,63849,1,0,0:0:0:0:
212,148,63972,1,0,0:0:0:0:
156,80,64095,1,0,0:0:0:0:
100,148,64218,2,0,L|132:208,1,67.5000025749208
252,264,64464,1,0,0:0:0:0:
252,264,64709,6,0,P|224:320|152:332,1,135.000005149842
72,308,65078,1,0,0:0:0:0:
48,224,65201,1,0,0:0:0:0:
100,148,65324,1,0,0:0:0:0:
28,96,65447,1,0,0:0:0:0:
28,96,65529,1,0,0:0:0:0:
28,96,65611,1,0,0:0:0:0:
28,96,65693,2,0,P|84:56|144:72,1,135.000005149842
320,244,66185,5,0,0:0:0:0:
144,336,66308,1,0,0:0:0:0:
148,136,66431,1,0,0:0:0:0:
148,136,66677,1,0,0:0:0:0:
468,280,66923,6,0,L|444:216,1,67.5000025749208
468,84,67169,2,0,L|412:124,1,67.5000025749208
288,80,67415,2,0,P|295:151|338:198,1,135.000005149842
424,216,67783,1,0,0:0:0:0:
192,292,67906,6,0,L|132:256,1,67.5000025749208
48,160,68152,2,0,L|116:144,1,67.5000025749208
184,68,68398,2,0,P|216:128|200:200,1,135.000005149842
152,260,68767,1,0,0:0:0:0:
96,328,68890,1,0,0:0:0:0:
180,356,69013,1,0,0:0:0:0:
236,288,69136,1,0,0:0:0:0:
308,340,69259,1,0,0:0:0:0:
320,252,69382,5,0,0:0:0:0:
320,252,69464,1,0,0:0:0:0:
320,252,69546,1,0,0:0:0:0:
320,252,69628,2,0,L|420:160,1,135.000005149842
460,84,69996,1,0,0:0:0:0:
372,76,70119,2,0,L|304:104,1,67.5000025749208
176,208,70365,2,0,P|160:144|204:80,1,135.000005149842
268,44,70734,1,0,0:0:0:0:
56,268,70857,6,0,L|128:288,1,67.5000025749208
248,344,71103,2,0,L|224:276,1,67.5000025749208
194,88,71349,2,0,P|160:144|176:208,1,135.000005149842
224,280,71718,1,0,0:0:0:0:
300,236,71841,1,0,0:0:0:0:
356,304,71964,1,0,0:0:0:0:
412,236,72087,2,0,L|380:176,1,67.5000025749208
260,120,72333,1,0,0:0:0:0:
260,120,72578,6,0,P|288:64|360:52,1,135.000005149842
440,76,72947,1,0,0:0:0:0:
464,160,73070,1,0,0:0:0:0:
412,236,73193,1,0,0:0:0:0:
484,288,73316,1,0,0:0:0:0:
484,288,73398,1,0,0:0:0:0:
484,288,73480,1,0,0:0:0:0:
484,288,73562,2,0,P|428:328|368:312,1,135.000005149842
292,264,73931,1,0,0:0:0:0:
208,288,74054,2,0,P|216:220|268:172,1,135.000005149842
336,124,74423,5,0,0:0:0:0:
180,52,74546,1,0,0:0:0:0:
156,220,74668,1,0,0:0:0:0:
336,124,74791,1,0,0:0:0:0:
256,192,88562,12,0,89546,0:0:0:0:
156,100,89668,5,0,0:0:0:0:
228,52,89791,1,0,0:0:0:0:
300,100,89914,1,0,0:0:0:0:
356,32,90037,2,0,P|380:92|360:160,1,135.000005149842
96,288,90529,6,0,P|168:312|248:280,1,153.000002918243
304,244,90898,1,0,0:0:0:0:
464,56,91021,2,0,L|368:180,1,153.000002918243
304,244,91390,1,0,0:0:0:0:
64,152,91513,6,0,P|116:100|196:104,1,153.000002918243
256,144,91882,1,0,0:0:0:0:
392,280,92005,2,0,P|340:332|260:328,1,153.000002918243
196,296,92373,1,0,0:0:0:0:
64,152,92496,6,0,P|116:100|196:104,1,153.000002918243
256,144,92865,1,0,0:0:0:0:
256,144,93111,6,0,L|224:224,1,76.5000014591217
196,296,93357,2,0,P|260:304|320:240,1,153.000002918243
248,48,93726,2,0,P|184:40|124:104,1,153.000002918243
52,280,94218,1,0,0:0:0:0:
52,280,94300,1,0,0:0:0:0:
52,280,94382,1,0,0:0:0:0:
52,280,94464,6,0,L|184:196,1,153.000002918243
244,156,94832,1,0,0:0:0:0:
196,296,94955,2,0,L|328:212,1,153.000002918243
388,172,95323,1,0,0:0:0:0:
196,48,95447,6,0,L|328:132,1,153.000002918243
388,172,95816,1,0,0:0:0:0:
52,64,95939,2,0,L|184:148,1,153.000002918243
244,188,96308,1,0,0:0:0:0:
