osu file format v5

[General]
AudioFilename: GReeeeN-UNITY.mp3
AudioLeadIn: 0
PreviewTime: -1
Countdown: 1
SampleSet: Normal
EditorBookmarks: 40524,74386,131692

[Metadata]
Title:UNITY
Artist:GReeeeN
Creator:Enok Walker
Version:Insane

[Difficulty]
HPDrainRate:7
CircleSize:5
OverallDifficulty:7
SliderMultiplier:1.4
SliderTickRate:2

[Events]
//Background and Video events
//Break Periods
2,39926,50023
2,73868,85402
2,131302,143308
//Storyboard Layer 0 (Background)
//Storyboard Layer 1 (Failing)
//Storyboard Layer 2 (Passing)
//Storyboard Layer 3 (Foreground)
//Storyboard Sound Samples
//Background Colour Transformations
3,100,163,162,255

[TimingPoints]
402,359.281437125748,4,1,0,100

[HitObjects]
256,64,17647,5,4
256,192,18186,1,0
208,256,18545,1,0
256,256,18725,1,0
304,256,18904,1,0
368,320,19264,2,0,B|523:370|352:48,1,350
256,64,20521,5,4
256,192,21060,1,0
304,256,21419,1,0
256,256,21599,1,0
208,256,21779,1,0
144,320,22138,2,0,B|-11:370|160:48,1,350
256,48,23396,5,2
186,159,23934,1,0
330,159,24473,1,0
256,112,24833,2,0,B|256:288,1,140
128,336,25551,1,0
160,336,25731,1,0
192,336,25910,1,0
224,336,26090,1,0
256,336,26270,5,4
186,225,26809,1,0
224,176,26988,1,0
288,176,27168,1,0
330,225,27348,1,0
256,272,27707,2,4,B|256:96,1,140
256,132,28425,1,0
256,132,28605,1,0
256,132,28785,1,0
256,132,28964,1,0
256,48,29144,5,4
192,240,29683,1,0
288,240,30042,1,0
352,240,30222,1,0
464,240,30581,1,0
288,160,31120,5,0
352,144,31300,1,0
416,128,31479,1,0
480,96,31659,1,0
416,64,31839,1,0
352,48,32018,1,2
288,32,32198,1,0
224,160,32557,5,0
160,144,32737,1,0
96,128,32916,1,0
32,96,33096,1,0
96,64,33276,1,0
160,48,33455,1,2
224,32,33635,1,0
256,96,33994,2,0,B|451:188|288:256|160:256|256:352,1,350
256,224,35431,5,0
400,192,35791,2,0,B|400:96|304:80,1,140
256,32,36330,1,0
256,112,36599,1,0
256,192,36869,1,0
176,80,37228,6,0,B|112:80|112:128,2,70
256,32,37767,1,0
256,112,38036,1,0
256,192,38306,1,0
256,192,38665,12,0,39743
64,48,51240,5,0
128,64,51419,1,0
80,112,51599,1,0
144,128,51779,1,0
96,176,51958,1,0
160,192,52138,2,0,B|128:256|256:272,2,140
224,192,53036,1,0
256,128,53216,2,0,B|336:112|208:64|256:16,1,140
448,48,54114,5,0
384,64,54294,1,0
432,112,54473,1,0
368,128,54653,1,0
416,176,54833,1,0
352,192,55012,2,0,B|384:256|256:272,2,140
288,192,55910,1,0
256,128,56090,2,0,B|176:112|304:64|256:16,1,140
256,320,56988,5,0
320,288,57168,1,0
352,224,57348,1,0
352,160,57527,1,0
320,96,57707,1,0
256,64,57887,1,0
192,288,58246,1,0
160,224,58425,1,0
192,96,58785,1,0
160,160,58964,1,0
256,192,59324,1,2
256,192,60042,12,0,61839
64,48,62737,5,0
128,64,62916,1,0
80,112,63096,1,0
144,128,63276,1,0
96,176,63455,1,0
160,192,63635,2,0,B|128:256|256:272,2,140
224,192,64533,1,0
256,128,64713,2,0,B|336:112|208:64|256:16,1,140
448,48,65611,5,0
384,64,65791,1,0
432,112,65970,1,0
368,128,66150,1,0
416,176,66330,1,0
352,192,66509,2,0,B|384:256|256:272,2,140
288,192,67407,1,0
256,128,67587,2,0,B|176:112|304:64|256:16,1,140
48,112,68665,6,0,B|160:48|256:32|352:48|480:112,2,420
256,192,71180,1,4
256,192,71899,12,0,73695
256,192,86629,5,0
304,240,86809,1,0
352,192,86989,1,0
400,240,87168,1,0
448,192,87348,2,0,B|448:144|352:112|304:128,1,140
256,192,88067,5,0
208,240,88246,1,0
160,192,88426,1,0
112,240,88605,1,0
64,192,88785,2,0,B|64:144|160:112|208:128,1,140
224,32,89683,5,0
224,96,89863,1,0
224,160,90043,1,0
224,224,90222,2,0,B|160:288,2,70
288,224,90761,1,0
352,224,90941,2,0,B|416:288,2,70
288,160,91480,1,0
288,96,91659,1,0
352,96,91839,2,4,B|432:32,3,70
245,231,92916,5,0
293,183,93095,1,2
229,167,93275,1,0
181,215,93455,1,2
197,279,93634,1,0
261,295,93814,1,2
309,247,93994,1,0
357,199,94173,1,2
341,135,94353,1,0
277,119,94533,1,2
213,103,94712,1,0
165,151,94892,1,2
64,336,95251,6,0,B|240:336,1,140
272,336,95970,1,0
384,256,96330,1,0
384,192,96510,1,0
384,128,96689,2,0,B|256:128|256:48,2,140
48,192,98126,6,0,B|144:96|256:80,1,210
288,144,99025,1,0
240,192,99204,1,4
192,240,99384,1,0
256,256,99564,1,0
304,208,99743,1,4
352,160,99923,1,0
416,176,100102,1,0
368,224,100282,1,4
320,272,100462,1,0
272,320,100641,2,0,B|128:320,2,140
144,80,102258,6,2,B|208:48|240:64,1,70
320,64,102797,2,2,B|368:64|400:96,1,70
464,192,103875,6,0,B|368:96|256:80,1,210
224,144,104773,1,0
272,192,104953,1,4
320,240,105132,1,0
256,256,105312,1,0
208,208,105492,1,4
160,160,105671,1,0
96,176,105851,1,0
144,224,106031,1,4
192,272,106210,1,0
240,320,106390,2,0,B|384:320,2,140
256,192,107468,12,0,108186
128,64,108725,5,0
80,112,108905,2,4,B|48:160|96:192,2,70
144,128,109444,1,0
160,192,109623,2,0,B|256:224|448:192,1,280
448,256,110522,1,0
400,304,110701,1,0
256,336,111061,1,0
384,64,111599,5,0
432,112,111779,2,4,B|464:160|416:192,2,70
368,128,112318,1,0
352,192,112498,2,0,B|256:224|64:192,1,280
64,256,113396,1,0
112,304,113576,1,0
256,336,113935,1,0
256,192,114473,5,0
256,128,114652,1,0
320,160,114832,1,0
320,224,115012,1,0
256,256,115191,1,0
192,224,115371,2,0,B|160:128|208:64,1,140
256,64,115910,2,0,B|286:-15|320:64,1,105
384,96,116449,2,0,B|416:192|368:256,1,140
48,192,117347,6,0,B|256:112|480:192,2,420
256,192,119862,1,2
128,320,120221,5,0
80,272,120401,2,4,B|48:224|96:192,2,70
144,256,120940,1,0
160,192,121119,2,0,B|256:160|448:192,1,280
448,128,122018,1,0
400,80,122197,1,0
256,48,122557,1,0
384,320,123095,5,0
432,272,123276,2,4,B|464:224|416:192,2,70
368,256,123815,1,0
352,192,123994,2,0,B|256:160|64:192,1,280
64,128,124893,1,0
112,80,125072,1,0
256,48,125431,1,0
64,272,126149,5,0
192,224,126509,1,0
256,352,126868,1,0
320,224,127227,1,0
448,272,127586,1,0
384,144,127946,1,0
256,64,128305,1,0
144,144,128664,1,0
256,192,129024,1,2
256,192,129563,12,0,131179
48,48,144114,1,0
112,48,144294,1,0
176,48,144474,2,0,B|320:48,2,140
176,112,145372,1,0
224,160,145552,1,0
272,208,145731,1,0
320,256,145911,1,0
368,304,146090,1,0
416,352,146270,1,0
464,304,146449,1,2
464,48,146809,5,0
400,48,146988,1,0
336,48,147168,2,0,B|240:48,2,70
304,112,147707,1,0
272,160,147887,1,0
240,208,148066,1,0
208,256,148246,1,0
176,304,148425,1,0
144,352,148605,1,2
80,336,148964,6,0,B|32:192|80:32,1,280
432,336,150581,2,0,B|480:192|432:32,1,280
176,48,151839,5,0
176,112,152018,1,0
176,176,152198,1,0
176,240,152378,5,0
144,304,152557,1,0
208,304,152737,1,4
272,304,152916,5,4
240,240,153096,1,4
304,240,153276,1,4
336,304,153455,5,4
400,304,153635,1,4
368,240,153815,1,4
256,192,153994,12,0,155431
448,48,156150,5,0
384,64,156330,1,0
432,112,156509,1,0
368,128,156689,1,0
416,176,156869,1,0
352,192,157048,2,0,B|384:256|256:272,2,140
288,192,157946,1,0
256,128,158126,2,0,B|176:112|304:64|256:16,1,140
384,320,159024,5,0
432,272,159204,2,4,B|464:224|416:192,2,70
368,256,159743,1,0
352,192,159922,2,0,B|256:160|64:192,1,280
64,128,160821,1,0
112,80,161000,1,0
256,48,161360,1,0
256,320,161899,5,0
192,288,162078,1,0
160,224,162258,1,0
160,160,162437,1,0
192,96,162617,1,0
256,64,162797,1,0
320,288,163156,1,0
352,224,163336,1,0
320,96,163695,1,0
352,160,163875,1,0
256,192,164234,1,2
256,192,164952,12,0,166749
384,64,167647,5,0
432,112,167827,2,4,B|464:160|416:192,2,70
368,128,168366,1,0
352,192,168545,2,0,B|256:224|64:192,1,280
64,256,169443,1,0
112,304,169623,1,0
256,336,169982,1,0
64,48,170521,5,0
128,64,170701,1,0
80,112,170881,1,0
144,128,171060,1,0
96,176,171240,1,0
160,192,171419,2,0,B|128:256|256:272,2,140
224,192,172318,1,0
256,128,172497,2,0,B|336:112|208:64|256:16,1,140
464,112,173575,6,0,B|352:48|256:32|160:48|32:112,2,420
256,192,176090,1,2
256,192,176809,12,0,179144
