osu file format v5

[General]
AudioFilename: GReeeeN-UNITY.mp3
AudioLeadIn: 0
PreviewTime: -1
Countdown: 1
SampleSet: Normal
EditorBookmarks: 40524,74386,131692

[Metadata]
Title:UNITY
Artist:GReeeeN
Creator:Enok Walker
Version:Hard

[Difficulty]
HPDrainRate:6
CircleSize:5
OverallDifficulty:6
SliderMultiplier:1.2
SliderTickRate:2

[Events]
//Background and Video events
//Break Periods
2,39920,50318
2,73868,85402
2,131352,143186
//Storyboard Layer 0 (Background)
//Storyboard Layer 1 (Failing)
//Storyboard Layer 2 (Passing)
//Storyboard Layer 3 (Foreground)
//Storyboard Sound Samples
//Background Colour Transformations
3,100,163,162,255

[TimingPoints]
402,359.281437125748,4,1,0,100

[HitObjects]
256,64,17647,5,4
256,192,18186,1,0
176,304,18545,1,0
336,304,18904,1,0
400,304,19264,2,0,B|523:156|384:16,1,300
256,64,20521,5,4
256,192,21060,1,0
336,304,21419,1,0
176,304,21779,1,0
112,304,22138,2,0,B|-11:156|128:16,1,300
256,32,23396,5,2
186,143,23934,1,0
320,144,24473,1,0
192,272,25012,1,0
192,336,25192,2,0,B|320:336,2,120
256,272,26270,5,0
256,80,26809,2,0,B|256:208,2,120
224,32,27707,1,0
288,32,27887,1,0
112,192,28246,2,0,B|256:224|416:192,1,300
416,48,29683,5,0
480,128,30042,2,0,B|400:176|288:128,1,180
96,128,31120,5,0
48,192,31300,2,0,B|112:224|240:192,1,180
288,192,32018,1,0
480,272,32557,5,0
416,320,32737,2,0,B|368:352|288:320,1,120
256,272,33276,1,0
208,208,33455,1,0
288,32,33994,6,0,B|176:144|269:240|464:64|336:320,1,360
256,320,35431,5,0
144,304,35791,2,0,B|57:191|144:64,1,240
256,48,36869,5,0
368,80,37228,2,0,B|455:193|368:320,1,240
256,320,38306,5,0
192,96,38665,1,0
256,96,38845,1,0
320,96,39024,1,0
352,144,39204,2,4,B|240:196|160:144,1,180
96,288,51240,6,0,B|48:176|96:48,1,240
160,48,52138,1,4
256,160,52497,1,0
256,224,52677,1,0
160,320,53036,2,0,B|256:352|352:320,1,180
416,288,54114,6,0,B|464:176|416:48,1,240
352,48,55012,1,4
256,160,55372,1,0
256,224,55551,1,0
352,320,55910,2,0,B|256:352|160:320,1,180
256,96,56988,6,0,B|256:32,4,60
256,160,57887,1,4
112,192,58246,1,0
144,256,58425,1,0
288,288,58785,1,0
352,272,58964,1,0
416,144,59324,1,0
256,192,59863,12,0,62198
96,96,62737,6,0,B|48:208|96:336,1,240
160,336,63635,1,4
256,224,63994,1,0
256,160,64174,1,0
160,64,64533,2,0,B|256:32|352:64,1,180
416,96,65611,6,0,B|464:208|416:336,1,240
352,336,66509,1,4
256,224,66869,1,0
256,160,67048,1,0
352,64,67407,2,0,B|256:32|160:64,1,180
48,192,68665,6,0,B|253:440|480:192,2,480
256,192,71899,12,0,73695
256,192,86629,5,0
352,192,86988,1,0
448,192,87348,2,0,B|448:144|352:112|336:128,1,120
256,192,88066,5,0
160,192,88425,1,0
64,192,88785,2,0,B|64:144|160:112|176:128,1,120
256,48,89863,5,0
224,112,90222,1,0
288,112,90581,1,0
320,176,90940,1,0
256,176,91300,1,0
192,176,91659,6,0,L|192:272|320:240|320:272,1,240
320,48,92916,5,0
320,48,93096,2,0,B|176:48,1,120
160,112,93635,2,0,B|224:112,1,60
288,112,93994,2,0,B|368:112,1,60
346,174,94354,2,0,B|282:174,1,60
221,173,94713,2,0,B|143:173,1,60
96,304,95252,6,0,B|160:368|224:304,1,120
256,192,95970,1,0
416,304,96330,6,0,B|352:368|288:304,3,120
80,192,98126,6,0,B|176:96|240:80,1,180
288,144,99024,1,0
240,192,99204,1,0
352,176,99563,1,0
400,128,99743,1,0
416,208,100102,1,0
368,256,100282,1,0
272,320,100641,2,0,B|128:320,2,120
176,48,102258,6,2,B|240:16|256:32,1,60
304,32,102797,2,2,B|352:32|384:64,1,60
432,192,103336,6,0,B|336:96|272:80,1,180
224,144,104234,1,0
272,192,104413,1,0
160,176,104773,1,0
112,128,104952,1,0
96,208,105312,1,0
144,256,105491,1,0
240,320,105851,1,0
240,320,106030,2,0,B|341:321|391:275|394:183|288:128,1,300
256,192,107467,12,0,108186
128,64,108725,5,0
80,112,108904,2,4,B|48:160|96:176,2,60
144,128,109443,1,0
160,192,109623,2,0,B|256:224|416:192,1,240
448,256,110521,1,0
400,304,110701,1,0
256,336,111060,1,0
384,64,111599,5,0
432,112,111779,2,4,B|464:160|416:176,2,60
368,128,112318,1,0
352,192,112497,2,0,B|256:224|96:192,1,240
64,256,113396,1,0
112,304,113575,1,0
256,336,113934,1,0
144,176,114473,5,0
192,128,114653,2,0,L|255:57|320:128|336:128,1,180
368,176,115372,1,0
480,272,115731,1,0
432,320,115910,1,0
288,320,116270,1,0
224,304,116449,1,0
80,256,116809,1,0
48,192,117348,6,0,B|256:112|480:192,2,420
128,320,120222,5,0
80,272,120402,2,4,B|48:224|96:208,2,60
144,256,120940,1,0
160,192,121120,2,0,B|256:160|416:192,1,240
448,128,122018,1,0
400,80,122198,1,0
256,48,122557,1,0
384,320,123096,5,0
432,272,123276,2,4,B|464:224|416:208,2,60
368,256,123815,1,0
352,192,123994,2,0,B|256:160|96:192,1,240
64,128,124893,1,0
112,80,125072,1,0
256,48,125431,1,0
64,272,126150,5,0
192,224,126509,1,0
256,352,126869,1,0
320,224,127228,1,0
448,272,127587,1,0
384,144,127946,1,0
256,64,128306,1,0
144,144,128665,1,0
256,192,129024,1,2
256,192,129384,12,0,131180
48,48,144114,1,0
112,48,144294,1,0
176,48,144473,2,0,B|320:48,2,120
176,112,145372,1,0
224,176,145551,2,0,L|480:352,1,300
464,48,146809,5,0
400,48,146988,1,0
336,48,147168,2,0,B|224:48,3,60
336,112,148066,1,0
288,176,148246,2,0,L|160:288,1,120
80,336,148964,5,0
80,336,149144,2,0,B|32:192|80:48,1,240
432,336,150402,1,0
432,336,150581,2,0,B|480:192|432:48,1,240
256,48,152018,5,0
256,112,152198,1,0
256,176,152378,1,0
224,240,152737,2,0,L|160:288,2,60
288,240,153276,2,0,L|336:288,3,60
256,192,154174,12,0,155611
96,288,156150,6,0,B|48:176|96:48,1,240
160,48,157048,1,4
256,160,157407,1,0
256,224,157587,1,0
160,320,157946,2,0,B|256:352|352:320,1,180
384,64,159024,5,0
432,112,159204,2,4,B|464:160|416:176,2,60
368,128,159743,1,0
352,192,159922,2,0,B|256:224|96:192,1,240
64,256,160821,1,0
112,304,161000,1,0
256,336,161360,1,0
256,96,161899,6,0,B|256:32,4,60
256,160,162797,1,4
112,192,163156,1,0
144,256,163336,1,0
288,288,163695,1,0
352,272,163875,1,0
416,144,164234,1,0
256,192,164773,12,0,167108
128,320,167647,5,0
80,272,167827,2,4,B|48:224|96:208,2,60
144,256,168366,1,0
160,192,168545,2,0,B|256:160|416:192,1,240
448,128,169443,1,0
400,80,169623,1,0
256,48,169982,1,0
96,288,170521,6,0,B|48:176|96:48,1,240
160,48,171419,1,4
256,160,171779,1,0
256,224,171958,1,0
160,320,172318,2,0,B|256:352|352:320,1,180
48,192,173575,6,0,B|253:-56|480:192,2,480
256,192,176809,12,0,179144
