osu file format v14

[General]
AudioFilename: GReeeeN - 6th Album.mp3
AudioLeadIn: 0
PreviewTime: 120340
Countdown: 0
SampleSet: Soft
StackLeniency: 0.7
Mode: 3
LetterboxInBreaks: 0
SpecialStyle: 0
WidescreenStoryboard: 0

[Editor]
DistanceSpacing: 0.8
BeatDivisor: 4
GridSize: 4
TimelineZoom: 1.8

[Metadata]
Title:Shinobi
TitleUnicode:忍
Artist:GReeeeN
ArtistUnicode:GReeeeN
Creator:ExUsagi
Version:7K Intermediate
Source:Teenage Mutant Ninja Turtles
Tags:TMNT 2012 Nickelodeon
BeatmapID:479488
BeatmapSetID:202755

[Difficulty]
HPDrainRate:7.5
CircleSize:7
OverallDifficulty:7.5
ApproachRate:5
SliderMultiplier:1.4
SliderTickRate:1

[Events]
//Background and Video events
0,0,"BG.png",0,0
//Break Periods
//Storyboard Layer 0 (Background)
//Storyboard Layer 1 (Fail)
//Storyboard Layer 2 (Pass)
//Storyboard Layer 3 (Foreground)
//Storyboard Sound Samples

[TimingPoints]
816,357.142857142857,4,1,1,50,1,0
47958,-111.111111111111,4,2,0,50,0,0
53673,-100,4,1,1,50,0,0
59387,-100,4,1,1,50,0,1
82244,-100,4,1,1,50,0,0
131530,357.142857142857,4,1,1,50,1,0
132244,-100,4,1,1,50,0,1
154387,-100,4,2,1,50,0,0

[HitObjects]
256,192,1530,5,4,0:0:0:0:
256,192,1887,1,4,0:0:0:0:
475,192,2244,1,2,0:0:0:0:
256,192,2244,1,0,0:0:0:0:
36,192,2244,1,4,0:0:0:0:
182,192,2601,1,0,0:0:0:0:
36,192,2958,1,2,0:0:0:0:
475,192,2958,1,4,0:0:0:0:
256,192,2958,1,0,0:0:0:0:
329,192,3315,1,0,0:0:0:0:
36,192,3494,1,2,0:0:0:0:
109,192,3494,1,0,0:0:0:0:
182,192,3494,1,4,0:0:0:0:
329,192,3673,1,2,0:0:0:0:
475,192,3673,1,4,0:0:0:0:
402,192,3673,1,0,0:0:0:0:
109,192,4030,1,0,0:0:0:0:
182,192,4387,1,2,0:0:0:0:
329,192,4387,1,0,0:0:0:0:
475,192,4387,1,4,0:0:0:0:
256,192,4744,1,0,0:0:0:0:
109,192,4744,1,2,0:0:0:0:
402,192,4744,1,4,0:0:0:0:
475,192,5101,128,0,5458:0:0:0:0:
36,192,5101,1,2,0:0:0:0:
329,192,5101,1,4,0:0:0:0:
182,192,5458,1,0,0:0:0:0:
329,192,5637,1,0,0:0:0:0:
475,192,5815,1,2,0:0:0:0:
256,192,5815,1,4,0:0:0:0:
36,192,5815,128,0,6173:0:0:0:0:
109,192,6173,1,0,0:0:0:0:
256,192,6351,1,0,0:0:0:0:
402,192,6530,1,4,0:0:0:0:
329,192,6530,1,0,0:0:0:0:
475,192,6530,1,2,0:0:0:0:
475,192,6887,1,2,0:0:0:0:
402,192,6887,1,0,0:0:0:0:
256,192,6887,1,4,0:0:0:0:
182,192,7244,1,4,0:0:0:0:
329,192,7244,1,0,0:0:0:0:
475,192,7244,1,2,0:0:0:0:
256,192,7601,1,0,0:0:0:0:
475,192,7601,1,2,0:0:0:0:
109,192,7601,1,4,0:0:0:0:
475,192,7958,1,2,0:0:0:0:
36,192,7958,1,4,0:0:0:0:
182,192,7958,1,0,0:0:0:0:
109,192,8315,1,8,0:0:0:0:
329,192,8315,1,0,0:0:0:0:
182,192,8673,1,2,0:0:0:0:
402,192,8673,1,0,0:0:0:0:
256,192,9030,1,8,0:0:0:0:
36,192,9030,1,0,0:0:0:0:
475,192,9208,1,2,0:0:0:0:
256,192,9387,1,2,0:0:0:0:
36,192,9387,1,0,0:0:0:0:
475,192,9565,1,0,0:0:0:0:
182,192,9744,1,8,0:0:0:0:
109,192,9744,1,0,0:0:0:0:
475,192,9923,1,0,0:0:0:0:
329,192,10101,1,2,0:0:0:0:
402,192,10101,1,0,0:0:0:0:
36,192,10458,1,8,0:0:0:0:
109,192,10637,1,0,0:0:0:0:
329,192,10815,1,2,0:0:0:0:
475,192,10815,1,0,0:0:0:0:
256,192,10994,1,2,0:0:0:0:
182,192,11173,1,2,0:0:0:0:
36,192,11173,1,0,0:0:0:0:
256,192,11351,1,2,0:0:0:0:
329,192,11530,1,2,0:0:0:0:
475,192,11530,1,0,0:0:0:0:
256,192,11708,1,2,0:0:0:0:
36,192,11887,1,2,0:0:0:0:
182,192,11887,1,0,0:0:0:0:
109,192,12065,1,2,0:0:0:0:
329,192,12244,1,2,0:0:0:0:
475,192,12423,1,0,0:0:0:0:
402,192,12601,1,2,0:0:0:0:
329,192,12780,1,0,0:0:0:0:
256,192,12958,1,2,0:0:0:0:
182,192,13315,1,8,0:0:0:0:
329,192,13315,1,0,0:0:0:0:
36,192,13673,1,6,0:0:0:0:
256,192,13673,1,4,0:0:0:0:
109,192,14030,1,8,0:0:0:0:
329,192,14030,1,0,0:0:0:0:
402,192,14387,1,2,0:0:0:0:
182,192,14387,1,0,0:0:0:0:
109,192,14744,1,8,0:0:0:0:
256,192,14744,1,0,0:0:0:0:
182,192,14923,1,0,0:0:0:0:
402,192,15101,1,2,0:0:0:0:
256,192,15101,1,0,0:0:0:0:
329,192,15280,1,0,0:0:0:0:
256,192,15458,1,8,0:0:0:0:
109,192,15458,1,0,0:0:0:0:
182,192,15637,1,0,0:0:0:0:
109,192,15815,1,2,0:0:0:0:
402,192,15815,1,0,0:0:0:0:
36,192,16173,1,8,0:0:0:0:
329,192,16173,1,0,0:0:0:0:
109,192,16351,1,0,0:0:0:0:
402,192,16351,1,0,0:0:0:0:
475,192,16530,1,2,0:0:0:0:
182,192,16530,1,0,0:0:0:0:
256,192,16708,1,0,0:0:0:0:
329,192,16887,1,8,0:0:0:0:
36,192,16887,1,0,0:0:0:0:
402,192,17065,1,0,0:0:0:0:
109,192,17065,1,0,0:0:0:0:
182,192,17244,1,2,0:0:0:0:
475,192,17244,1,0,0:0:0:0:
256,192,17423,1,0,0:0:0:0:
109,192,17601,1,8,0:0:0:0:
329,192,17601,1,0,0:0:0:0:
182,192,17780,1,0,0:0:0:0:
402,192,17780,1,0,0:0:0:0:
256,192,17958,1,2,0:0:0:0:
475,192,17958,1,0,0:0:0:0:
36,192,18137,1,0,0:0:0:0:
475,192,18315,128,0,19030:0:0:0:0:
329,192,18315,1,8,0:0:0:0:
36,192,18673,128,0,19030:0:0:0:0:
182,192,18673,1,2,0:0:0:0:
256,192,19030,1,8,0:0:0:0:
256,192,19208,1,0,0:0:0:0:
109,192,19387,1,2,0:0:0:0:
402,192,19387,1,4,0:0:0:0:
402,192,19744,1,8,0:0:0:0:
182,192,19744,1,0,0:0:0:0:
402,192,20101,1,2,0:0:0:0:
256,192,20101,1,0,0:0:0:0:
256,192,20458,1,8,0:0:0:0:
36,192,20458,1,0,0:0:0:0:
475,192,20637,1,0,0:0:0:0:
109,192,20815,1,2,0:0:0:0:
329,192,20815,1,0,0:0:0:0:
36,192,20994,1,0,0:0:0:0:
182,192,21173,1,8,0:0:0:0:
402,192,21173,1,0,0:0:0:0:
109,192,21351,1,0,0:0:0:0:
475,192,21530,1,2,0:0:0:0:
256,192,21530,1,0,0:0:0:0:
36,192,21887,1,8,0:0:0:0:
256,192,21887,1,0,0:0:0:0:
109,192,22065,1,0,0:0:0:0:
329,192,22065,1,0,0:0:0:0:
182,192,22244,1,2,0:0:0:0:
402,192,22244,1,0,0:0:0:0:
256,192,22423,1,0,0:0:0:0:
36,192,22601,1,8,0:0:0:0:
182,192,22601,1,0,0:0:0:0:
109,192,22780,1,0,0:0:0:0:
256,192,22780,1,0,0:0:0:0:
182,192,22958,1,2,0:0:0:0:
329,192,22958,1,0,0:0:0:0:
402,192,23137,1,0,0:0:0:0:
36,192,23315,1,8,0:0:0:0:
256,192,23315,1,0,0:0:0:0:
109,192,23494,1,0,0:0:0:0:
329,192,23494,1,0,0:0:0:0:
402,192,23673,1,2,0:0:0:0:
182,192,23673,1,0,0:0:0:0:
475,192,23851,1,0,0:0:0:0:
402,192,24030,1,8,0:0:0:0:
182,192,24030,1,0,0:0:0:0:
109,192,24208,1,0,0:0:0:0:
329,192,24208,1,0,0:0:0:0:
256,192,24387,128,2,25101:0:0:0:0:
36,192,24387,1,0,0:0:0:0:
475,192,25101,1,2,0:0:0:0:
36,192,25101,1,0,0:0:0:0:
329,192,25101,1,4,0:0:0:0:
256,192,25458,1,8,0:0:0:0:
329,192,25458,1,0,0:0:0:0:
36,192,25815,1,2,0:0:0:0:
182,192,25815,1,0,0:0:0:0:
182,192,26173,1,8,0:0:0:0:
256,192,26173,1,0,0:0:0:0:
402,192,26351,1,0,0:0:0:0:
36,192,26530,1,2,0:0:0:0:
182,192,26530,1,0,0:0:0:0:
402,192,26887,1,8,0:0:0:0:
329,192,26887,1,0,0:0:0:0:
182,192,27244,1,2,0:0:0:0:
36,192,27244,1,0,0:0:0:0:
402,192,27601,1,8,0:0:0:0:
329,192,27601,1,0,0:0:0:0:
475,192,27780,1,0,0:0:0:0:
36,192,27958,1,2,0:0:0:0:
109,192,27958,1,0,0:0:0:0:
182,192,28315,1,8,0:0:0:0:
109,192,28315,1,0,0:0:0:0:
329,192,28673,1,2,0:0:0:0:
256,192,28673,1,0,0:0:0:0:
402,192,29030,1,8,0:0:0:0:
329,192,29030,1,0,0:0:0:0:
182,192,29208,1,0,0:0:0:0:
256,192,29387,1,4,0:0:0:0:
36,192,29387,1,2,0:0:0:0:
475,192,29387,1,0,0:0:0:0:
402,192,29744,1,8,0:0:0:0:
109,192,29744,1,2,0:0:0:0:
256,192,30101,1,0,0:0:0:0:
36,192,30101,1,2,0:0:0:0:
109,192,30101,1,4,0:0:0:0:
402,192,30458,1,6,0:0:0:0:
475,192,30458,1,8,0:0:0:0:
256,192,30458,1,0,0:0:0:0:
36,192,30815,1,2,0:0:0:0:
256,192,30815,1,0,0:0:0:0:
475,192,30815,1,4,0:0:0:0:
256,192,31173,1,8,0:0:0:0:
329,192,31173,1,0,0:0:0:0:
475,192,31530,1,2,0:0:0:0:
402,192,31530,1,0,0:0:0:0:
182,192,31887,1,8,0:0:0:0:
256,192,31887,1,0,0:0:0:0:
402,192,32065,1,0,0:0:0:0:
182,192,32244,1,2,0:0:0:0:
36,192,32244,1,0,0:0:0:0:
402,192,32601,1,8,0:0:0:0:
329,192,32601,1,0,0:0:0:0:
109,192,32958,1,2,0:0:0:0:
256,192,32958,1,0,0:0:0:0:
402,192,33315,1,8,0:0:0:0:
475,192,33315,1,0,0:0:0:0:
329,192,33494,1,0,0:0:0:0:
256,192,33673,1,2,0:0:0:0:
109,192,33673,1,0,0:0:0:0:
182,192,34030,1,8,0:0:0:0:
329,192,34030,1,0,0:0:0:0:
109,192,34208,1,0,0:0:0:0:
256,192,34387,1,2,0:0:0:0:
402,192,34387,1,0,0:0:0:0:
329,192,34744,1,8,0:0:0:0:
475,192,34744,1,0,0:0:0:0:
36,192,34744,1,0,0:0:0:0:
182,192,34923,1,0,0:0:0:0:
36,192,35101,1,2,0:0:0:0:
402,192,35280,1,0,0:0:0:0:
329,192,35369,1,0,0:0:0:0:
256,192,35458,1,8,0:0:0:0:
109,192,35637,1,0,0:0:0:0:
182,192,35726,1,0,0:0:0:0:
256,192,35815,128,2,36173:0:0:0:0:
109,192,36173,1,8,0:0:0:0:
402,192,36173,1,0,0:0:0:0:
36,192,36530,1,2,0:0:0:0:
256,192,36530,1,0,0:0:0:0:
475,192,36530,1,4,0:0:0:0:
109,192,36708,1,0,0:0:0:0:
329,192,36887,5,2,0:0:0:0:
36,192,37065,1,2,0:0:0:0:
256,192,37244,1,2,0:0:0:0:
475,192,37423,128,2,37780:0:0:0:0:
256,192,37601,1,0,0:0:0:0:
36,192,37780,1,2,0:0:0:0:
475,192,37958,1,2,0:0:0:0:
182,192,38137,1,0,0:0:0:0:
402,192,38315,1,2,0:0:0:0:
109,192,38494,1,2,0:0:0:0:
329,192,38673,1,2,0:0:0:0:
36,192,38851,128,2,39208:0:0:0:0:
256,192,39030,1,0,0:0:0:0:
475,192,39208,1,2,0:0:0:0:
109,192,39387,1,2,0:0:0:0:
402,192,39565,1,0,0:0:0:0:
36,192,39744,1,2,0:0:0:0:
182,192,39923,1,2,0:0:0:0:
329,192,40101,1,2,0:0:0:0:
402,192,40280,1,2,0:0:0:0:
475,192,40458,1,2,0:0:0:0:
329,192,40637,1,2,0:0:0:0:
36,192,40815,1,2,0:0:0:0:
109,192,40815,1,4,0:0:0:0:
329,192,40994,128,0,41173:0:0:0:0:
182,192,41173,1,12,0:0:0:0:
109,192,41173,1,2,0:0:0:0:
402,192,41351,128,0,41530:0:0:0:0:
256,192,41530,1,4,0:0:0:0:
182,192,41530,1,2,0:0:0:0:
36,192,41887,1,6,0:0:0:0:
475,192,41887,1,8,0:0:0:0:
256,192,42065,1,2,0:0:0:0:
109,192,42244,1,2,0:0:0:0:
402,192,42244,1,0,0:0:0:0:
109,192,42512,1,2,0:0:0:0:
109,192,42780,1,2,0:0:0:0:
402,192,42780,1,0,0:0:0:0:
329,192,42958,1,2,0:0:0:0:
182,192,42958,1,0,0:0:0:0:
329,192,43226,1,2,0:0:0:0:
182,192,43494,1,2,0:0:0:0:
329,192,43494,1,0,0:0:0:0:
402,192,43673,1,2,0:0:0:0:
256,192,43673,1,0,0:0:0:0:
475,192,43851,1,0,0:0:0:0:
329,192,44030,1,8,0:0:0:0:
182,192,44030,1,0,0:0:0:0:
402,192,44208,1,0,0:0:0:0:
256,192,44387,1,2,0:0:0:0:
109,192,44387,1,0,0:0:0:0:
329,192,44565,1,0,0:0:0:0:
36,192,44744,1,8,0:0:0:0:
182,192,44744,1,0,0:0:0:0:
36,192,44923,1,2,0:0:0:0:
182,192,44923,1,0,0:0:0:0:
475,192,45101,1,2,0:0:0:0:
402,192,45101,1,4,0:0:0:0:
475,192,45369,1,2,0:0:0:0:
36,192,45369,1,0,0:0:0:0:
36,192,45637,1,2,0:0:0:0:
256,192,45637,1,0,0:0:0:0:
475,192,45815,1,2,0:0:0:0:
402,192,45815,1,4,0:0:0:0:
475,192,46083,1,2,0:0:0:0:
182,192,46083,1,0,0:0:0:0:
475,192,46351,1,2,0:0:0:0:
256,192,46351,1,0,0:0:0:0:
402,192,46530,1,2,0:0:0:0:
109,192,46530,1,4,0:0:0:0:
256,192,46530,1,0,0:0:0:0:
109,192,46798,1,2,0:0:0:0:
402,192,46798,1,0,0:0:0:0:
182,192,47065,1,2,0:0:0:0:
329,192,47065,1,0,0:0:0:0:
109,192,47244,1,2,0:0:0:0:
402,192,47244,1,0,0:0:0:0:
256,192,47244,128,0,47958:0:0:0:0:
475,192,47958,1,6,0:0:0:0:
36,192,47958,128,0,48673:0:0:0:0:
329,192,48315,1,2,0:0:0:0:
402,192,48673,128,2,49387:0:0:0:0:
109,192,49030,1,2,0:0:0:0:
475,192,49387,128,2,49744:0:0:0:0:
36,192,49744,128,2,50101:0:0:0:0:
402,192,50101,128,2,50458:0:0:0:0:
109,192,50458,128,2,50815:0:0:0:0:
36,192,50815,128,2,52244:0:0:0:0:
182,192,51173,1,2,0:0:0:0:
256,192,51530,1,2,0:0:0:0:
329,192,51887,1,2,0:0:0:0:
402,192,52244,1,6,0:0:0:0:
475,192,52244,128,0,53315:0:0:0:0:
109,192,52601,1,6,0:0:0:0:
402,192,52958,1,6,0:0:0:0:
109,192,53315,1,6,0:0:0:0:
475,192,53673,1,2,0:0:0:0:
402,192,53673,1,4,0:0:0:0:
36,192,53851,1,0,0:0:0:0:
329,192,53851,1,0,0:0:0:0:
182,192,54030,128,2,54208:0:0:0:0:
475,192,54208,1,0,0:0:0:0:
109,192,54208,1,0,0:0:0:0:
402,192,54387,1,2,0:0:0:0:
36,192,54565,1,0,0:0:0:0:
329,192,54565,1,0,0:0:0:0:
109,192,54744,128,2,54923:0:0:0:0:
329,192,54923,1,0,0:0:0:0:
36,192,54923,1,0,0:0:0:0:
256,192,55101,1,2,0:0:0:0:
182,192,55280,1,0,0:0:0:0:
402,192,55280,1,0,0:0:0:0:
475,192,55458,128,2,55637:0:0:0:0:
109,192,55637,1,0,0:0:0:0:
329,192,55637,1,0,0:0:0:0:
36,192,55815,1,2,0:0:0:0:
109,192,55994,1,0,0:0:0:0:
256,192,55994,1,0,0:0:0:0:
182,192,56173,1,2,0:0:0:0:
329,192,56173,1,0,0:0:0:0:
256,192,56351,1,0,0:0:0:0:
402,192,56351,1,0,0:0:0:0:
182,192,56530,1,2,0:0:0:0:
475,192,56530,128,4,57244:0:0:0:0:
36,192,57780,1,2,0:0:0:0:
475,192,57780,1,4,0:0:0:0:
402,192,57780,1,0,0:0:0:0:
256,192,58137,1,2,0:0:0:0:
182,192,58137,1,0,0:0:0:0:
402,192,58315,1,2,0:0:0:0:
329,192,58315,1,0,0:0:0:0:
109,192,58494,1,2,0:0:0:0:
182,192,58494,1,0,0:0:0:0:
256,192,58673,128,4,59030:0:0:0:0:
329,192,58673,1,2,0:0:0:0:
109,192,59030,1,8,0:0:0:0:
402,192,59030,1,0,0:0:0:0:
256,192,59387,1,0,0:0:0:0:
475,192,59387,1,4,0:0:0:0:
36,192,59387,1,2,0:0:0:0:
109,192,59744,1,8,0:0:0:0:
182,192,59744,1,0,0:0:0:0:
402,192,60101,1,2,0:0:0:0:
329,192,60101,1,0,0:0:0:0:
256,192,60458,1,8,0:0:0:0:
329,192,60458,1,0,0:0:0:0:
402,192,60637,1,0,0:0:0:0:
109,192,60815,1,2,0:0:0:0:
182,192,60815,1,0,0:0:0:0:
329,192,60994,1,0,0:0:0:0:
402,192,61173,1,8,0:0:0:0:
475,192,61173,1,0,0:0:0:0:
182,192,61351,1,0,0:0:0:0:
109,192,61530,1,2,0:0:0:0:
36,192,61530,1,0,0:0:0:0:
329,192,61887,1,8,0:0:0:0:
475,192,61887,1,0,0:0:0:0:
109,192,62065,1,0,0:0:0:0:
182,192,62244,1,2,0:0:0:0:
475,192,62244,1,0,0:0:0:0:
402,192,62423,1,0,0:0:0:0:
36,192,62601,1,8,0:0:0:0:
329,192,62601,1,0,0:0:0:0:
109,192,62780,1,0,0:0:0:0:
182,192,62958,1,2,0:0:0:0:
475,192,62958,1,0,0:0:0:0:
402,192,63137,1,0,0:0:0:0:
182,192,63315,1,0,0:0:0:0:
329,192,63315,1,8,0:0:0:0:
109,192,63494,1,0,0:0:0:0:
36,192,63673,1,2,0:0:0:0:
402,192,63673,1,0,0:0:0:0:
109,192,63851,1,0,0:0:0:0:
256,192,64030,1,8,0:0:0:0:
475,192,64030,1,0,0:0:0:0:
256,192,64387,1,2,0:0:0:0:
36,192,64387,1,0,0:0:0:0:
475,192,64744,1,8,0:0:0:0:
256,192,64744,1,0,0:0:0:0:
182,192,64833,1,8,0:0:0:0:
109,192,64923,1,8,0:0:0:0:
36,192,65012,1,8,0:0:0:0:
402,192,65101,1,0,0:0:0:0:
475,192,65101,1,4,0:0:0:0:
182,192,65101,1,2,0:0:0:0:
109,192,65458,1,8,0:0:0:0:
329,192,65458,1,0,0:0:0:0:
36,192,65815,1,2,0:0:0:0:
256,192,65815,1,0,0:0:0:0:
182,192,66173,1,8,0:0:0:0:
402,192,66173,1,0,0:0:0:0:
329,192,66351,1,0,0:0:0:0:
36,192,66530,1,2,0:0:0:0:
256,192,66530,1,0,0:0:0:0:
182,192,66708,1,0,0:0:0:0:
109,192,66887,1,8,0:0:0:0:
329,192,66887,1,0,0:0:0:0:
36,192,67065,1,0,0:0:0:0:
402,192,67244,1,2,0:0:0:0:
475,192,67244,1,0,0:0:0:0:
109,192,67601,1,8,0:0:0:0:
475,192,67601,1,0,0:0:0:0:
402,192,67780,1,0,0:0:0:0:
36,192,67958,1,2,0:0:0:0:
182,192,67958,1,0,0:0:0:0:
109,192,68137,1,0,0:0:0:0:
329,192,68315,1,8,0:0:0:0:
475,192,68315,1,0,0:0:0:0:
402,192,68494,1,0,0:0:0:0:
36,192,68673,1,2,0:0:0:0:
256,192,68673,1,0,0:0:0:0:
109,192,68851,1,0,0:0:0:0:
256,192,69030,1,8,0:0:0:0:
36,192,69030,1,0,0:0:0:0:
475,192,69208,1,0,0:0:0:0:
182,192,69387,1,2,0:0:0:0:
402,192,69387,1,0,0:0:0:0:
109,192,69565,1,0,0:0:0:0:
329,192,69744,1,8,0:0:0:0:
182,192,69744,1,0,0:0:0:0:
256,192,69923,128,0,70101:0:0:0:0:
36,192,70101,1,2,0:0:0:0:
475,192,70101,128,0,70458:0:0:0:0:
182,192,70458,1,8,0:0:0:0:
256,192,70548,1,8,0:0:0:0:
329,192,70637,1,8,0:0:0:0:
402,192,70726,1,8,0:0:0:0:
475,192,70815,1,2,0:0:0:0:
109,192,70815,1,4,0:0:0:0:
256,192,70815,1,0,0:0:0:0:
329,192,71173,1,8,0:0:0:0:
36,192,71173,1,0,0:0:0:0:
182,192,71530,1,2,0:0:0:0:
475,192,71530,1,0,0:0:0:0:
256,192,71887,1,8,0:0:0:0:
475,192,71887,1,0,0:0:0:0:
36,192,72065,1,0,0:0:0:0:
182,192,72244,1,2,0:0:0:0:
402,192,72244,1,0,0:0:0:0:
36,192,72423,1,0,0:0:0:0:
109,192,72601,1,8,0:0:0:0:
329,192,72601,1,0,0:0:0:0:
36,192,72780,1,0,0:0:0:0:
256,192,72958,1,2,0:0:0:0:
402,192,72958,1,0,0:0:0:0:
329,192,73315,1,8,0:0:0:0:
182,192,73315,1,0,0:0:0:0:
109,192,73494,1,0,0:0:0:0:
256,192,73673,1,2,0:0:0:0:
182,192,73673,1,0,0:0:0:0:
402,192,73851,1,0,0:0:0:0:
109,192,74030,1,8,0:0:0:0:
329,192,74030,1,0,0:0:0:0:
182,192,74208,1,0,0:0:0:0:
36,192,74387,1,2,0:0:0:0:
402,192,74387,1,0,0:0:0:0:
329,192,74565,1,0,0:0:0:0:
36,192,74744,1,8,0:0:0:0:
402,192,74744,1,0,0:0:0:0:
182,192,74923,1,0,0:0:0:0:
256,192,75101,1,2,0:0:0:0:
402,192,75101,1,0,0:0:0:0:
109,192,75280,1,0,0:0:0:0:
329,192,75458,1,8,0:0:0:0:
182,192,75458,1,0,0:0:0:0:
109,192,75815,1,2,0:0:0:0:
256,192,75815,1,0,0:0:0:0:
36,192,76173,1,8,0:0:0:0:
475,192,76173,1,0,0:0:0:0:
402,192,76262,1,8,0:0:0:0:
329,192,76351,1,8,0:0:0:0:
256,192,76440,1,8,0:0:0:0:
36,192,76530,1,2,0:0:0:0:
182,192,76530,1,4,0:0:0:0:
109,192,76887,1,8,0:0:0:0:
329,192,76887,1,0,0:0:0:0:
182,192,77244,1,2,0:0:0:0:
475,192,77244,1,0,0:0:0:0:
109,192,77601,1,8,0:0:0:0:
256,192,77601,1,0,0:0:0:0:
182,192,77780,1,0,0:0:0:0:
36,192,77958,1,2,0:0:0:0:
329,192,77958,1,0,0:0:0:0:
256,192,78137,1,0,0:0:0:0:
109,192,78315,1,8,0:0:0:0:
182,192,78315,1,0,0:0:0:0:
329,192,78494,1,0,0:0:0:0:
475,192,78673,1,2,0:0:0:0:
256,192,78673,1,0,0:0:0:0:
109,192,79030,1,8,0:0:0:0:
329,192,79030,1,0,0:0:0:0:
182,192,79208,1,0,0:0:0:0:
36,192,79387,1,2,0:0:0:0:
256,192,79387,1,0,0:0:0:0:
329,192,79565,1,0,0:0:0:0:
402,192,79744,1,8,0:0:0:0:
109,192,79744,1,0,0:0:0:0:
182,192,79923,1,0,0:0:0:0:
36,192,80101,1,2,0:0:0:0:
256,192,80101,1,0,0:0:0:0:
329,192,80280,1,0,0:0:0:0:
402,192,80458,1,8,0:0:0:0:
256,192,80458,1,0,0:0:0:0:
109,192,80637,1,0,0:0:0:0:
475,192,80815,1,2,0:0:0:0:
182,192,80815,1,0,0:0:0:0:
329,192,80994,1,0,0:0:0:0:
109,192,80994,1,0,0:0:0:0:
36,192,81173,1,8,0:0:0:0:
182,192,81173,1,0,0:0:0:0:
109,192,81351,1,0,0:0:0:0:
256,192,81351,1,0,0:0:0:0:
329,192,81530,1,2,0:0:0:0:
475,192,81530,128,0,82244:0:0:0:0:
182,192,81530,1,0,0:0:0:0:
402,192,81887,1,8,0:0:0:0:
109,192,81887,1,0,0:0:0:0:
182,192,81976,1,8,0:0:0:0:
256,192,82065,1,8,0:0:0:0:
329,192,82155,1,8,0:0:0:0:
36,192,82244,1,2,0:0:0:0:
109,192,82244,1,0,0:0:0:0:
256,192,82423,1,0,0:0:0:0:
256,192,82601,1,0,0:0:0:0:
256,192,82780,1,0,0:0:0:0:
256,192,82958,1,0,0:0:0:0:
182,192,83048,1,0,0:0:0:0:
109,192,83137,1,0,0:0:0:0:
182,192,83315,1,0,0:0:0:0:
256,192,83494,1,0,0:0:0:0:
329,192,83851,1,0,0:0:0:0:
329,192,84030,1,0,0:0:0:0:
329,192,84208,1,0,0:0:0:0:
329,192,84387,1,0,0:0:0:0:
182,192,84476,1,0,0:0:0:0:
36,192,84565,1,0,0:0:0:0:
182,192,84744,1,0,0:0:0:0:
329,192,84923,1,0,0:0:0:0:
402,192,85280,1,0,0:0:0:0:
402,192,85458,1,0,0:0:0:0:
402,192,85637,1,0,0:0:0:0:
402,192,85815,1,0,0:0:0:0:
329,192,85905,1,0,0:0:0:0:
256,192,85994,1,0,0:0:0:0:
329,192,86173,1,0,0:0:0:0:
402,192,86351,1,0,0:0:0:0:
402,192,86530,1,2,0:0:0:0:
256,192,86530,1,4,0:0:0:0:
475,192,86708,1,0,0:0:0:0:
475,192,86887,1,2,0:0:0:0:
329,192,86887,1,4,0:0:0:0:
475,192,87065,1,0,0:0:0:0:
402,192,87244,1,6,0:0:0:0:
329,192,87333,1,0,0:0:0:0:
182,192,87423,1,0,0:0:0:0:
109,192,87512,1,0,0:0:0:0:
402,192,87601,1,6,0:0:0:0:
329,192,87690,1,0,0:0:0:0:
256,192,87780,1,0,0:0:0:0:
182,192,87869,1,0,0:0:0:0:
109,192,87958,1,6,0:0:0:0:
475,192,87958,1,0,0:0:0:0:
329,192,88137,1,0,0:0:0:0:
329,192,88315,1,2,0:0:0:0:
329,192,88494,1,0,0:0:0:0:
329,192,88673,1,2,0:0:0:0:
182,192,88762,1,0,0:0:0:0:
36,192,88851,1,0,0:0:0:0:
109,192,89030,1,2,0:0:0:0:
182,192,89030,1,0,0:0:0:0:
329,192,89208,1,2,0:0:0:0:
402,192,89208,1,0,0:0:0:0:
109,192,89387,1,2,0:0:0:0:
402,192,89565,1,0,0:0:0:0:
402,192,89744,1,2,0:0:0:0:
402,192,89923,1,0,0:0:0:0:
402,192,90101,1,2,0:0:0:0:
256,192,90190,1,0,0:0:0:0:
109,192,90280,1,0,0:0:0:0:
109,192,90458,1,2,0:0:0:0:
329,192,90458,1,0,0:0:0:0:
182,192,90637,1,2,0:0:0:0:
402,192,90637,1,0,0:0:0:0:
256,192,90815,1,2,0:0:0:0:
402,192,90994,1,0,0:0:0:0:
402,192,91173,1,2,0:0:0:0:
402,192,91351,1,0,0:0:0:0:
402,192,91530,1,2,0:0:0:0:
329,192,91619,1,0,0:0:0:0:
256,192,91708,1,0,0:0:0:0:
36,192,91887,1,2,0:0:0:0:
182,192,91887,1,0,0:0:0:0:
329,192,92065,1,2,0:0:0:0:
475,192,92065,1,0,0:0:0:0:
182,192,92244,1,4,0:0:0:0:
36,192,92244,1,2,0:0:0:0:
475,192,92423,1,0,0:0:0:0:
475,192,92601,1,6,0:0:0:0:
36,192,92601,1,0,0:0:0:0:
475,192,92780,1,0,0:0:0:0:
475,192,92958,1,6,0:0:0:0:
36,192,92958,1,0,0:0:0:0:
402,192,93048,1,0,0:0:0:0:
182,192,93137,1,0,0:0:0:0:
109,192,93226,1,0,0:0:0:0:
402,192,93315,1,6,0:0:0:0:
329,192,93405,1,0,0:0:0:0:
109,192,93494,1,2,0:0:0:0:
36,192,93583,1,0,0:0:0:0:
109,192,93673,1,2,0:0:0:0:
402,192,93673,1,4,0:0:0:0:
329,192,93762,1,0,0:0:0:0:
182,192,93851,1,0,0:0:0:0:
109,192,93940,1,0,0:0:0:0:
475,184,94030,1,6,0:0:0:0:
36,192,94030,1,0,0:0:0:0:
402,192,94119,1,0,0:0:0:0:
109,192,94208,1,2,0:0:0:0:
36,192,94298,1,0,0:0:0:0:
402,192,94387,1,2,0:0:0:0:
475,192,94387,1,4,0:0:0:0:
329,192,94476,1,0,0:0:0:0:
182,192,94565,1,0,0:0:0:0:
109,192,94655,1,0,0:0:0:0:
475,192,94744,1,4,0:0:0:0:
36,192,94744,1,2,0:0:0:0:
402,192,94833,1,0,0:0:0:0:
329,192,94923,1,2,0:0:0:0:
182,192,95012,1,0,0:0:0:0:
36,192,95101,1,2,0:0:0:0:
109,192,95101,1,4,0:0:0:0:
329,192,95190,1,0,0:0:0:0:
402,192,95280,1,6,0:0:0:0:
182,192,95369,1,0,0:0:0:0:
109,192,95458,1,6,0:0:0:0:
329,192,95548,1,0,0:0:0:0:
475,192,95637,1,6,0:0:0:0:
182,192,95726,1,0,0:0:0:0:
36,192,95815,1,6,0:0:0:0:
402,192,95905,1,0,0:0:0:0:
475,192,95994,1,6,0:0:0:0:
109,192,96083,1,0,0:0:0:0:
36,192,96173,1,6,0:0:0:0:
329,192,96262,1,0,0:0:0:0:
475,192,96351,1,6,0:0:0:0:
182,192,96440,1,0,0:0:0:0:
36,192,96530,1,0,0:0:0:0:
256,192,97958,128,4,99387:0:0:0:0:
109,192,97958,1,2,0:0:0:0:
329,192,99387,128,0,100815:0:0:0:0:
109,192,100815,128,0,102244:0:0:0:0:
402,192,102244,128,0,103673:0:0:0:0:
36,192,103673,128,0,106530:0:0:0:0:
109,192,103673,128,0,105101:0:0:0:0:
256,192,105101,128,0,106530:0:0:0:0:
475,192,106530,1,0,0:0:0:0:
475,192,106887,1,0,0:0:0:0:
475,192,107244,1,0,0:0:0:0:
256,192,109387,128,0,110815:0:0:0:0:
36,192,109387,1,2,0:0:0:0:
475,192,109387,1,4,0:0:0:0:
182,192,110815,128,0,112244:0:0:0:0:
329,192,110815,128,0,112244:0:0:0:0:
109,192,112244,128,0,113673:0:0:0:0:
36,192,112244,128,0,113673:0:0:0:0:
475,192,113673,128,0,115101:0:0:0:0:
402,192,113673,128,0,115101:0:0:0:0:
329,192,115101,128,0,116530:0:0:0:0:
36,192,115101,128,0,116530:0:0:0:0:
182,192,116530,128,0,117958:0:0:0:0:
475,192,116530,128,0,117958:0:0:0:0:
402,192,117958,128,0,119387:0:0:0:0:
256,192,117958,128,0,120101:0:0:0:0:
475,192,120101,128,0,120815:0:0:0:0:
36,192,120458,1,0,0:0:0:0:
109,192,120637,1,0,0:0:0:0:
402,192,120815,1,4,0:0:0:0:
329,192,120815,1,0,0:0:0:0:
36,192,120815,1,2,0:0:0:0:
109,192,121173,1,0,0:0:0:0:
36,192,121530,1,2,0:0:0:0:
475,192,121530,1,4,0:0:0:0:
182,192,121530,1,0,0:0:0:0:
182,192,121887,1,0,0:0:0:0:
475,192,122065,1,4,0:0:0:0:
402,192,122065,1,2,0:0:0:0:
36,192,122065,1,0,0:0:0:0:
402,192,122244,1,2,0:0:0:0:
475,192,122244,1,4,0:0:0:0:
182,192,122244,1,0,0:0:0:0:
36,192,122423,1,0,0:0:0:0:
329,192,122601,1,0,0:0:0:0:
182,192,122780,1,0,0:0:0:0:
475,192,122958,128,0,123673:0:0:0:0:
402,192,122958,1,4,0:0:0:0:
36,192,122958,1,2,0:0:0:0:
109,192,123315,1,6,0:0:0:0:
182,192,123494,1,0,0:0:0:0:
256,192,123673,1,4,0:0:0:0:
402,192,123673,128,0,124030:0:0:0:0:
36,192,123673,1,2,0:0:0:0:
182,192,123851,1,0,0:0:0:0:
256,192,123940,1,0,0:0:0:0:
109,192,124030,1,0,0:0:0:0:
182,192,124208,1,0,0:0:0:0:
475,192,124387,128,0,124744:0:0:0:0:
256,192,124387,1,4,0:0:0:0:
36,192,124387,1,2,0:0:0:0:
182,192,124565,1,0,0:0:0:0:
256,192,124655,1,0,0:0:0:0:
109,192,124744,1,0,0:0:0:0:
182,192,124923,1,0,0:0:0:0:
256,192,125101,1,4,0:0:0:0:
475,192,125101,1,0,0:0:0:0:
36,192,125101,1,2,0:0:0:0:
256,192,125458,1,4,0:0:0:0:
109,192,125458,1,2,0:0:0:0:
402,192,125458,1,0,0:0:0:0:
256,192,125815,1,4,0:0:0:0:
329,192,125815,1,0,0:0:0:0:
182,192,125815,1,2,0:0:0:0:
36,192,126173,1,2,0:0:0:0:
256,192,126173,1,4,0:0:0:0:
475,192,126173,1,0,0:0:0:0:
109,192,126530,1,2,0:0:0:0:
402,192,126530,1,4,0:0:0:0:
36,192,126530,1,0,0:0:0:0:
329,192,126887,1,8,0:0:0:0:
256,192,126887,1,0,0:0:0:0:
182,192,126887,128,0,127244:0:0:0:0:
402,192,127244,1,2,0:0:0:0:
256,192,127601,1,8,0:0:0:0:
329,192,127601,128,0,127958:0:0:0:0:
36,192,127601,1,0,0:0:0:0:
182,192,127780,1,2,0:0:0:0:
109,192,127958,1,2,0:0:0:0:
402,192,128137,1,0,0:0:0:0:
329,192,128315,1,8,0:0:0:0:
182,192,128315,1,0,0:0:0:0:
256,192,128315,128,0,128673:0:0:0:0:
109,192,128494,1,0,0:0:0:0:
475,192,128673,1,2,0:0:0:0:
329,192,129030,1,8,0:0:0:0:
402,192,129208,1,0,0:0:0:0:
475,192,129387,128,0,129744:0:0:0:0:
256,192,129387,1,2,0:0:0:0:
109,192,129565,1,2,0:0:0:0:
256,192,129744,128,0,130101:0:0:0:0:
36,192,129744,1,2,0:0:0:0:
109,192,129923,1,2,0:0:0:0:
475,192,130101,128,0,130458:0:0:0:0:
182,192,130101,1,2,0:0:0:0:
109,192,130280,1,2,0:0:0:0:
256,192,130458,128,0,130637:0:0:0:0:
36,192,130458,1,2,0:0:0:0:
329,192,130637,128,2,130815:0:0:0:0:
402,192,130815,128,0,131173:0:0:0:0:
475,192,130815,1,2,0:0:0:0:
256,192,130994,1,0,0:0:0:0:
109,192,131173,128,0,131530:0:0:0:0:
36,192,131173,1,2,0:0:0:0:
256,192,131351,1,0,0:0:0:0:
182,192,131530,1,2,0:0:0:0:
329,192,131530,1,4,0:0:0:0:
256,192,131530,1,0,0:0:0:0:
402,192,131708,1,2,0:0:0:0:
109,192,131708,1,0,0:0:0:0:
36,192,131887,1,2,0:0:0:0:
475,192,131887,1,4,0:0:0:0:
329,192,131887,1,0,0:0:0:0:
182,192,131887,1,0,0:0:0:0:
36,192,132244,1,2,0:0:0:0:
182,192,132244,1,0,0:0:0:0:
475,192,132244,1,4,0:0:0:0:
329,192,132244,1,0,0:0:0:0:
402,192,132422,1,0,0:0:0:0:
329,192,132601,1,8,0:0:0:0:
256,192,132601,1,0,0:0:0:0:
109,192,132780,1,0,0:0:0:0:
182,192,132958,1,2,0:0:0:0:
36,192,132958,1,0,0:0:0:0:
109,192,133137,1,0,0:0:0:0:
256,192,133315,1,0,0:0:0:0:
182,192,133315,1,8,0:0:0:0:
402,192,133494,1,0,0:0:0:0:
182,192,133672,1,2,0:0:0:0:
475,192,133672,1,0,0:0:0:0:
109,192,133851,1,0,0:0:0:0:
36,192,134030,1,8,0:0:0:0:
329,192,134030,1,0,0:0:0:0:
402,192,134208,1,0,0:0:0:0:
475,192,134387,1,2,0:0:0:0:
182,192,134387,1,0,0:0:0:0:
329,192,134565,1,0,0:0:0:0:
36,192,134744,1,8,0:0:0:0:
256,192,134744,1,0,0:0:0:0:
402,192,134922,1,0,0:0:0:0:
475,192,135101,1,2,0:0:0:0:
182,192,135101,1,0,0:0:0:0:
329,192,135280,1,0,0:0:0:0:
36,192,135458,1,8,0:0:0:0:
256,192,135458,1,0,0:0:0:0:
402,192,135637,1,0,0:0:0:0:
109,192,135815,1,2,0:0:0:0:
329,192,135815,1,0,0:0:0:0:
475,192,135994,1,0,0:0:0:0:
182,192,136172,1,8,0:0:0:0:
402,192,136172,128,0,136530:0:0:0:0:
36,192,136351,1,0,0:0:0:0:
182,192,136530,1,2,0:0:0:0:
109,192,136530,1,0,0:0:0:0:
256,192,136530,128,0,137244:0:0:0:0:
109,192,136887,1,8,0:0:0:0:
182,192,136976,1,8,0:0:0:0:
402,192,137065,1,8,0:0:0:0:
329,192,137155,1,8,0:0:0:0:
36,192,137244,1,2,0:0:0:0:
182,192,137244,1,0,0:0:0:0:
475,192,137244,1,4,0:0:0:0:
109,192,137422,1,0,0:0:0:0:
475,192,137601,1,8,0:0:0:0:
402,192,137601,1,0,0:0:0:0:
182,192,137780,1,0,0:0:0:0:
329,192,137958,1,2,0:0:0:0:
36,192,137958,1,0,0:0:0:0:
402,192,138137,1,0,0:0:0:0:
109,192,138315,1,0,0:0:0:0:
36,192,138315,1,8,0:0:0:0:
329,192,138494,1,0,0:0:0:0:
475,192,138672,1,0,0:0:0:0:
182,192,138672,1,2,0:0:0:0:
256,192,138851,1,0,0:0:0:0:
36,192,139030,1,8,0:0:0:0:
182,192,139030,1,0,0:0:0:0:
329,192,139208,1,0,0:0:0:0:
402,192,139387,1,2,0:0:0:0:
109,192,139387,1,0,0:0:0:0:
475,192,139744,1,8,0:0:0:0:
182,192,139744,1,0,0:0:0:0:
402,192,139922,1,0,0:0:0:0:
256,192,139922,1,0,0:0:0:0:
36,192,140101,1,2,0:0:0:0:
329,192,140101,1,0,0:0:0:0:
256,192,140280,1,0,0:0:0:0:
109,192,140280,1,0,0:0:0:0:
182,192,140458,1,8,0:0:0:0:
475,192,140458,1,0,0:0:0:0:
256,192,140637,1,0,0:0:0:0:
109,192,140637,1,0,0:0:0:0:
329,192,140815,1,2,0:0:0:0:
36,192,140815,1,0,0:0:0:0:
256,192,140994,1,0,0:0:0:0:
475,192,140994,1,0,0:0:0:0:
182,192,141172,1,8,0:0:0:0:
36,192,141172,1,0,0:0:0:0:
109,192,141351,1,0,0:0:0:0:
402,192,141351,1,0,0:0:0:0:
329,192,141530,1,2,0:0:0:0:
182,192,141530,1,0,0:0:0:0:
256,192,141708,1,0,0:0:0:0:
36,192,141708,1,0,0:0:0:0:
109,192,141887,1,8,0:0:0:0:
329,192,141887,1,0,0:0:0:0:
402,192,142065,1,0,0:0:0:0:
182,192,142065,1,0,0:0:0:0:
36,192,142244,128,2,142601:0:0:0:0:
475,192,142244,1,0,0:0:0:0:
256,192,142244,1,0,0:0:0:0:
256,192,142422,1,0,0:0:0:0:
475,192,142601,1,8,0:0:0:0:
109,192,142601,1,0,0:0:0:0:
402,192,142690,1,8,0:0:0:0:
329,192,142780,1,8,0:0:0:0:
256,192,142869,1,8,0:0:0:0:
109,192,142958,1,2,0:0:0:0:
182,192,142958,1,0,0:0:0:0:
475,192,142958,1,4,0:0:0:0:
329,192,143315,1,8,0:0:0:0:
402,192,143315,1,0,0:0:0:0:
182,192,143315,1,0,0:0:0:0:
329,192,143672,1,2,0:0:0:0:
256,192,143672,1,0,0:0:0:0:
402,192,144030,1,8,0:0:0:0:
109,192,144030,1,0,0:0:0:0:
182,192,144030,1,0,0:0:0:0:
256,192,144208,1,0,0:0:0:0:
36,192,144208,1,0,0:0:0:0:
475,192,144387,1,2,0:0:0:0:
329,192,144387,1,0,0:0:0:0:
256,192,144565,1,0,0:0:0:0:
36,192,144565,1,0,0:0:0:0:
402,192,144744,1,8,0:0:0:0:
329,192,144744,1,0,0:0:0:0:
36,192,144922,1,0,0:0:0:0:
109,192,144922,1,0,0:0:0:0:
182,192,145101,1,2,0:0:0:0:
329,192,145101,1,0,0:0:0:0:
256,192,145458,1,8,0:0:0:0:
402,192,145458,1,0,0:0:0:0:
475,192,145458,1,0,0:0:0:0:
402,192,145815,1,2,0:0:0:0:
109,192,145815,1,0,0:0:0:0:
36,192,145815,1,0,0:0:0:0:
109,192,146172,1,8,0:0:0:0:
256,192,146172,1,0,0:0:0:0:
329,192,146172,1,0,0:0:0:0:
182,192,146530,1,2,0:0:0:0:
256,192,146530,1,0,0:0:0:0:
182,192,146887,1,8,0:0:0:0:
256,192,146887,1,0,0:0:0:0:
329,192,146887,1,0,0:0:0:0:
475,192,147065,1,0,0:0:0:0:
402,192,147065,1,0,0:0:0:0:
36,192,147244,1,2,0:0:0:0:
109,192,147244,1,0,0:0:0:0:
329,192,147422,1,0,0:0:0:0:
475,192,147422,1,0,0:0:0:0:
182,192,147601,1,8,0:0:0:0:
36,192,147601,1,0,0:0:0:0:
256,192,147780,1,0,0:0:0:0:
402,192,147780,1,0,0:0:0:0:
329,192,147958,1,2,0:0:0:0:
109,192,147958,1,0,0:0:0:0:
256,192,148137,1,0,0:0:0:0:
182,192,148137,1,0,0:0:0:0:
36,192,148315,1,8,0:0:0:0:
109,192,148315,1,0,0:0:0:0:
182,192,148405,1,8,0:0:0:0:
256,192,148494,1,8,0:0:0:0:
329,192,148583,1,8,0:0:0:0:
402,192,148672,1,0,0:0:0:0:
475,192,148672,1,4,0:0:0:0:
36,192,148672,1,2,0:0:0:0:
402,192,149030,1,8,0:0:0:0:
182,192,149030,1,0,0:0:0:0:
109,192,149030,1,0,0:0:0:0:
182,192,149387,1,2,0:0:0:0:
329,192,149387,1,0,0:0:0:0:
182,192,149744,1,8,0:0:0:0:
329,192,149744,1,0,0:0:0:0:
109,192,149744,1,0,0:0:0:0:
256,192,149922,1,0,0:0:0:0:
475,192,149922,1,0,0:0:0:0:
182,192,150101,1,2,0:0:0:0:
402,192,150101,1,0,0:0:0:0:
109,192,150280,1,0,0:0:0:0:
329,192,150280,1,0,0:0:0:0:
256,192,150458,1,8,0:0:0:0:
36,192,150458,1,0,0:0:0:0:
329,192,150637,1,0,0:0:0:0:
109,192,150637,1,0,0:0:0:0:
182,192,150815,1,2,0:0:0:0:
402,192,150815,1,0,0:0:0:0:
475,192,151172,1,8,0:0:0:0:
329,192,151172,1,0,0:0:0:0:
402,192,151351,1,0,0:0:0:0:
182,192,151351,1,0,0:0:0:0:
256,192,151530,1,2,0:0:0:0:
475,192,151530,1,0,0:0:0:0:
182,192,151708,1,0,0:0:0:0:
109,192,151797,1,0,0:0:0:0:
36,192,151887,1,8,0:0:0:0:
402,192,151887,1,0,0:0:0:0:
256,192,152065,1,0,0:0:0:0:
475,192,152065,1,0,0:0:0:0:
329,192,152244,1,2,0:0:0:0:
402,192,152244,1,0,0:0:0:0:
182,192,152422,1,0,0:0:0:0:
109,192,152512,1,0,0:0:0:0:
36,192,152601,1,8,0:0:0:0:
475,192,152780,1,0,0:0:0:0:
402,192,152780,1,0,0:0:0:0:
109,192,152958,128,0,153137:0:0:0:0:
329,192,152958,1,2,0:0:0:0:
36,192,153137,128,0,153315:0:0:0:0:
256,192,153137,1,0,0:0:0:0:
109,192,153315,128,0,153494:0:0:0:0:
329,192,153315,1,8,0:0:0:0:
182,192,153494,128,0,153672:0:0:0:0:
402,192,153494,1,0,0:0:0:0:
475,192,153672,128,2,154387:0:0:0:0:
256,192,153851,1,0,0:0:0:0:
36,192,153851,1,0,0:0:0:0:
329,192,154030,1,8,0:0:0:0:
109,192,154030,1,0,0:0:0:0:
256,192,154119,1,8,0:0:0:0:
402,192,154208,1,0,0:0:0:0:
182,192,154208,1,8,0:0:0:0:
109,192,154297,1,8,0:0:0:0:
36,192,154387,128,0,154744:0:0:0:0:
109,192,154744,128,0,155101:0:0:0:0:
182,192,155101,128,0,155458:0:0:0:0:
402,192,155458,128,0,155637:0:0:0:0:
329,192,155637,128,0,155815:0:0:0:0:
475,192,155815,128,0,155994:0:0:0:0:
109,192,155994,128,0,156172:0:0:0:0:
182,192,156172,128,0,156351:0:0:0:0:
36,192,156351,128,0,156530:0:0:0:0:
256,192,156530,128,0,156887:0:0:0:0:
36,192,156887,128,0,157065:0:0:0:0:
109,192,157065,128,0,157244:0:0:0:0:
475,192,157244,128,0,157422:0:0:0:0:
402,192,157422,128,0,157512:0:0:0:0:
329,192,157512,128,0,157601:0:0:0:0:
36,192,157601,128,0,157780:0:0:0:0:
109,192,157780,128,0,157958:0:0:0:0:
475,192,157958,128,0,158137:0:0:0:0:
402,192,158137,128,0,158226:0:0:0:0:
329,192,158226,128,0,158315:0:0:0:0:
36,192,158315,128,0,158494:0:0:0:0:
109,192,158494,128,0,158672:0:0:0:0:
329,192,158672,128,0,158851:0:0:0:0:
182,192,158851,128,0,159030:0:0:0:0:
402,192,159030,128,0,159387:0:0:0:0:
109,192,159387,128,0,160101:0:0:0:0:
36,192,160101,128,0,160458:0:0:0:0:
109,192,160458,128,0,160815:0:0:0:0:
182,192,160815,128,0,161172:0:0:0:0:
402,192,161172,128,0,161351:0:0:0:0:
329,192,161351,128,0,161530:0:0:0:0:
475,192,161530,128,0,161708:0:0:0:0:
109,192,161708,128,0,161887:0:0:0:0:
182,192,161887,128,0,162065:0:0:0:0:
36,192,162065,128,0,162244:0:0:0:0:
256,192,162244,128,0,162601:0:0:0:0:
36,192,162601,128,0,162780:0:0:0:0:
109,192,162780,128,0,162958:0:0:0:0:
475,192,162958,128,0,163137:0:0:0:0:
402,192,163137,128,0,163226:0:0:0:0:
329,192,163226,128,0,163315:0:0:0:0:
36,192,163315,128,0,163494:0:0:0:0:
109,192,163494,128,0,163672:0:0:0:0:
475,192,163672,128,0,163851:0:0:0:0:
402,192,163851,128,0,163940:0:0:0:0:
329,192,163940,128,0,164030:0:0:0:0:
182,192,164030,128,0,164208:0:0:0:0:
109,192,164208,128,0,164387:0:0:0:0:
329,192,164387,128,0,164565:0:0:0:0:
402,192,164565,128,0,164744:0:0:0:0:
36,192,164744,128,0,164922:0:0:0:0:
475,192,164922,128,0,165101:0:0:0:0:
256,192,165101,128,0,165815:0:0:0:0:
36,192,165280,1,0,0:0:0:0:
475,192,165458,1,0,0:0:0:0:
