osu file format v14

[General]
AudioFilename: GReeeeN - 6th Album.mp3
AudioLeadIn: 0
PreviewTime: 120340
Countdown: 0
SampleSet: Soft
StackLeniency: 0.7
Mode: 3
LetterboxInBreaks: 0
SpecialStyle: 0
WidescreenStoryboard: 0

[Editor]
DistanceSpacing: 0.8
BeatDivisor: 4
GridSize: 4
TimelineZoom: 2.6

[Metadata]
Title:Shinobi
TitleUnicode:忍
Artist:GReeeeN
ArtistUnicode:GReeeeN
Creator:ExUsagi
Version:4K Hard
Source:Teenage Mutant Ninja Turtles
Tags:TMNT 2012 Nickelodeon
BeatmapID:479482
BeatmapSetID:202755

[Difficulty]
HPDrainRate:8
CircleSize:4
OverallDifficulty:7
ApproachRate:5
SliderMultiplier:1.4
SliderTickRate:1

[Events]
//Background and Video events
0,0,"BG.png",0,0
//Break Periods
//Storyboard Layer 0 (Background)
//Storyboard Layer 1 (Fail)
//Storyboard Layer 2 (Pass)
//Storyboard Layer 3 (Foreground)
//Storyboard Sound Samples

[TimingPoints]
816,357.142857142857,4,1,1,50,1,0
47958,-111.111111111111,4,2,0,50,0,0
53673,-100,4,1,1,50,0,0
59387,-100,4,1,1,50,0,1
82244,-100,4,1,1,50,0,0
96530,-100,4,1,1,50,0,0
97244,-111.111111111111,4,1,1,50,0,0
97958,-125,4,1,1,50,0,0
119387,-111.111111111111,4,1,1,50,0,0
120101,-100,4,1,1,50,0,0
131530,357.142857142857,4,1,1,50,1,0
132244,-100,4,1,1,50,0,1
154387,-100,4,2,1,50,0,0

[HitObjects]
448,192,1530,5,4,0:0:0:0:
320,192,1530,1,0,0:0:0:0:
64,192,1887,5,4,0:0:0:0:
448,192,1887,1,0,0:0:0:0:
320,192,1887,1,0,0:0:0:0:
192,192,2065,1,0,0:0:0:0:
448,192,2244,1,2,0:0:0:0:
64,192,2244,128,0,2601:0:0:0:0:
320,192,2244,1,4,0:0:0:0:
192,192,2601,128,0,2958:0:0:0:0:
64,192,2958,1,2,0:0:0:0:
448,192,2958,1,4,0:0:0:0:
320,192,2958,128,0,3315:0:0:0:0:
448,192,3315,128,0,3494:0:0:0:0:
320,192,3494,1,2,0:0:0:0:
64,192,3494,1,4,0:0:0:0:
192,192,3494,128,0,3673:0:0:0:0:
448,192,3673,128,0,3851:0:0:0:0:
320,192,3673,1,2,0:0:0:0:
64,192,3673,1,4,0:0:0:0:
64,192,3851,128,0,4030:0:0:0:0:
64,192,4208,128,0,4387:0:0:0:0:
448,192,4387,128,0,4744:0:0:0:0:
192,192,4387,1,2,0:0:0:0:
320,192,4387,1,4,0:0:0:0:
192,192,4744,128,4,4923:0:0:0:0:
320,192,4744,1,2,0:0:0:0:
320,192,4923,128,0,5101:0:0:0:0:
448,192,5101,128,0,5815:0:0:0:0:
64,192,5101,1,2,0:0:0:0:
192,192,5101,1,4,0:0:0:0:
320,192,5280,1,0,0:0:0:0:
192,192,5369,1,0,0:0:0:0:
64,192,5458,1,0,0:0:0:0:
192,192,5637,1,0,0:0:0:0:
192,192,5815,1,2,0:0:0:0:
320,192,5815,1,4,0:0:0:0:
64,192,5815,128,0,6530:0:0:0:0:
448,192,5994,1,0,0:0:0:0:
320,192,6083,1,0,0:0:0:0:
192,192,6173,1,0,0:0:0:0:
320,192,6351,1,0,0:0:0:0:
448,192,6530,1,2,0:0:0:0:
320,192,6530,1,4,0:0:0:0:
192,192,6530,1,0,0:0:0:0:
192,192,6887,1,2,0:0:0:0:
64,192,6887,1,4,0:0:0:0:
320,192,6887,1,0,0:0:0:0:
192,192,7244,1,2,0:0:0:0:
320,192,7244,1,4,0:0:0:0:
448,192,7244,1,0,0:0:0:0:
320,192,7601,1,2,0:0:0:0:
64,192,7601,1,0,0:0:0:0:
192,192,7601,1,4,0:0:0:0:
448,192,7958,1,2,0:0:0:0:
64,192,7958,1,4,0:0:0:0:
320,192,7958,1,0,0:0:0:0:
448,192,8137,1,0,0:0:0:0:
64,192,8315,1,8,0:0:0:0:
320,192,8494,1,0,0:0:0:0:
320,192,8673,1,2,0:0:0:0:
64,192,8851,1,0,0:0:0:0:
320,192,9030,1,8,0:0:0:0:
192,192,9208,1,2,0:0:0:0:
320,192,9387,1,2,0:0:0:0:
64,192,9387,1,0,0:0:0:0:
448,192,9565,1,0,0:0:0:0:
192,192,9744,1,8,0:0:0:0:
448,192,9923,1,0,0:0:0:0:
64,192,10101,128,0,10458:0:0:0:0:
192,192,10101,1,2,0:0:0:0:
320,192,10280,1,0,0:0:0:0:
192,192,10458,128,0,10637:0:0:0:0:
448,192,10458,1,8,0:0:0:0:
320,192,10637,128,0,10815:0:0:0:0:
448,192,10815,128,0,10994:0:0:0:0:
64,192,10815,1,2,0:0:0:0:
192,192,10815,1,0,0:0:0:0:
320,192,10994,1,2,0:0:0:0:
192,192,11083,1,2,0:0:0:0:
64,192,11173,128,2,11351:0:0:0:0:
192,192,11351,128,2,11530:0:0:0:0:
320,192,11440,1,2,0:0:0:0:
448,192,11530,128,2,11708:0:0:0:0:
320,192,11708,1,2,0:0:0:0:
192,192,11798,1,2,0:0:0:0:
64,192,11887,128,2,12065:0:0:0:0:
448,192,12065,1,2,0:0:0:0:
192,192,12155,1,2,0:0:0:0:
448,192,12244,1,2,0:0:0:0:
192,192,12423,1,0,0:0:0:0:
64,192,12601,1,2,0:0:0:0:
448,192,12601,1,0,0:0:0:0:
320,192,12780,1,0,0:0:0:0:
320,192,12958,128,0,13315:0:0:0:0:
448,192,12958,1,2,0:0:0:0:
64,192,13137,1,2,0:0:0:0:
192,192,13137,1,0,0:0:0:0:
192,192,13315,1,8,0:0:0:0:
448,192,13315,1,0,0:0:0:0:
64,192,13673,1,2,0:0:0:0:
448,192,13673,1,4,0:0:0:0:
448,192,13851,128,0,14030:0:0:0:0:
192,192,13851,1,0,0:0:0:0:
64,192,14030,1,8,0:0:0:0:
320,192,14030,1,0,0:0:0:0:
192,192,14208,128,0,14387:0:0:0:0:
448,192,14208,1,0,0:0:0:0:
320,192,14387,1,2,0:0:0:0:
64,192,14387,1,0,0:0:0:0:
192,192,14565,1,0,0:0:0:0:
64,192,14565,128,0,14744:0:0:0:0:
320,192,14744,1,8,0:0:0:0:
448,192,14744,1,0,0:0:0:0:
448,192,14923,128,0,15101:0:0:0:0:
192,192,14923,1,0,0:0:0:0:
64,192,15101,1,2,0:0:0:0:
320,192,15101,1,0,0:0:0:0:
64,192,15280,1,0,0:0:0:0:
192,192,15280,128,0,15458:0:0:0:0:
448,192,15458,1,8,0:0:0:0:
320,192,15458,1,0,0:0:0:0:
448,192,15637,128,0,15815:0:0:0:0:
192,192,15637,1,0,0:0:0:0:
64,192,15815,1,2,0:0:0:0:
320,192,15815,1,0,0:0:0:0:
320,192,15994,128,0,16173:0:0:0:0:
64,192,15994,1,0,0:0:0:0:
448,192,16173,1,8,0:0:0:0:
192,192,16173,1,0,0:0:0:0:
448,192,16351,1,0,0:0:0:0:
64,192,16351,1,0,0:0:0:0:
64,192,16530,1,2,0:0:0:0:
320,192,16530,1,0,0:0:0:0:
448,192,16708,1,0,0:0:0:0:
192,192,16798,1,0,0:0:0:0:
320,192,16887,1,8,0:0:0:0:
64,192,16887,1,0,0:0:0:0:
192,192,17065,128,0,17244:0:0:0:0:
448,192,17065,1,0,0:0:0:0:
64,192,17244,1,2,0:0:0:0:
448,192,17244,1,0,0:0:0:0:
320,192,17423,1,0,0:0:0:0:
192,192,17512,1,0,0:0:0:0:
64,192,17601,1,8,0:0:0:0:
448,192,17601,1,0,0:0:0:0:
192,192,17780,128,0,17958:0:0:0:0:
320,192,17958,1,2,0:0:0:0:
64,192,17958,1,0,0:0:0:0:
192,192,18137,1,0,0:0:0:0:
448,192,18315,128,8,18673:0:0:0:0:
320,192,18315,1,0,0:0:0:0:
320,192,18673,1,2,0:0:0:0:
192,192,18673,128,0,19387:0:0:0:0:
64,192,18851,1,0,0:0:0:0:
320,192,19030,1,8,0:0:0:0:
448,192,19030,1,0,0:0:0:0:
64,192,19208,1,8,0:0:0:0:
448,192,19298,1,8,0:0:0:0:
320,192,19387,1,2,0:0:0:0:
64,192,19387,1,4,0:0:0:0:
64,192,19565,128,0,19744:0:0:0:0:
448,192,19565,1,0,0:0:0:0:
320,192,19744,1,8,0:0:0:0:
192,192,19744,1,0,0:0:0:0:
448,192,19923,128,0,20101:0:0:0:0:
64,192,19923,1,0,0:0:0:0:
192,192,20101,1,2,0:0:0:0:
320,192,20101,1,0,0:0:0:0:
448,192,20280,1,0,0:0:0:0:
64,192,20280,128,0,20458:0:0:0:0:
320,192,20458,1,8,0:0:0:0:
192,192,20458,1,0,0:0:0:0:
64,192,20637,128,0,20815:0:0:0:0:
448,192,20637,1,0,0:0:0:0:
448,192,20815,1,2,0:0:0:0:
320,192,20815,1,0,0:0:0:0:
64,192,20994,1,0,0:0:0:0:
192,192,20994,128,0,21173:0:0:0:0:
320,192,21173,1,8,0:0:0:0:
448,192,21173,1,0,0:0:0:0:
64,192,21351,128,0,21530:0:0:0:0:
192,192,21351,1,0,0:0:0:0:
320,192,21530,1,2,0:0:0:0:
448,192,21530,128,0,21708:0:0:0:0:
320,192,21708,128,0,21887:0:0:0:0:
192,192,21708,1,0,0:0:0:0:
192,192,21887,128,0,22065:0:0:0:0:
64,192,21887,1,8,0:0:0:0:
64,192,22065,128,0,22244:0:0:0:0:
448,192,22065,1,0,0:0:0:0:
320,192,22244,1,2,0:0:0:0:
192,192,22244,1,0,0:0:0:0:
448,192,22423,1,0,0:0:0:0:
320,192,22512,1,0,0:0:0:0:
448,192,22601,1,8,0:0:0:0:
64,192,22601,1,0,0:0:0:0:
192,192,22780,1,0,0:0:0:0:
320,192,22869,1,0,0:0:0:0:
448,192,22958,1,2,0:0:0:0:
64,192,22958,1,0,0:0:0:0:
448,192,23137,1,0,0:0:0:0:
320,192,23226,1,0,0:0:0:0:
192,192,23315,1,8,0:0:0:0:
64,192,23315,1,0,0:0:0:0:
320,192,23494,1,0,0:0:0:0:
448,192,23673,1,2,0:0:0:0:
192,192,23673,128,0,23851:0:0:0:0:
320,192,23851,1,0,0:0:0:0:
64,192,23851,128,0,24030:0:0:0:0:
320,192,24030,128,0,24208:0:0:0:0:
192,192,24030,1,8,0:0:0:0:
64,192,24208,128,8,24387:0:0:0:0:
448,192,24208,1,0,0:0:0:0:
320,192,24298,1,8,0:0:0:0:
192,192,24387,1,2,0:0:0:0:
448,192,24387,128,0,24744:0:0:0:0:
64,192,24565,1,0,0:0:0:0:
192,192,24744,128,0,25101:0:0:0:0:
320,192,24744,1,8,0:0:0:0:
64,192,24744,1,0,0:0:0:0:
448,192,24833,1,8,0:0:0:0:
320,192,24923,1,8,0:0:0:0:
448,192,25012,1,8,0:0:0:0:
64,192,25101,1,2,0:0:0:0:
320,192,25101,1,4,0:0:0:0:
64,192,25280,1,0,0:0:0:0:
448,192,25369,1,0,0:0:0:0:
320,192,25458,1,8,0:0:0:0:
192,192,25458,1,0,0:0:0:0:
448,192,25637,1,0,0:0:0:0:
320,192,25726,1,0,0:0:0:0:
64,192,25815,1,2,0:0:0:0:
192,192,25815,1,0,0:0:0:0:
64,192,25994,1,0,0:0:0:0:
192,192,26083,1,0,0:0:0:0:
320,192,26173,1,8,0:0:0:0:
448,192,26173,1,0,0:0:0:0:
320,192,26351,1,0,0:0:0:0:
64,192,26530,1,2,0:0:0:0:
192,192,26530,1,0,0:0:0:0:
448,192,26708,1,0,0:0:0:0:
192,192,26798,1,0,0:0:0:0:
64,192,26887,1,8,0:0:0:0:
320,192,26887,1,0,0:0:0:0:
320,192,27065,1,0,0:0:0:0:
192,192,27155,1,0,0:0:0:0:
64,192,27244,1,2,0:0:0:0:
64,192,27423,1,0,0:0:0:0:
192,192,27512,1,0,0:0:0:0:
448,192,27601,1,8,0:0:0:0:
320,192,27601,1,0,0:0:0:0:
448,192,27780,1,0,0:0:0:0:
64,192,27958,1,2,0:0:0:0:
320,192,27958,1,0,0:0:0:0:
448,192,28137,1,0,0:0:0:0:
64,192,28226,1,0,0:0:0:0:
320,192,28315,1,8,0:0:0:0:
192,192,28315,1,0,0:0:0:0:
448,192,28494,1,0,0:0:0:0:
192,192,28583,1,0,0:0:0:0:
64,192,28673,1,2,0:0:0:0:
320,192,28673,1,0,0:0:0:0:
64,192,28851,1,0,0:0:0:0:
192,192,28940,1,0,0:0:0:0:
448,192,29030,1,8,0:0:0:0:
320,192,29030,1,0,0:0:0:0:
320,192,29208,1,0,0:0:0:0:
64,192,29387,1,2,0:0:0:0:
320,192,29387,1,4,0:0:0:0:
192,192,29387,1,0,0:0:0:0:
192,192,29744,1,2,0:0:0:0:
320,192,29744,1,0,0:0:0:0:
448,192,29744,1,8,0:0:0:0:
64,192,30101,1,2,0:0:0:0:
192,192,30101,1,0,0:0:0:0:
448,192,30101,1,4,0:0:0:0:
192,192,30458,1,6,0:0:0:0:
448,192,30458,1,8,0:0:0:0:
320,192,30458,1,0,0:0:0:0:
320,192,30637,1,0,0:0:0:0:
448,192,30726,1,0,0:0:0:0:
64,192,30815,1,2,0:0:0:0:
192,192,30815,1,4,0:0:0:0:
448,192,30994,1,0,0:0:0:0:
192,192,31083,1,0,0:0:0:0:
320,192,31173,1,8,0:0:0:0:
64,192,31173,1,0,0:0:0:0:
320,192,31351,1,0,0:0:0:0:
64,192,31440,1,0,0:0:0:0:
320,192,31530,1,2,0:0:0:0:
192,192,31530,1,0,0:0:0:0:
64,192,31708,1,0,0:0:0:0:
320,192,31798,1,0,0:0:0:0:
192,192,31887,1,8,0:0:0:0:
448,192,31887,1,0,0:0:0:0:
448,192,32065,1,0,0:0:0:0:
192,192,32244,1,2,0:0:0:0:
64,192,32244,1,0,0:0:0:0:
448,192,32423,1,0,0:0:0:0:
192,192,32512,1,0,0:0:0:0:
320,192,32601,1,8,0:0:0:0:
64,192,32601,1,0,0:0:0:0:
64,192,32780,1,0,0:0:0:0:
320,192,32869,1,0,0:0:0:0:
448,192,32958,1,2,0:0:0:0:
64,192,32958,1,0,0:0:0:0:
192,192,33137,1,0,0:0:0:0:
64,192,33226,1,0,0:0:0:0:
448,192,33315,1,8,0:0:0:0:
192,192,33315,1,0,0:0:0:0:
320,192,33494,1,0,0:0:0:0:
192,192,33673,1,2,0:0:0:0:
64,192,33673,1,0,0:0:0:0:
320,192,33851,1,0,0:0:0:0:
192,192,33851,1,0,0:0:0:0:
192,192,34030,1,8,0:0:0:0:
64,192,34030,1,0,0:0:0:0:
320,192,34208,1,0,0:0:0:0:
448,192,34208,1,0,0:0:0:0:
448,192,34387,1,2,0:0:0:0:
64,192,34387,1,0,0:0:0:0:
64,192,34565,1,0,0:0:0:0:
320,192,34565,1,0,0:0:0:0:
64,192,34744,1,8,0:0:0:0:
192,192,34744,1,0,0:0:0:0:
448,192,34923,1,0,0:0:0:0:
64,192,34923,1,0,0:0:0:0:
192,192,35101,1,2,0:0:0:0:
448,192,35101,1,0,0:0:0:0:
320,192,35280,1,0,0:0:0:0:
448,192,35280,1,0,0:0:0:0:
320,192,35458,1,8,0:0:0:0:
192,192,35458,1,0,0:0:0:0:
448,192,35637,1,0,0:0:0:0:
64,192,35637,1,0,0:0:0:0:
192,192,35815,1,2,0:0:0:0:
320,192,35815,1,0,0:0:0:0:
448,192,35994,1,0,0:0:0:0:
64,192,36083,1,0,0:0:0:0:
320,192,36173,1,8,0:0:0:0:
448,192,36173,1,0,0:0:0:0:
320,192,36351,1,0,0:0:0:0:
192,192,36351,1,0,0:0:0:0:
64,192,36530,1,2,0:0:0:0:
448,192,36530,1,0,0:0:0:0:
320,192,36530,1,4,0:0:0:0:
64,192,36798,1,2,0:0:0:0:
448,192,36798,1,0,0:0:0:0:
192,192,36887,1,10,0:0:0:0:
64,192,37065,1,2,0:0:0:0:
448,192,37065,1,0,0:0:0:0:
320,192,37065,1,0,0:0:0:0:
192,192,37244,1,2,0:0:0:0:
320,192,37244,1,0,0:0:0:0:
448,192,37244,1,0,0:0:0:0:
320,192,37512,1,2,0:0:0:0:
64,192,37512,1,0,0:0:0:0:
448,192,37601,1,10,0:0:0:0:
448,192,37780,1,2,0:0:0:0:
64,192,37780,1,0,0:0:0:0:
192,192,37780,1,0,0:0:0:0:
64,192,37958,1,2,0:0:0:0:
320,192,37958,1,0,0:0:0:0:
192,192,37958,1,0,0:0:0:0:
64,192,38226,1,2,0:0:0:0:
320,192,38226,1,0,0:0:0:0:
448,192,38315,1,10,0:0:0:0:
64,192,38494,1,2,0:0:0:0:
192,192,38494,1,0,0:0:0:0:
320,192,38494,1,0,0:0:0:0:
192,192,38673,1,2,0:0:0:0:
448,192,38673,1,0,0:0:0:0:
320,192,38673,1,0,0:0:0:0:
192,192,38940,1,2,0:0:0:0:
448,192,38940,1,0,0:0:0:0:
64,192,39030,1,10,0:0:0:0:
448,192,39208,1,2,0:0:0:0:
320,192,39208,1,0,0:0:0:0:
64,192,39208,1,0,0:0:0:0:
192,192,39387,1,2,0:0:0:0:
64,192,39387,1,0,0:0:0:0:
320,192,39387,1,0,0:0:0:0:
448,192,39655,1,2,0:0:0:0:
320,192,39655,1,0,0:0:0:0:
192,192,39744,1,10,0:0:0:0:
192,192,39923,1,2,0:0:0:0:
320,192,39923,1,0,0:0:0:0:
64,192,39923,1,0,0:0:0:0:
448,192,40101,1,2,0:0:0:0:
320,192,40101,1,0,0:0:0:0:
64,192,40101,1,0,0:0:0:0:
320,192,40369,1,2,0:0:0:0:
448,192,40369,1,0,0:0:0:0:
64,192,40458,1,10,0:0:0:0:
448,192,40637,1,2,0:0:0:0:
320,192,40637,1,0,0:0:0:0:
192,192,40637,1,0,0:0:0:0:
64,192,40815,1,2,0:0:0:0:
192,192,40815,1,4,0:0:0:0:
448,192,40815,128,0,40994:0:0:0:0:
320,192,40994,128,0,41173:0:0:0:0:
64,192,41173,128,4,41351:0:0:0:0:
192,192,41173,1,10,0:0:0:0:
320,192,41351,128,0,41530:0:0:0:0:
64,192,41530,1,2,0:0:0:0:
448,192,41530,1,4,0:0:0:0:
192,192,41530,128,0,41887:0:0:0:0:
64,192,41887,1,2,0:0:0:0:
320,192,41887,1,4,0:0:0:0:
448,192,41887,1,8,0:0:0:0:
192,192,42244,1,2,0:0:0:0:
320,192,42244,1,0,0:0:0:0:
448,192,42244,1,0,0:0:0:0:
64,192,42512,1,2,0:0:0:0:
448,192,42512,1,0,0:0:0:0:
320,192,42601,1,2,0:0:0:0:
192,192,42601,1,8,0:0:0:0:
64,192,42780,1,2,0:0:0:0:
320,192,42780,1,0,0:0:0:0:
448,192,42780,1,0,0:0:0:0:
320,192,42958,1,2,0:0:0:0:
192,192,42958,1,0,0:0:0:0:
448,192,42958,1,0,0:0:0:0:
64,192,43226,1,2,0:0:0:0:
320,192,43226,1,0,0:0:0:0:
448,192,43315,1,2,0:0:0:0:
192,192,43315,1,8,0:0:0:0:
64,192,43494,1,2,0:0:0:0:
448,192,43494,1,0,0:0:0:0:
320,192,43494,1,0,0:0:0:0:
448,192,43673,128,2,43851:0:0:0:0:
192,192,43673,1,0,0:0:0:0:
64,192,43673,1,0,0:0:0:0:
320,192,43851,128,0,44030:0:0:0:0:
192,192,44030,128,0,44208:0:0:0:0:
448,192,44030,1,0,0:0:0:0:
64,192,44030,1,8,0:0:0:0:
320,192,44208,128,0,44387:0:0:0:0:
448,192,44387,128,2,44744:0:0:0:0:
64,192,44387,1,0,0:0:0:0:
192,192,44387,1,0,0:0:0:0:
320,192,44744,1,8,0:0:0:0:
64,192,44744,1,0,0:0:0:0:
192,192,44744,1,0,0:0:0:0:
64,192,44923,1,2,0:0:0:0:
320,192,44923,1,0,0:0:0:0:
448,192,44923,1,0,0:0:0:0:
64,192,45101,1,2,0:0:0:0:
320,192,45101,1,0,0:0:0:0:
192,192,45101,1,4,0:0:0:0:
192,192,45369,1,2,0:0:0:0:
448,192,45369,1,0,0:0:0:0:
64,192,45458,1,2,0:0:0:0:
320,192,45458,1,8,0:0:0:0:
192,192,45637,1,2,0:0:0:0:
448,192,45637,1,0,0:0:0:0:
320,192,45637,1,0,0:0:0:0:
64,192,45815,1,2,0:0:0:0:
192,192,45815,1,0,0:0:0:0:
320,192,45815,1,4,0:0:0:0:
448,192,46083,1,2,0:0:0:0:
320,192,46083,1,0,0:0:0:0:
64,192,46173,1,2,0:0:0:0:
192,192,46173,1,8,0:0:0:0:
64,192,46351,1,2,0:0:0:0:
192,192,46351,1,0,0:0:0:0:
320,192,46351,1,0,0:0:0:0:
448,192,46530,1,2,0:0:0:0:
64,192,46530,1,4,0:0:0:0:
320,192,46530,1,0,0:0:0:0:
64,192,46798,1,2,0:0:0:0:
448,192,46798,1,0,0:0:0:0:
192,192,46887,1,2,0:0:0:0:
320,192,46887,1,8,0:0:0:0:
64,192,47065,1,2,0:0:0:0:
448,192,47065,1,0,0:0:0:0:
320,192,47065,1,0,0:0:0:0:
192,192,47244,1,2,0:0:0:0:
448,192,47244,1,0,0:0:0:0:
320,192,47244,128,0,49030:0:0:0:0:
64,192,47601,128,0,47958:0:0:0:0:
448,192,47958,1,2,0:0:0:0:
192,192,47958,1,4,0:0:0:0:
192,192,48315,128,2,49387:0:0:0:0:
448,192,48673,128,2,49387:0:0:0:0:
64,192,49030,128,2,49387:0:0:0:0:
320,192,49387,128,2,50815:0:0:0:0:
64,192,49744,128,2,50458:0:0:0:0:
192,192,50101,128,2,50815:0:0:0:0:
448,192,50458,128,2,50815:0:0:0:0:
64,192,50815,128,2,51887:0:0:0:0:
320,192,51173,128,2,52244:0:0:0:0:
192,192,51530,128,2,52244:0:0:0:0:
448,192,51887,128,2,52244:0:0:0:0:
64,192,52244,1,6,0:0:0:0:
64,192,52601,1,2,0:0:0:0:
448,192,52601,1,4,0:0:0:0:
192,192,52958,1,2,0:0:0:0:
448,192,52958,1,4,0:0:0:0:
320,192,53315,1,2,0:0:0:0:
448,192,53315,1,4,0:0:0:0:
192,192,53405,1,2,0:0:0:0:
64,192,53494,1,2,0:0:0:0:
192,192,53673,1,2,0:0:0:0:
320,192,53673,128,4,53851:0:0:0:0:
448,192,53851,128,0,54030:0:0:0:0:
192,192,54030,128,2,54208:0:0:0:0:
320,192,54030,1,0,0:0:0:0:
64,192,54208,128,0,54387:0:0:0:0:
448,192,54387,128,2,54565:0:0:0:0:
192,192,54387,1,0,0:0:0:0:
320,192,54565,128,0,54744:0:0:0:0:
64,192,54744,128,2,54923:0:0:0:0:
448,192,54744,1,0,0:0:0:0:
192,192,54923,128,0,55101:0:0:0:0:
448,192,55101,128,2,55280:0:0:0:0:
64,192,55101,1,0,0:0:0:0:
320,192,55280,128,0,55458:0:0:0:0:
192,192,55458,128,2,55637:0:0:0:0:
64,192,55458,1,0,0:0:0:0:
320,192,55637,128,0,55815:0:0:0:0:
448,192,55815,128,2,55994:0:0:0:0:
192,192,55815,1,0,0:0:0:0:
320,192,55994,128,0,56173:0:0:0:0:
64,192,56173,128,2,56351:0:0:0:0:
448,192,56173,1,0,0:0:0:0:
192,192,56351,128,0,56530:0:0:0:0:
448,192,56530,1,4,0:0:0:0:
64,192,56530,1,2,0:0:0:0:
320,192,56530,128,0,57244:0:0:0:0:
64,192,57780,1,4,0:0:0:0:
448,192,57780,1,2,0:0:0:0:
192,192,57780,128,0,58137:0:0:0:0:
320,192,57780,128,0,58137:0:0:0:0:
448,192,58137,128,0,58315:0:0:0:0:
64,192,58137,1,2,0:0:0:0:
320,192,58315,128,0,58494:0:0:0:0:
64,192,58315,1,2,0:0:0:0:
192,192,58494,128,0,58673:0:0:0:0:
448,192,58494,1,2,0:0:0:0:
448,192,58673,128,4,59030:0:0:0:0:
64,192,58673,1,2,0:0:0:0:
64,192,59030,1,8,0:0:0:0:
320,192,59030,1,0,0:0:0:0:
192,192,59030,1,0,0:0:0:0:
64,192,59387,1,2,0:0:0:0:
448,192,59387,1,4,0:0:0:0:
320,192,59387,1,0,0:0:0:0:
192,192,59565,1,0,0:0:0:0:
64,192,59744,128,8,60101:0:0:0:0:
448,192,59744,1,0,0:0:0:0:
448,192,59923,1,0,0:0:0:0:
320,192,60012,1,0,0:0:0:0:
448,192,60101,1,2,0:0:0:0:
192,192,60101,1,0,0:0:0:0:
64,192,60280,1,0,0:0:0:0:
64,192,60458,128,8,60815:0:0:0:0:
320,192,60458,1,0,0:0:0:0:
448,192,60637,1,0,0:0:0:0:
448,192,60815,1,2,0:0:0:0:
192,192,60815,1,0,0:0:0:0:
320,192,60994,1,0,0:0:0:0:
320,192,61173,128,8,61530:0:0:0:0:
192,192,61173,1,0,0:0:0:0:
64,192,61351,1,0,0:0:0:0:
448,192,61440,1,0,0:0:0:0:
192,192,61530,1,2,0:0:0:0:
64,192,61530,1,0,0:0:0:0:
320,192,61708,1,0,0:0:0:0:
64,192,61887,128,8,62244:0:0:0:0:
192,192,61887,1,0,0:0:0:0:
320,192,62065,1,0,0:0:0:0:
448,192,62244,1,2,0:0:0:0:
192,192,62244,1,0,0:0:0:0:
320,192,62423,1,0,0:0:0:0:
192,192,62512,1,0,0:0:0:0:
64,192,62601,1,8,0:0:0:0:
448,192,62601,1,0,0:0:0:0:
192,192,62780,1,0,0:0:0:0:
320,192,62869,1,0,0:0:0:0:
64,192,62958,1,2,0:0:0:0:
448,192,62958,1,0,0:0:0:0:
320,192,63137,1,0,0:0:0:0:
192,192,63226,1,0,0:0:0:0:
448,192,63315,1,8,0:0:0:0:
64,192,63315,1,0,0:0:0:0:
64,192,63494,1,0,0:0:0:0:
192,192,63583,1,0,0:0:0:0:
448,192,63673,1,2,0:0:0:0:
320,192,63673,1,0,0:0:0:0:
192,192,63851,1,0,0:0:0:0:
64,192,64030,1,8,0:0:0:0:
448,192,64030,1,0,0:0:0:0:
320,192,64208,1,8,0:0:0:0:
448,192,64298,1,8,0:0:0:0:
192,192,64387,1,2,0:0:0:0:
64,192,64387,1,0,0:0:0:0:
320,192,64565,1,0,0:0:0:0:
192,192,64744,1,8,0:0:0:0:
64,192,64744,1,0,0:0:0:0:
320,192,64833,1,8,0:0:0:0:
448,192,64923,1,8,0:0:0:0:
320,192,65012,1,8,0:0:0:0:
64,192,65101,1,2,0:0:0:0:
192,192,65101,1,4,0:0:0:0:
448,192,65280,1,0,0:0:0:0:
192,192,65458,128,8,65815:0:0:0:0:
320,192,65458,1,0,0:0:0:0:
448,192,65637,1,0,0:0:0:0:
320,192,65726,1,0,0:0:0:0:
64,192,65815,1,2,0:0:0:0:
448,192,65815,1,0,0:0:0:0:
192,192,65994,1,0,0:0:0:0:
320,192,66173,128,8,66530:0:0:0:0:
448,192,66173,1,0,0:0:0:0:
192,192,66351,1,0,0:0:0:0:
64,192,66530,1,2,0:0:0:0:
448,192,66530,1,0,0:0:0:0:
448,192,66708,1,0,0:0:0:0:
320,192,66887,128,8,67244:0:0:0:0:
64,192,66887,1,0,0:0:0:0:
192,192,67065,1,0,0:0:0:0:
448,192,67155,1,0,0:0:0:0:
64,192,67244,1,2,0:0:0:0:
192,192,67244,1,0,0:0:0:0:
320,192,67423,1,0,0:0:0:0:
448,192,67423,1,0,0:0:0:0:
192,192,67601,128,8,67958:0:0:0:0:
64,192,67601,1,0,0:0:0:0:
448,192,67780,1,0,0:0:0:0:
320,192,67958,1,2,0:0:0:0:
64,192,67958,1,0,0:0:0:0:
192,192,68137,1,0,0:0:0:0:
448,192,68226,1,0,0:0:0:0:
320,192,68315,1,8,0:0:0:0:
64,192,68315,1,0,0:0:0:0:
448,192,68494,1,0,0:0:0:0:
192,192,68583,1,0,0:0:0:0:
320,192,68673,1,2,0:0:0:0:
64,192,68673,1,0,0:0:0:0:
192,192,68851,1,0,0:0:0:0:
448,192,68940,1,0,0:0:0:0:
320,192,69030,1,8,0:0:0:0:
64,192,69030,1,0,0:0:0:0:
192,192,69208,1,0,0:0:0:0:
320,192,69208,1,0,0:0:0:0:
192,192,69387,1,2,0:0:0:0:
448,192,69387,128,0,69565:0:0:0:0:
64,192,69565,128,0,69744:0:0:0:0:
320,192,69565,1,0,0:0:0:0:
192,192,69744,128,0,69923:0:0:0:0:
448,192,69744,1,8,0:0:0:0:
320,192,69923,128,0,70101:0:0:0:0:
64,192,69923,1,8,0:0:0:0:
192,192,70012,1,8,0:0:0:0:
64,192,70101,1,2,0:0:0:0:
448,192,70101,128,0,70458:0:0:0:0:
192,192,70458,1,8,0:0:0:0:
64,192,70548,1,8,0:0:0:0:
320,192,70637,1,8,0:0:0:0:
192,192,70726,1,8,0:0:0:0:
320,192,70815,1,2,0:0:0:0:
64,192,70815,1,4,0:0:0:0:
448,192,70994,1,0,0:0:0:0:
192,192,71173,128,8,71530:0:0:0:0:
64,192,71173,1,0,0:0:0:0:
448,192,71351,1,0,0:0:0:0:
64,192,71440,1,0,0:0:0:0:
320,192,71530,1,2,0:0:0:0:
448,192,71530,1,0,0:0:0:0:
64,192,71708,1,0,0:0:0:0:
448,192,71887,128,8,72244:0:0:0:0:
192,192,71887,1,0,0:0:0:0:
64,192,72065,1,0,0:0:0:0:
192,192,72244,1,2,0:0:0:0:
320,192,72244,1,0,0:0:0:0:
64,192,72423,1,0,0:0:0:0:
192,192,72601,128,8,72958:0:0:0:0:
320,192,72601,1,0,0:0:0:0:
64,192,72780,1,0,0:0:0:0:
448,192,72869,1,0,0:0:0:0:
320,192,72958,1,2,0:0:0:0:
64,192,72958,1,0,0:0:0:0:
448,192,73137,1,0,0:0:0:0:
64,192,73315,1,8,0:0:0:0:
192,192,73315,128,0,73673:0:0:0:0:
320,192,73494,1,0,0:0:0:0:
448,192,73673,1,2,0:0:0:0:
320,192,73851,1,0,0:0:0:0:
192,192,73940,1,0,0:0:0:0:
64,192,74030,1,8,0:0:0:0:
448,192,74030,1,0,0:0:0:0:
320,192,74208,1,0,0:0:0:0:
64,192,74298,1,0,0:0:0:0:
448,192,74387,1,2,0:0:0:0:
192,192,74387,1,0,0:0:0:0:
192,192,74565,1,0,0:0:0:0:
448,192,74655,1,0,0:0:0:0:
64,192,74744,1,8,0:0:0:0:
320,192,74744,1,0,0:0:0:0:
192,192,74923,1,0,0:0:0:0:
320,192,75012,1,0,0:0:0:0:
448,192,75101,1,2,0:0:0:0:
64,192,75101,1,0,0:0:0:0:
320,192,75280,1,0,0:0:0:0:
192,192,75458,128,0,75815:0:0:0:0:
64,192,75458,1,8,0:0:0:0:
320,192,75637,1,8,0:0:0:0:
448,192,75726,1,8,0:0:0:0:
320,192,75815,1,2,0:0:0:0:
64,192,75815,128,0,76173:0:0:0:0:
448,192,75994,1,0,0:0:0:0:
192,192,76173,1,8,0:0:0:0:
320,192,76262,1,8,0:0:0:0:
448,192,76351,1,8,0:0:0:0:
320,192,76440,1,8,0:0:0:0:
448,192,76530,128,0,76887:0:0:0:0:
64,192,76530,1,4,0:0:0:0:
192,192,76530,1,2,0:0:0:0:
320,192,76708,1,0,0:0:0:0:
64,192,76887,1,8,0:0:0:0:
192,192,76887,128,0,77244:0:0:0:0:
320,192,77065,1,0,0:0:0:0:
448,192,77155,1,0,0:0:0:0:
320,192,77244,128,0,77601:0:0:0:0:
64,192,77244,1,2,0:0:0:0:
192,192,77423,1,0,0:0:0:0:
192,192,77601,128,0,77780:0:0:0:0:
64,192,77601,1,8,0:0:0:0:
448,192,77780,128,0,77958:0:0:0:0:
192,192,77958,128,2,78137:0:0:0:0:
320,192,78137,128,0,78315:0:0:0:0:
448,192,78315,128,0,78494:0:0:0:0:
64,192,78315,1,8,0:0:0:0:
192,192,78494,128,0,78673:0:0:0:0:
64,192,78583,1,0,0:0:0:0:
320,192,78673,128,2,79030:0:0:0:0:
64,192,78851,1,0,0:0:0:0:
192,192,79030,128,0,79208:0:0:0:0:
448,192,79030,1,8,0:0:0:0:
320,192,79208,128,0,79387:0:0:0:0:
64,192,79208,1,0,0:0:0:0:
448,192,79387,128,2,79565:0:0:0:0:
320,192,79565,1,0,0:0:0:0:
192,192,79655,1,0,0:0:0:0:
64,192,79744,128,0,79923:0:0:0:0:
448,192,79744,1,8,0:0:0:0:
448,192,79923,1,0,0:0:0:0:
320,192,79923,128,0,80101:0:0:0:0:
192,192,80101,128,2,80280:0:0:0:0:
448,192,80280,1,0,0:0:0:0:
64,192,80369,1,0,0:0:0:0:
192,192,80458,1,8,0:0:0:0:
320,192,80458,128,0,80637:0:0:0:0:
64,192,80637,128,0,80815:0:0:0:0:
192,192,80815,1,2,0:0:0:0:
448,192,80815,128,0,80994:0:0:0:0:
64,192,80994,128,0,81173:0:0:0:0:
320,192,80994,1,0,0:0:0:0:
192,192,81173,128,0,81351:0:0:0:0:
448,192,81173,1,8,0:0:0:0:
320,192,81351,128,0,81530:0:0:0:0:
64,192,81351,1,8,0:0:0:0:
192,192,81440,1,8,0:0:0:0:
448,192,81530,128,0,82244:0:0:0:0:
64,192,81530,1,2,0:0:0:0:
320,192,81708,1,0,0:0:0:0:
64,192,81887,1,8,0:0:0:0:
192,192,81887,1,0,0:0:0:0:
320,192,81976,1,8,0:0:0:0:
192,192,82065,1,8,0:0:0:0:
320,192,82155,1,8,0:0:0:0:
64,192,82244,1,2,0:0:0:0:
192,192,82244,1,0,0:0:0:0:
320,192,82423,1,0,0:0:0:0:
320,192,82601,1,0,0:0:0:0:
320,192,82780,1,0,0:0:0:0:
320,192,82958,1,0,0:0:0:0:
192,192,83048,1,0,0:0:0:0:
64,192,83137,1,0,0:0:0:0:
192,192,83315,1,0,0:0:0:0:
320,192,83494,1,2,0:0:0:0:
64,192,83494,1,0,0:0:0:0:
64,192,83673,1,2,0:0:0:0:
320,192,83673,1,0,0:0:0:0:
320,192,83851,1,0,0:0:0:0:
320,192,84030,1,0,0:0:0:0:
320,192,84208,1,0,0:0:0:0:
448,192,84387,1,0,0:0:0:0:
192,192,84476,1,0,0:0:0:0:
64,192,84565,1,0,0:0:0:0:
192,192,84744,1,0,0:0:0:0:
320,192,84923,1,2,0:0:0:0:
64,192,84923,1,0,0:0:0:0:
64,192,85101,1,2,0:0:0:0:
320,192,85101,1,0,0:0:0:0:
448,192,85280,1,0,0:0:0:0:
448,192,85458,1,0,0:0:0:0:
448,192,85637,1,0,0:0:0:0:
448,192,85815,1,0,0:0:0:0:
320,192,85905,1,0,0:0:0:0:
64,192,85994,1,0,0:0:0:0:
320,192,86173,1,0,0:0:0:0:
448,192,86351,1,2,0:0:0:0:
64,192,86351,1,0,0:0:0:0:
64,192,86530,1,2,0:0:0:0:
448,192,86530,1,4,0:0:0:0:
320,192,86530,1,0,0:0:0:0:
448,192,86708,1,0,0:0:0:0:
448,192,86887,1,2,0:0:0:0:
192,192,86887,1,4,0:0:0:0:
320,192,86887,1,0,0:0:0:0:
448,192,87065,1,0,0:0:0:0:
64,192,87244,1,0,0:0:0:0:
192,192,87244,1,4,0:0:0:0:
448,192,87244,1,2,0:0:0:0:
320,192,87333,1,0,0:0:0:0:
192,192,87423,1,0,0:0:0:0:
64,192,87512,1,0,0:0:0:0:
448,192,87601,1,2,0:0:0:0:
192,192,87601,1,4,0:0:0:0:
320,192,87690,1,0,0:0:0:0:
192,192,87780,1,0,0:0:0:0:
64,192,87869,1,0,0:0:0:0:
192,192,87958,1,4,0:0:0:0:
448,192,87958,1,2,0:0:0:0:
320,192,87958,1,0,0:0:0:0:
320,192,88137,1,0,0:0:0:0:
64,192,88315,1,2,0:0:0:0:
320,192,88315,1,0,0:0:0:0:
320,192,88494,1,0,0:0:0:0:
64,192,88673,1,2,0:0:0:0:
320,192,88673,1,0,0:0:0:0:
192,192,88762,1,0,0:0:0:0:
64,192,88851,1,0,0:0:0:0:
64,192,89030,1,2,0:0:0:0:
192,192,89030,1,0,0:0:0:0:
448,192,89208,1,2,0:0:0:0:
192,192,89208,1,0,0:0:0:0:
320,192,89208,1,0,0:0:0:0:
64,192,89387,1,2,0:0:0:0:
192,192,89387,1,0,0:0:0:0:
448,192,89387,1,0,0:0:0:0:
448,192,89565,1,0,0:0:0:0:
64,192,89744,1,2,0:0:0:0:
448,192,89744,1,0,0:0:0:0:
448,192,89923,1,0,0:0:0:0:
64,192,90101,1,2,0:0:0:0:
448,192,90101,1,0,0:0:0:0:
320,192,90190,1,0,0:0:0:0:
192,192,90280,1,0,0:0:0:0:
64,192,90458,1,2,0:0:0:0:
320,192,90458,1,0,0:0:0:0:
320,192,90637,1,2,0:0:0:0:
448,192,90637,1,0,0:0:0:0:
64,192,90637,1,0,0:0:0:0:
64,192,90815,1,2,0:0:0:0:
448,192,90815,1,0,0:0:0:0:
192,192,90815,1,0,0:0:0:0:
448,192,90994,1,0,0:0:0:0:
64,192,91173,1,2,0:0:0:0:
448,192,91173,1,0,0:0:0:0:
448,192,91351,1,0,0:0:0:0:
64,192,91530,1,2,0:0:0:0:
320,192,91530,1,0,0:0:0:0:
192,192,91619,1,0,0:0:0:0:
64,192,91708,1,0,0:0:0:0:
64,192,91887,1,2,0:0:0:0:
320,192,91887,1,0,0:0:0:0:
64,192,92065,1,2,0:0:0:0:
320,192,92065,1,0,0:0:0:0:
448,192,92065,1,0,0:0:0:0:
192,192,92244,1,4,0:0:0:0:
448,192,92244,1,0,0:0:0:0:
64,192,92244,1,2,0:0:0:0:
448,192,92423,1,0,0:0:0:0:
448,192,92601,1,4,0:0:0:0:
64,192,92601,1,2,0:0:0:0:
320,192,92601,1,0,0:0:0:0:
448,192,92780,1,0,0:0:0:0:
448,192,92958,1,4,0:0:0:0:
64,192,92958,1,2,0:0:0:0:
192,192,92958,1,0,0:0:0:0:
320,192,93048,1,0,0:0:0:0:
192,192,93137,1,0,0:0:0:0:
64,192,93226,1,0,0:0:0:0:
192,192,93315,1,2,0:0:0:0:
320,192,93315,1,4,0:0:0:0:
448,192,93405,1,0,0:0:0:0:
320,192,93494,1,2,0:0:0:0:
192,192,93583,1,0,0:0:0:0:
448,192,93673,1,4,0:0:0:0:
64,192,93673,1,2,0:0:0:0:
320,192,93673,1,0,0:0:0:0:
192,192,93762,1,0,0:0:0:0:
320,192,93851,1,0,0:0:0:0:
448,192,93940,1,0,0:0:0:0:
64,192,94030,1,4,0:0:0:0:
320,192,94030,1,2,0:0:0:0:
192,192,94119,1,0,0:0:0:0:
64,192,94208,1,2,0:0:0:0:
192,192,94298,1,0,0:0:0:0:
448,192,94387,1,4,0:0:0:0:
320,192,94387,1,0,0:0:0:0:
64,192,94387,1,2,0:0:0:0:
192,192,94476,1,0,0:0:0:0:
320,192,94565,1,0,0:0:0:0:
448,192,94655,1,0,0:0:0:0:
320,192,94744,1,4,0:0:0:0:
192,192,94744,1,2,0:0:0:0:
64,192,94833,1,0,0:0:0:0:
192,192,94923,1,2,0:0:0:0:
320,192,95012,1,0,0:0:0:0:
64,192,95101,1,2,0:0:0:0:
192,192,95101,1,0,0:0:0:0:
448,192,95101,1,4,0:0:0:0:
320,192,95280,1,0,0:0:0:0:
64,192,95280,1,2,0:0:0:0:
448,192,95280,1,4,0:0:0:0:
192,192,95458,1,0,0:0:0:0:
64,192,95458,1,2,0:0:0:0:
448,192,95458,1,4,0:0:0:0:
320,192,95637,1,0,0:0:0:0:
64,192,95637,1,2,0:0:0:0:
448,192,95637,1,4,0:0:0:0:
192,192,95815,1,0,0:0:0:0:
448,192,95815,1,4,0:0:0:0:
64,192,95815,1,2,0:0:0:0:
320,192,95994,1,0,0:0:0:0:
448,192,95994,1,4,0:0:0:0:
64,192,95994,1,2,0:0:0:0:
192,192,96173,1,0,0:0:0:0:
64,192,96173,1,2,0:0:0:0:
448,192,96173,1,4,0:0:0:0:
320,192,96351,1,0,0:0:0:0:
64,192,96351,1,2,0:0:0:0:
448,192,96351,1,4,0:0:0:0:
192,192,96530,1,0,0:0:0:0:
448,192,97958,128,0,99387:0:0:0:0:
320,192,97958,128,0,99387:0:0:0:0:
64,192,97958,1,6,0:0:0:0:
192,192,99387,128,0,102244:0:0:0:0:
64,192,99387,128,0,100815:0:0:0:0:
320,192,100815,128,0,103673:0:0:0:0:
448,192,102244,128,0,103673:0:0:0:0:
192,192,103673,128,0,106530:0:0:0:0:
64,192,103673,128,0,105101:0:0:0:0:
448,192,105101,128,0,106530:0:0:0:0:
64,192,106530,1,0,0:0:0:0:
64,192,106887,1,0,0:0:0:0:
64,192,107244,1,0,0:0:0:0:
320,192,109387,128,0,112244:0:0:0:0:
64,192,109387,1,2,0:0:0:0:
448,192,109387,1,4,0:0:0:0:
192,192,110815,128,0,113673:0:0:0:0:
64,192,112244,128,0,116530:0:0:0:0:
448,192,113673,128,0,115101:0:0:0:0:
320,192,115101,128,0,116530:0:0:0:0:
192,192,116530,128,0,117958:0:0:0:0:
448,192,116530,128,0,117958:0:0:0:0:
320,192,117958,128,0,120815:0:0:0:0:
448,192,120101,128,0,120815:0:0:0:0:
64,192,120458,1,0,0:0:0:0:
192,192,120637,1,0,0:0:0:0:
192,192,120815,1,2,0:0:0:0:
64,192,120815,128,4,121173:0:0:0:0:
448,192,120994,1,0,0:0:0:0:
320,192,121173,128,0,121530:0:0:0:0:
192,192,121351,1,0,0:0:0:0:
64,192,121530,1,4,0:0:0:0:
448,192,121530,1,2,0:0:0:0:
192,192,121530,128,0,121887:0:0:0:0:
448,192,121708,1,0,0:0:0:0:
320,192,121887,128,0,122065:0:0:0:0:
192,192,122065,1,2,0:0:0:0:
64,192,122065,128,4,122244:0:0:0:0:
320,192,122244,128,4,122423:0:0:0:0:
192,192,122244,1,2,0:0:0:0:
64,192,122423,128,0,122601:0:0:0:0:
448,192,122423,1,0,0:0:0:0:
320,192,122601,128,0,122780:0:0:0:0:
192,192,122780,128,0,122958:0:0:0:0:
448,192,122958,128,2,123673:0:0:0:0:
64,192,122958,1,4,0:0:0:0:
192,192,123137,1,0,0:0:0:0:
64,192,123315,1,2,0:0:0:0:
320,192,123315,1,4,0:0:0:0:
192,192,123494,1,0,0:0:0:0:
64,192,123673,1,2,0:0:0:0:
320,192,123673,128,4,124030:0:0:0:0:
192,192,123851,1,0,0:0:0:0:
64,192,124030,1,0,0:0:0:0:
320,192,124208,1,0,0:0:0:0:
448,192,124387,128,4,124744:0:0:0:0:
64,192,124387,1,2,0:0:0:0:
320,192,124565,1,0,0:0:0:0:
64,192,124744,1,0,0:0:0:0:
320,192,124923,128,0,125101:0:0:0:0:
192,192,124923,1,0,0:0:0:0:
448,192,125101,1,4,0:0:0:0:
64,192,125101,1,2,0:0:0:0:
320,192,125280,128,0,125458:0:0:0:0:
192,192,125458,1,4,0:0:0:0:
64,192,125458,1,2,0:0:0:0:
448,192,125458,1,0,0:0:0:0:
192,192,125637,128,0,125815:0:0:0:0:
64,192,125815,1,4,0:0:0:0:
448,192,125815,1,0,0:0:0:0:
320,192,125815,1,2,0:0:0:0:
64,192,126173,1,4,0:0:0:0:
320,192,126173,1,2,0:0:0:0:
448,192,126173,1,0,0:0:0:0:
192,192,126530,1,4,0:0:0:0:
448,192,126530,1,2,0:0:0:0:
64,192,126530,1,0,0:0:0:0:
448,192,126708,1,0,0:0:0:0:
64,192,126887,1,8,0:0:0:0:
320,192,126887,1,0,0:0:0:0:
192,192,126887,128,0,127244:0:0:0:0:
448,192,127065,1,0,0:0:0:0:
64,192,127244,1,2,0:0:0:0:
448,192,127423,1,0,0:0:0:0:
320,192,127601,1,8,0:0:0:0:
64,192,127601,128,0,127958:0:0:0:0:
192,192,127601,1,0,0:0:0:0:
448,192,127780,1,2,0:0:0:0:
192,192,127958,1,2,0:0:0:0:
320,192,127958,1,0,0:0:0:0:
64,192,128137,1,0,0:0:0:0:
320,192,128315,1,8,0:0:0:0:
192,192,128315,1,0,0:0:0:0:
448,192,128315,128,0,128673:0:0:0:0:
64,192,128494,1,0,0:0:0:0:
192,192,128673,1,2,0:0:0:0:
64,192,128851,1,0,0:0:0:0:
192,192,129030,1,8,0:0:0:0:
320,192,129030,1,0,0:0:0:0:
64,192,129030,128,0,129208:0:0:0:0:
192,192,129208,128,0,129387:0:0:0:0:
448,192,129387,128,2,129744:0:0:0:0:
320,192,129387,1,0,0:0:0:0:
320,192,129565,1,2,0:0:0:0:
192,192,129655,1,2,0:0:0:0:
64,192,129744,128,2,130101:0:0:0:0:
192,192,129923,1,2,0:0:0:0:
320,192,130012,1,2,0:0:0:0:
448,192,130101,128,2,130458:0:0:0:0:
320,192,130280,1,2,0:0:0:0:
192,192,130369,1,2,0:0:0:0:
64,192,130458,128,2,130815:0:0:0:0:
192,192,130637,1,2,0:0:0:0:
320,192,130726,1,2,0:0:0:0:
448,192,130815,128,2,130994:0:0:0:0:
64,192,130994,128,0,131173:0:0:0:0:
320,192,130994,1,0,0:0:0:0:
192,192,131173,128,2,131351:0:0:0:0:
320,192,131173,1,0,0:0:0:0:
64,192,131351,128,0,131530:0:0:0:0:
448,192,131351,1,0,0:0:0:0:
448,192,131530,1,2,0:0:0:0:
320,192,131530,1,0,0:0:0:0:
192,192,131530,1,4,0:0:0:0:
448,192,131708,1,2,0:0:0:0:
64,192,131708,1,0,0:0:0:0:
64,192,131887,1,4,0:0:0:0:
448,192,131887,1,0,0:0:0:0:
320,192,131887,1,2,0:0:0:0:
192,192,131887,1,0,0:0:0:0:
64,192,132244,1,2,0:0:0:0:
192,192,132244,1,0,0:0:0:0:
320,192,132244,1,4,0:0:0:0:
448,192,132422,1,0,0:0:0:0:
320,192,132512,1,0,0:0:0:0:
192,192,132601,1,8,0:0:0:0:
64,192,132601,1,0,0:0:0:0:
64,192,132780,1,0,0:0:0:0:
448,192,132869,1,0,0:0:0:0:
320,192,132958,1,2,0:0:0:0:
64,192,132958,1,0,0:0:0:0:
64,192,133137,1,0,0:0:0:0:
192,192,133226,1,0,0:0:0:0:
320,192,133315,1,8,0:0:0:0:
448,192,133315,1,0,0:0:0:0:
448,192,133494,1,0,0:0:0:0:
192,192,133583,1,0,0:0:0:0:
64,192,133672,1,2,0:0:0:0:
320,192,133672,1,0,0:0:0:0:
320,192,133851,1,0,0:0:0:0:
192,192,134030,1,8,0:0:0:0:
448,192,134030,1,0,0:0:0:0:
64,192,134030,128,0,134208:0:0:0:0:
448,192,134208,1,0,0:0:0:0:
320,192,134208,128,0,134387:0:0:0:0:
64,192,134387,1,2,0:0:0:0:
448,192,134387,128,0,134565:0:0:0:0:
320,192,134565,1,0,0:0:0:0:
192,192,134655,1,0,0:0:0:0:
448,192,134744,1,8,0:0:0:0:
64,192,134744,128,0,134922:0:0:0:0:
320,192,134744,1,0,0:0:0:0:
320,192,134922,128,0,135101:0:0:0:0:
64,192,135101,1,2,0:0:0:0:
192,192,135101,128,0,135280:0:0:0:0:
448,192,135280,1,0,0:0:0:0:
320,192,135369,1,0,0:0:0:0:
448,192,135458,1,8,0:0:0:0:
64,192,135458,1,0,0:0:0:0:
192,192,135458,1,0,0:0:0:0:
192,192,135637,1,0,0:0:0:0:
320,192,135815,1,2,0:0:0:0:
448,192,135815,1,0,0:0:0:0:
64,192,135815,128,0,136172:0:0:0:0:
320,192,135994,1,0,0:0:0:0:
192,192,136172,1,8,0:0:0:0:
320,192,136172,1,0,0:0:0:0:
448,192,136172,128,0,136530:0:0:0:0:
192,192,136351,1,8,0:0:0:0:
64,192,136440,1,8,0:0:0:0:
192,192,136530,1,2,0:0:0:0:
320,192,136530,128,0,137244:0:0:0:0:
64,192,136708,1,0,0:0:0:0:
448,192,136887,1,8,0:0:0:0:
192,192,136976,1,8,0:0:0:0:
64,192,137065,1,8,0:0:0:0:
192,192,137155,1,8,0:0:0:0:
448,192,137244,1,4,0:0:0:0:
64,192,137244,1,2,0:0:0:0:
64,192,137422,1,0,0:0:0:0:
192,192,137512,1,0,0:0:0:0:
64,192,137601,1,8,0:0:0:0:
448,192,137601,1,0,0:0:0:0:
320,192,137780,1,0,0:0:0:0:
448,192,137869,1,0,0:0:0:0:
192,192,137958,1,2,0:0:0:0:
64,192,137958,1,0,0:0:0:0:
64,192,138137,1,0,0:0:0:0:
448,192,138226,1,0,0:0:0:0:
192,192,138315,1,8,0:0:0:0:
320,192,138315,1,0,0:0:0:0:
320,192,138494,1,0,0:0:0:0:
64,192,138583,1,0,0:0:0:0:
448,192,138672,1,2,0:0:0:0:
192,192,138672,1,0,0:0:0:0:
320,192,138851,1,0,0:0:0:0:
192,192,138940,1,0,0:0:0:0:
64,192,139030,1,8,0:0:0:0:
448,192,139030,1,0,0:0:0:0:
448,192,139208,1,0,0:0:0:0:
320,192,139297,1,0,0:0:0:0:
192,192,139387,1,2,0:0:0:0:
64,192,139387,1,0,0:0:0:0:
320,192,139565,1,0,0:0:0:0:
64,192,139744,1,8,0:0:0:0:
448,192,139744,1,0,0:0:0:0:
192,192,139744,128,0,139922:0:0:0:0:
448,192,139922,1,0,0:0:0:0:
320,192,139922,128,0,140101:0:0:0:0:
64,192,140101,1,2,0:0:0:0:
192,192,140101,128,0,140280:0:0:0:0:
448,192,140280,1,0,0:0:0:0:
320,192,140369,1,0,0:0:0:0:
448,192,140458,1,8,0:0:0:0:
64,192,140458,1,0,0:0:0:0:
192,192,140458,128,0,140637:0:0:0:0:
320,192,140637,128,0,140815:0:0:0:0:
64,192,140815,1,2,0:0:0:0:
448,192,140815,1,0,0:0:0:0:
192,192,140815,128,0,140994:0:0:0:0:
320,192,140994,1,0,0:0:0:0:
64,192,141083,1,0,0:0:0:0:
448,192,141172,1,8,0:0:0:0:
192,192,141172,128,0,141351:0:0:0:0:
64,192,141351,1,0,0:0:0:0:
320,192,141351,128,0,141530:0:0:0:0:
192,192,141530,1,2,0:0:0:0:
448,192,141530,128,0,141708:0:0:0:0:
320,192,141708,1,0,0:0:0:0:
64,192,141708,128,0,141887:0:0:0:0:
448,192,141887,1,8,0:0:0:0:
192,192,141887,128,0,142065:0:0:0:0:
320,192,142065,1,8,0:0:0:0:
448,192,142065,128,0,142244:0:0:0:0:
192,192,142155,1,8,0:0:0:0:
64,192,142244,128,2,142958:0:0:0:0:
320,192,142244,1,0,0:0:0:0:
320,192,142422,1,0,0:0:0:0:
320,192,142601,1,8,0:0:0:0:
448,192,142601,1,0,0:0:0:0:
192,192,142690,1,8,0:0:0:0:
448,192,142780,1,8,0:0:0:0:
192,192,142869,1,8,0:0:0:0:
320,192,142958,1,2,0:0:0:0:
448,192,142958,1,4,0:0:0:0:
64,192,143137,1,0,0:0:0:0:
320,192,143315,1,8,0:0:0:0:
448,192,143315,1,0,0:0:0:0:
192,192,143315,1,0,0:0:0:0:
64,192,143494,1,0,0:0:0:0:
448,192,143494,1,0,0:0:0:0:
192,192,143672,1,2,0:0:0:0:
320,192,143672,1,0,0:0:0:0:
448,192,143851,1,0,0:0:0:0:
448,192,144030,1,8,0:0:0:0:
64,192,144030,1,0,0:0:0:0:
192,192,144030,1,0,0:0:0:0:
320,192,144208,1,0,0:0:0:0:
448,192,144208,1,0,0:0:0:0:
320,192,144387,1,2,0:0:0:0:
64,192,144387,1,0,0:0:0:0:
320,192,144565,1,0,0:0:0:0:
448,192,144565,1,0,0:0:0:0:
64,192,144744,1,8,0:0:0:0:
192,192,144744,1,0,0:0:0:0:
320,192,144744,1,0,0:0:0:0:
64,192,144922,1,0,0:0:0:0:
448,192,144922,1,0,0:0:0:0:
192,192,145101,1,2,0:0:0:0:
320,192,145101,1,0,0:0:0:0:
64,192,145280,1,0,0:0:0:0:
320,192,145280,1,0,0:0:0:0:
320,192,145458,1,8,0:0:0:0:
448,192,145458,1,0,0:0:0:0:
64,192,145458,1,0,0:0:0:0:
192,192,145637,1,0,0:0:0:0:
448,192,145815,1,2,0:0:0:0:
320,192,145815,1,0,0:0:0:0:
448,192,145994,1,0,0:0:0:0:
320,192,146083,1,0,0:0:0:0:
64,192,146172,1,8,0:0:0:0:
192,192,146172,1,0,0:0:0:0:
448,192,146172,1,0,0:0:0:0:
320,192,146351,1,0,0:0:0:0:
448,192,146440,1,0,0:0:0:0:
192,192,146530,1,2,0:0:0:0:
64,192,146530,1,0,0:0:0:0:
64,192,146708,1,0,0:0:0:0:
448,192,146708,1,0,0:0:0:0:
320,192,146797,1,0,0:0:0:0:
192,192,146887,1,8,0:0:0:0:
64,192,146887,128,0,147065:0:0:0:0:
448,192,146887,1,0,0:0:0:0:
192,192,147065,1,0,0:0:0:0:
448,192,147065,128,0,147244:0:0:0:0:
64,192,147244,1,2,0:0:0:0:
192,192,147244,128,0,147422:0:0:0:0:
448,192,147422,128,0,147601:0:0:0:0:
320,192,147422,1,0,0:0:0:0:
192,192,147601,1,8,0:0:0:0:
64,192,147601,128,0,147780:0:0:0:0:
320,192,147601,1,0,0:0:0:0:
320,192,147780,1,8,0:0:0:0:
448,192,147780,128,0,147958:0:0:0:0:
192,192,147869,1,8,0:0:0:0:
64,192,147958,128,2,148137:0:0:0:0:
320,192,148137,1,0,0:0:0:0:
448,192,148137,128,0,148315:0:0:0:0:
64,192,148315,1,8,0:0:0:0:
192,192,148315,128,0,148494:0:0:0:0:
320,192,148405,1,8,0:0:0:0:
448,192,148494,1,8,0:0:0:0:
320,192,148583,1,8,0:0:0:0:
64,192,148672,128,0,149030:0:0:0:0:
192,192,148672,1,4,0:0:0:0:
440,192,148672,1,2,0:0:0:0:
320,192,148851,1,0,0:0:0:0:
448,192,149030,1,8,0:0:0:0:
192,192,149030,128,0,149387:0:0:0:0:
320,192,149030,1,0,0:0:0:0:
64,192,149208,1,0,0:0:0:0:
320,192,149297,1,0,0:0:0:0:
64,192,149387,1,2,0:0:0:0:
448,192,149387,1,0,0:0:0:0:
320,192,149565,1,0,0:0:0:0:
192,192,149744,1,8,0:0:0:0:
64,192,149744,128,0,150101:0:0:0:0:
320,192,149744,1,0,0:0:0:0:
448,192,149922,1,0,0:0:0:0:
320,192,150012,1,0,0:0:0:0:
192,192,150101,1,2,0:0:0:0:
448,192,150101,1,0,0:0:0:0:
64,192,150280,1,0,0:0:0:0:
320,192,150280,1,0,0:0:0:0:
64,192,150458,128,8,150815:0:0:0:0:
448,192,150458,1,0,0:0:0:0:
320,192,150458,1,0,0:0:0:0:
192,192,150637,1,0,0:0:0:0:
320,192,150726,1,0,0:0:0:0:
192,192,150815,1,2,0:0:0:0:
448,192,150815,1,0,0:0:0:0:
64,192,150994,128,0,151172:0:0:0:0:
320,192,151172,128,8,151351:0:0:0:0:
448,192,151172,1,0,0:0:0:0:
192,192,151172,1,0,0:0:0:0:
448,192,151351,1,0,0:0:0:0:
192,192,151351,128,0,151530:0:0:0:0:
448,192,151530,128,2,151708:0:0:0:0:
64,192,151530,1,0,0:0:0:0:
320,192,151530,1,0,0:0:0:0:
320,192,151708,1,0,0:0:0:0:
192,192,151708,128,0,151797:0:0:0:0:
64,192,151797,128,0,151887:0:0:0:0:
192,192,151887,1,8,0:0:0:0:
320,192,151887,1,0,0:0:0:0:
448,192,151887,128,0,152065:0:0:0:0:
320,192,152065,128,0,152244:0:0:0:0:
192,192,152065,1,0,0:0:0:0:
192,192,152244,1,2,0:0:0:0:
448,192,152244,128,0,152422:0:0:0:0:
64,192,152244,1,0,0:0:0:0:
64,192,152422,1,0,0:0:0:0:
320,192,152422,128,0,152512:0:0:0:0:
192,192,152512,128,0,152601:0:0:0:0:
64,192,152601,128,8,152780:0:0:0:0:
448,192,152601,1,0,0:0:0:0:
320,192,152601,1,0,0:0:0:0:
320,192,152780,128,0,152958:0:0:0:0:
448,192,152780,1,0,0:0:0:0:
64,192,152958,128,2,153137:0:0:0:0:
192,192,152958,1,0,0:0:0:0:
448,192,152958,1,0,0:0:0:0:
192,192,153137,128,0,153315:0:0:0:0:
320,192,153137,1,0,0:0:0:0:
448,192,153137,1,0,0:0:0:0:
64,192,153315,1,8,0:0:0:0:
320,192,153315,128,0,153494:0:0:0:0:
448,192,153315,1,0,0:0:0:0:
64,192,153494,128,0,153672:0:0:0:0:
448,192,153494,1,8,0:0:0:0:
192,192,153583,1,8,0:0:0:0:
448,192,153672,128,2,154387:0:0:0:0:
64,192,153851,1,0,0:0:0:0:
192,192,154030,1,8,0:0:0:0:
320,192,154119,1,8,0:0:0:0:
192,192,154208,1,8,0:0:0:0:
320,192,154297,1,8,0:0:0:0:
64,176,154387,128,0,154744:0:0:0:0:
192,176,154744,128,0,155101:0:0:0:0:
448,176,155101,128,0,155458:0:0:0:0:
320,176,155458,128,0,155637:0:0:0:0:
64,176,155637,128,0,155815:0:0:0:0:
448,176,155815,128,0,155994:0:0:0:0:
192,176,155994,128,0,156172:0:0:0:0:
320,176,156172,128,0,156351:0:0:0:0:
64,176,156351,128,0,156530:0:0:0:0:
448,176,156530,128,0,156887:0:0:0:0:
64,176,156887,128,0,157065:0:0:0:0:
192,176,157065,128,0,157244:0:0:0:0:
320,176,157244,128,0,157422:0:0:0:0:
448,176,157422,128,0,157512:0:0:0:0:
192,176,157512,128,0,157601:0:0:0:0:
64,176,157601,128,0,157780:0:0:0:0:
192,176,157780,128,0,157958:0:0:0:0:
320,176,157958,128,0,158137:0:0:0:0:
448,176,158137,128,0,158226:0:0:0:0:
192,176,158226,128,0,158315:0:0:0:0:
64,176,158315,128,0,158494:0:0:0:0:
192,176,158494,128,0,158672:0:0:0:0:
448,176,158672,128,0,158851:0:0:0:0:
64,171,158851,128,0,159030:0:0:0:0:
448,176,159030,128,0,159387:0:0:0:0:
192,176,159387,128,0,160101:0:0:0:0:
64,176,160101,128,0,160458:0:0:0:0:
192,176,160458,128,0,160815:0:0:0:0:
320,176,160815,128,0,161172:0:0:0:0:
448,176,161172,128,0,161351:0:0:0:0:
192,176,161351,128,0,161530:0:0:0:0:
320,176,161530,128,0,161708:0:0:0:0:
64,176,161708,128,0,161887:0:0:0:0:
448,176,161887,128,0,162065:0:0:0:0:
192,176,162065,128,0,162244:0:0:0:0:
320,176,162244,128,0,162601:0:0:0:0:
64,176,162601,128,0,162780:0:0:0:0:
192,176,162780,128,0,162958:0:0:0:0:
320,176,162958,128,0,163137:0:0:0:0:
448,176,163137,128,0,163226:0:0:0:0:
320,176,163226,128,0,163315:0:0:0:0:
64,176,163315,128,0,163494:0:0:0:0:
192,176,163494,128,0,163672:0:0:0:0:
320,176,163672,128,0,163851:0:0:0:0:
448,176,163851,128,0,163940:0:0:0:0:
320,176,163940,128,0,164030:0:0:0:0:
64,176,164030,128,0,164208:0:0:0:0:
192,176,164208,128,0,164387:0:0:0:0:
320,176,164387,128,0,164565:0:0:0:0:
448,176,164565,128,0,164744:0:0:0:0:
192,176,164744,128,0,164922:0:0:0:0:
320,176,164922,128,0,165101:0:0:0:0:
64,185,165101,128,0,165815:0:0:0:0:
448,192,165280,1,0,0:0:0:0:
448,192,165458,1,0,0:0:0:0:
