osu file format v14

[General]
AudioFilename: GReeeeN - 6th Album.mp3
AudioLeadIn: 0
PreviewTime: 120340
Countdown: 0
SampleSet: Normal
StackLeniency: 0.7
Mode: 3
LetterboxInBreaks: 0
SpecialStyle: 0
WidescreenStoryboard: 0

[Editor]
DistanceSpacing: 0.8
BeatDivisor: 4
GridSize: 4
TimelineZoom: 1.5

[Metadata]
Title:Shinobi
TitleUnicode:忍
Artist:GReeeeN
ArtistUnicode:GReeeeN
Creator:ExUsagi
Version:4K Basic
Source:Teenage Mutant Ninja Turtles
Tags:TMNT 2012 Nickelodeon
BeatmapID:479481
BeatmapSetID:202755

[Difficulty]
HPDrainRate:6
CircleSize:4
OverallDifficulty:6
ApproachRate:5
SliderMultiplier:1.4
SliderTickRate:1

[Events]
//Background and Video events
0,0,"BG.png",0,0
//Break Periods
//Storyboard Layer 0 (Background)
//Storyboard Layer 1 (Fail)
//Storyboard Layer 2 (Pass)
//Storyboard Layer 3 (Foreground)
//Storyboard Sound Samples

[TimingPoints]
816,357.142857142857,4,1,1,50,1,0
47958,-111.111111111111,4,2,0,50,0,0
53673,-100,4,1,1,50,0,0
59387,-100,4,1,1,50,0,1
82244,-100,4,1,1,50,0,0
131530,357.142857142857,4,1,1,50,1,0
132244,-100,4,1,1,50,0,1
154387,-100,4,2,1,50,0,0

[HitObjects]
192,192,1530,5,4,0:0:0:0:
192,192,1887,1,4,0:0:0:0:
320,192,2244,1,6,0:0:0:0:
320,192,2958,1,6,0:0:0:0:
64,192,3494,1,6,0:0:0:0:
448,192,3673,1,6,0:0:0:0:
320,192,4387,1,6,0:0:0:0:
448,192,4744,1,6,0:0:0:0:
64,192,5101,128,6,5815:0:0:0:0:
448,192,5815,128,6,6530:0:0:0:0:
64,192,6530,1,6,0:0:0:0:
448,192,6887,1,6,0:0:0:0:
64,192,7244,1,6,0:0:0:0:
448,192,7601,1,6,0:0:0:0:
192,192,7958,1,6,0:0:0:0:
320,192,8315,1,8,0:0:0:0:
448,192,8673,1,2,0:0:0:0:
320,192,9030,1,8,0:0:0:0:
192,184,9387,1,2,0:0:0:0:
320,192,9744,1,8,0:0:0:0:
64,192,10101,1,2,0:0:0:0:
448,192,10458,1,8,0:0:0:0:
320,192,10815,1,2,0:0:0:0:
192,192,11173,1,2,0:0:0:0:
320,192,11530,1,2,0:0:0:0:
192,192,11887,1,2,0:0:0:0:
64,192,12244,1,2,0:0:0:0:
64,192,12601,1,2,0:0:0:0:
320,192,12958,1,2,0:0:0:0:
320,192,13315,1,8,0:0:0:0:
64,192,13673,1,6,0:0:0:0:
192,192,14030,1,8,0:0:0:0:
448,192,14387,1,2,0:0:0:0:
320,192,14744,1,8,0:0:0:0:
192,192,15101,1,2,0:0:0:0:
64,192,15458,1,8,0:0:0:0:
320,192,15815,1,2,0:0:0:0:
448,192,16173,1,8,0:0:0:0:
320,192,16530,1,2,0:0:0:0:
192,192,16887,1,8,0:0:0:0:
320,192,17244,1,2,0:0:0:0:
64,192,17601,1,8,0:0:0:0:
192,192,17958,1,2,0:0:0:0:
448,192,18315,1,8,0:0:0:0:
320,192,18673,128,2,19387:0:0:0:0:
64,192,19387,1,6,0:0:0:0:
192,192,19744,1,8,0:0:0:0:
448,192,20101,1,2,0:0:0:0:
320,192,20458,1,8,0:0:0:0:
64,192,20815,1,2,0:0:0:0:
320,192,21173,1,8,0:0:0:0:
448,192,21530,1,2,0:0:0:0:
192,192,21887,1,8,0:0:0:0:
64,192,22244,1,2,0:0:0:0:
448,192,22601,1,8,0:0:0:0:
64,192,22958,1,2,0:0:0:0:
320,192,23315,1,8,0:0:0:0:
192,192,23673,1,2,0:0:0:0:
448,192,24030,1,8,0:0:0:0:
64,192,24387,128,2,25101:0:0:0:0:
448,192,25101,1,6,0:0:0:0:
192,192,25458,1,8,0:0:0:0:
64,192,25815,1,2,0:0:0:0:
192,192,26173,1,8,0:0:0:0:
448,192,26530,1,2,0:0:0:0:
192,192,26887,1,8,0:0:0:0:
64,192,27244,1,2,0:0:0:0:
320,192,27601,1,8,0:0:0:0:
64,192,27958,1,2,0:0:0:0:
320,192,28315,1,8,0:0:0:0:
192,192,28673,1,2,0:0:0:0:
448,192,29030,1,8,0:0:0:0:
320,192,29387,1,6,0:0:0:0:
192,192,29744,1,10,0:0:0:0:
320,192,30101,1,6,0:0:0:0:
192,192,30458,1,14,0:0:0:0:
64,192,30815,1,6,0:0:0:0:
320,192,31173,1,8,0:0:0:0:
64,192,31530,1,2,0:0:0:0:
320,192,31887,1,8,0:0:0:0:
192,192,32244,1,2,0:0:0:0:
448,192,32601,1,8,0:0:0:0:
192,192,32958,1,2,0:0:0:0:
448,192,33315,1,8,0:0:0:0:
320,192,33494,1,0,0:0:0:0:
192,192,33673,1,2,0:0:0:0:
64,192,34030,1,8,0:0:0:0:
192,192,34208,1,0,0:0:0:0:
320,192,34387,1,2,0:0:0:0:
64,192,34744,1,8,0:0:0:0:
448,192,35101,1,2,0:0:0:0:
320,192,35458,1,8,0:0:0:0:
192,192,35815,1,2,0:0:0:0:
320,192,36173,1,8,0:0:0:0:
64,192,36530,1,6,0:0:0:0:
64,192,36887,1,2,0:0:0:0:
192,192,37244,1,2,0:0:0:0:
320,192,37423,128,2,37958:0:0:0:0:
448,192,37958,1,2,0:0:0:0:
448,192,38315,1,2,0:0:0:0:
192,192,38673,1,2,0:0:0:0:
320,192,38851,128,2,39387:0:0:0:0:
448,192,39387,1,2,0:0:0:0:
64,192,39744,1,2,0:0:0:0:
448,192,40101,1,2,0:0:0:0:
64,192,40458,1,2,0:0:0:0:
192,192,40815,1,6,0:0:0:0:
192,192,41173,1,6,0:0:0:0:
192,192,41530,1,6,0:0:0:0:
448,192,41887,1,8,0:0:0:0:
64,192,42244,1,2,0:0:0:0:
192,192,42601,1,8,0:0:0:0:
64,192,42958,1,2,0:0:0:0:
320,192,43315,1,8,0:0:0:0:
192,192,43673,1,2,0:0:0:0:
448,192,44030,1,8,0:0:0:0:
320,192,44387,1,2,0:0:0:0:
192,192,44744,1,8,0:0:0:0:
64,192,45101,1,6,0:0:0:0:
64,192,45637,1,2,0:0:0:0:
320,192,45815,1,6,0:0:0:0:
192,192,46351,1,2,0:0:0:0:
448,192,46530,1,6,0:0:0:0:
64,192,46798,1,2,0:0:0:0:
448,192,47065,1,2,0:0:0:0:
64,192,47244,1,2,0:0:0:0:
64,192,47958,128,6,49387:0:0:0:0:
448,192,47958,1,0,0:0:0:0:
448,192,49387,128,2,50101:0:0:0:0:
192,192,50101,1,2,0:0:0:0:
448,192,50458,1,2,0:0:0:0:
192,192,50815,128,2,51530:0:0:0:0:
320,192,51530,128,2,52244:0:0:0:0:
192,192,52244,128,6,53315:0:0:0:0:
448,192,53673,1,6,0:0:0:0:
64,192,54030,128,2,54387:0:0:0:0:
448,192,54387,1,2,0:0:0:0:
192,192,54744,128,2,55101:0:0:0:0:
320,192,55101,1,2,0:0:0:0:
448,192,55458,128,2,55815:0:0:0:0:
64,192,55815,1,2,0:0:0:0:
320,192,56173,128,2,56530:0:0:0:0:
192,192,56530,128,6,57244:0:0:0:0:
448,192,57780,128,6,58137:0:0:0:0:
320,192,58137,1,2,0:0:0:0:
192,192,58315,1,2,0:0:0:0:
64,192,58494,1,2,0:0:0:0:
448,192,58673,128,6,59030:0:0:0:0:
320,192,59030,1,8,0:0:0:0:
64,192,59387,1,6,0:0:0:0:
192,192,59744,1,8,0:0:0:0:
320,192,60101,1,2,0:0:0:0:
320,192,60458,1,8,0:0:0:0:
192,192,60815,1,2,0:0:0:0:
64,192,61173,1,8,0:0:0:0:
192,192,61351,1,0,0:0:0:0:
448,192,61530,128,2,61887:0:0:0:0:
192,192,61887,1,8,0:0:0:0:
64,192,62244,1,2,0:0:0:0:
320,192,62601,1,8,0:0:0:0:
448,192,62958,1,2,0:0:0:0:
192,192,63315,1,8,0:0:0:0:
64,192,63673,1,2,0:0:0:0:
448,192,64030,1,8,0:0:0:0:
64,192,64387,128,2,65101:0:0:0:0:
448,192,65101,1,6,0:0:0:0:
64,192,65458,1,8,0:0:0:0:
192,192,65815,1,2,0:0:0:0:
448,192,66173,1,8,0:0:0:0:
320,192,66530,1,2,0:0:0:0:
448,192,66887,1,8,0:0:0:0:
64,192,67065,1,0,0:0:0:0:
448,192,67244,1,2,0:0:0:0:
64,192,67601,1,8,0:0:0:0:
192,192,67780,1,0,0:0:0:0:
320,192,67958,1,2,0:0:0:0:
448,192,68315,1,8,0:0:0:0:
320,192,68494,1,0,0:0:0:0:
192,192,68673,1,2,0:0:0:0:
448,192,69030,1,8,0:0:0:0:
64,192,69387,1,2,0:0:0:0:
192,192,69744,1,8,0:0:0:0:
320,192,69923,1,0,0:0:0:0:
448,192,70101,128,2,70815:0:0:0:0:
192,192,70815,1,6,0:0:0:0:
320,192,71173,1,8,0:0:0:0:
448,192,71530,1,2,0:0:0:0:
320,192,71887,1,8,0:0:0:0:
192,192,72244,1,2,0:0:0:0:
64,192,72601,1,8,0:0:0:0:
192,192,72780,1,0,0:0:0:0:
320,192,72958,128,2,73315:0:0:0:0:
448,192,73315,1,8,0:0:0:0:
64,192,73673,1,2,0:0:0:0:
192,192,74030,1,8,0:0:0:0:
320,192,74387,1,2,0:0:0:0:
448,192,74744,1,8,0:0:0:0:
64,192,75101,1,2,0:0:0:0:
448,192,75458,1,8,0:0:0:0:
320,192,75815,1,2,0:0:0:0:
192,192,75994,1,0,0:0:0:0:
64,192,76173,1,8,0:0:0:0:
192,192,76530,1,6,0:0:0:0:
320,192,76887,1,8,0:0:0:0:
448,192,77244,1,2,0:0:0:0:
320,192,77601,1,8,0:0:0:0:
64,192,77958,1,2,0:0:0:0:
320,192,78315,1,8,0:0:0:0:
192,192,78494,1,0,0:0:0:0:
320,192,78673,1,2,0:0:0:0:
448,192,79030,1,8,0:0:0:0:
320,192,79208,1,0,0:0:0:0:
192,192,79387,1,2,0:0:0:0:
64,192,79744,1,8,0:0:0:0:
192,192,79923,1,0,0:0:0:0:
320,192,80101,1,2,0:0:0:0:
448,192,80458,1,8,0:0:0:0:
320,192,80815,1,2,0:0:0:0:
64,192,80994,1,0,0:0:0:0:
320,192,81173,1,8,0:0:0:0:
64,192,81351,1,0,0:0:0:0:
448,192,81530,128,2,82244:0:0:0:0:
64,192,82244,1,2,0:0:0:0:
448,192,83494,1,2,0:0:0:0:
64,192,83673,1,2,0:0:0:0:
192,192,84923,1,2,0:0:0:0:
320,192,85101,1,2,0:0:0:0:
64,192,86351,1,2,0:0:0:0:
448,192,86530,1,6,0:0:0:0:
320,192,86887,1,6,0:0:0:0:
320,192,87244,1,6,0:0:0:0:
320,192,87601,1,6,0:0:0:0:
448,192,87958,1,6,0:0:0:0:
320,192,88315,1,2,0:0:0:0:
64,192,88673,1,2,0:0:0:0:
192,192,89030,1,2,0:0:0:0:
448,192,89208,1,2,0:0:0:0:
64,192,89387,1,2,0:0:0:0:
320,192,89744,1,2,0:0:0:0:
192,192,90101,1,2,0:0:0:0:
320,192,90458,1,2,0:0:0:0:
64,192,90637,1,2,0:0:0:0:
448,192,90815,1,2,0:0:0:0:
448,192,91173,1,2,0:0:0:0:
320,192,91530,1,2,0:0:0:0:
192,192,91887,1,2,0:0:0:0:
320,192,92065,1,2,0:0:0:0:
448,192,92244,1,6,0:0:0:0:
64,192,92601,1,6,0:0:0:0:
448,192,92958,1,6,0:0:0:0:
64,192,93315,1,6,0:0:0:0:
320,192,93673,1,6,0:0:0:0:
192,192,94030,1,6,0:0:0:0:
320,192,94387,1,6,0:0:0:0:
192,192,94744,1,6,0:0:0:0:
320,192,95101,1,6,0:0:0:0:
192,192,95280,1,6,0:0:0:0:
320,192,95458,1,6,0:0:0:0:
192,192,95637,1,6,0:0:0:0:
448,192,95815,1,6,0:0:0:0:
64,192,95994,1,6,0:0:0:0:
448,192,96173,1,6,0:0:0:0:
64,192,96351,1,6,0:0:0:0:
320,192,96530,1,0,0:0:0:0:
320,192,97958,128,4,99387:0:0:0:0:
448,192,97958,1,2,0:0:0:0:
192,192,99387,128,0,100815:0:0:0:0:
64,192,100815,128,0,102244:0:0:0:0:
448,192,102244,128,0,103673:0:0:0:0:
64,192,103673,128,0,105101:0:0:0:0:
320,192,105101,128,0,106530:0:0:0:0:
448,192,106530,1,0,0:0:0:0:
192,192,109387,128,4,110815:0:0:0:0:
64,192,109387,1,2,0:0:0:0:
320,192,110815,128,0,112244:0:0:0:0:
64,192,112244,128,0,113673:0:0:0:0:
448,192,113673,128,0,115101:0:0:0:0:
192,192,115101,128,0,116530:0:0:0:0:
448,192,116530,128,0,117958:0:0:0:0:
320,192,117958,128,0,120815:0:0:0:0:
64,192,120815,1,6,0:0:0:0:
192,192,121530,1,6,0:0:0:0:
320,192,122065,1,6,0:0:0:0:
448,192,122244,1,6,0:0:0:0:
64,192,122958,1,6,0:0:0:0:
448,192,123315,1,6,0:0:0:0:
64,192,123673,1,2,0:0:0:0:
192,192,123673,1,4,0:0:0:0:
448,192,124387,1,2,0:0:0:0:
320,192,124387,1,4,0:0:0:0:
64,192,125101,1,6,0:0:0:0:
448,192,125458,1,6,0:0:0:0:
64,192,125815,1,6,0:0:0:0:
448,192,126173,1,6,0:0:0:0:
64,192,126530,1,6,0:0:0:0:
192,192,126887,1,8,0:0:0:0:
448,192,127244,1,2,0:0:0:0:
320,192,127601,1,8,0:0:0:0:
192,192,127958,1,2,0:0:0:0:
64,192,128315,1,8,0:0:0:0:
320,192,128673,1,2,0:0:0:0:
448,192,129030,1,8,0:0:0:0:
192,192,129387,1,2,0:0:0:0:
64,192,129744,1,2,0:0:0:0:
192,192,130101,1,2,0:0:0:0:
64,192,130458,1,2,0:0:0:0:
448,192,130815,1,2,0:0:0:0:
64,192,131173,128,2,131530:0:0:0:0:
320,192,131530,1,6,0:0:0:0:
320,192,131887,1,6,0:0:0:0:
448,192,132244,1,6,0:0:0:0:
320,192,132601,1,8,0:0:0:0:
192,192,132958,1,2,0:0:0:0:
320,192,133315,1,8,0:0:0:0:
64,192,133494,1,0,0:0:0:0:
448,192,133672,128,2,134030:0:0:0:0:
192,192,134030,1,8,0:0:0:0:
64,192,134387,1,2,0:0:0:0:
320,192,134744,1,8,0:0:0:0:
448,192,135101,1,2,0:0:0:0:
192,192,135458,1,8,0:0:0:0:
320,192,135815,1,2,0:0:0:0:
448,192,136172,128,8,136530:0:0:0:0:
192,192,136530,128,2,136887:0:0:0:0:
64,192,136887,128,8,137244:0:0:0:0:
448,192,137244,1,6,0:0:0:0:
320,192,137601,1,8,0:0:0:0:
192,192,137958,1,2,0:0:0:0:
320,192,138315,1,8,0:0:0:0:
448,192,138672,1,2,0:0:0:0:
320,192,139030,1,8,0:0:0:0:
64,192,139208,1,0,0:0:0:0:
448,192,139387,1,2,0:0:0:0:
192,192,139744,1,8,0:0:0:0:
448,192,139922,1,0,0:0:0:0:
192,192,140101,1,2,0:0:0:0:
320,192,140458,1,8,0:0:0:0:
64,192,140637,1,0,0:0:0:0:
320,192,140815,1,2,0:0:0:0:
192,192,141172,1,8,0:0:0:0:
448,192,141530,1,2,0:0:0:0:
192,192,141708,1,0,0:0:0:0:
320,192,141887,1,8,0:0:0:0:
64,192,142065,1,0,0:0:0:0:
448,192,142244,128,2,142958:0:0:0:0:
64,192,142958,5,6,0:0:0:0:
192,192,143315,1,8,0:0:0:0:
448,192,143672,1,2,0:0:0:0:
320,192,144030,1,8,0:0:0:0:
192,192,144387,1,2,0:0:0:0:
320,192,144744,1,8,0:0:0:0:
64,192,144922,1,0,0:0:0:0:
192,192,145101,128,2,145458:0:0:0:0:
448,192,145458,1,8,0:0:0:0:
320,192,145815,1,2,0:0:0:0:
448,192,146172,1,8,0:0:0:0:
64,192,146530,1,2,0:0:0:0:
192,192,146887,1,8,0:0:0:0:
448,192,147065,1,0,0:0:0:0:
64,192,147244,1,2,0:0:0:0:
448,192,147422,1,0,0:0:0:0:
64,192,147601,1,8,0:0:0:0:
320,192,147780,1,0,0:0:0:0:
192,192,147958,1,2,0:0:0:0:
448,192,148137,1,0,0:0:0:0:
64,192,148315,1,8,0:0:0:0:
448,192,148672,1,6,0:0:0:0:
192,192,149030,1,8,0:0:0:0:
448,192,149387,1,2,0:0:0:0:
192,192,149744,1,8,0:0:0:0:
64,192,150101,1,2,0:0:0:0:
192,192,150458,1,8,0:0:0:0:
320,192,150637,1,0,0:0:0:0:
448,192,150815,1,2,0:0:0:0:
192,192,151172,1,8,0:0:0:0:
320,192,151351,1,0,0:0:0:0:
192,192,151530,1,2,0:0:0:0:
64,192,151887,1,8,0:0:0:0:
448,192,152065,1,0,0:0:0:0:
64,192,152244,1,2,0:0:0:0:
192,192,152601,1,8,0:0:0:0:
64,192,152780,1,0,0:0:0:0:
320,192,152958,1,2,0:0:0:0:
192,192,153137,1,0,0:0:0:0:
448,192,153315,1,8,0:0:0:0:
320,192,153494,1,0,0:0:0:0:
448,192,153672,128,2,154387:0:0:0:0:
64,192,154387,1,0,0:0:0:0:
192,192,154744,1,0,0:0:0:0:
320,192,155101,1,0,0:0:0:0:
64,192,155458,1,0,0:0:0:0:
192,192,155815,1,0,0:0:0:0:
320,192,156172,1,0,0:0:0:0:
448,192,156530,1,0,0:0:0:0:
192,192,156887,1,0,0:0:0:0:
448,192,157244,1,0,0:0:0:0:
64,192,157601,1,0,0:0:0:0:
448,192,157958,1,0,0:0:0:0:
64,192,158315,1,0,0:0:0:0:
192,192,158672,1,0,0:0:0:0:
448,192,159030,1,0,0:0:0:0:
320,192,159387,1,0,0:0:0:0:
64,192,160101,1,0,0:0:0:0:
192,192,160458,1,0,0:0:0:0:
320,192,160815,1,0,0:0:0:0:
64,192,161172,1,0,0:0:0:0:
192,192,161530,1,0,0:0:0:0:
320,192,161887,1,0,0:0:0:0:
448,192,162244,1,0,0:0:0:0:
192,192,162601,1,0,0:0:0:0:
448,192,162958,1,0,0:0:0:0:
64,192,163315,1,0,0:0:0:0:
448,192,163672,1,0,0:0:0:0:
64,192,164030,1,0,0:0:0:0:
192,192,164387,1,0,0:0:0:0:
320,192,164744,1,0,0:0:0:0:
448,192,165101,128,0,165815:0:0:0:0:
