osu file format v5

[General]
AudioFilename: 01 - ai uta.mp3
AudioLeadIn: 0
PreviewTime: 49122
Countdown: 1
SampleSet: Normal
StackLeniency: 0.7
Mode: 0
LetterboxInBreaks: 1

[Metadata]
Title:Ai Uta
Artist:GReeeeN
Creator:peppy
Version:Easy
Source:
Tags:

[Difficulty]
HPDrainRate:5
CircleSize:3
OverallDifficulty:4
SliderMultiplier:1.4
SliderTickRate:1

[Events]
//Background and Video events
0,0,"aiuta.jpg"
1,0,"aiuta.avi"
//Break Periods
2,35192,45440
2,72253,82147
2,104725,118855
2,142877,152771
2,210612,220506
//Storyboard Layer 0 (Background)
//Storyboard Layer 1 (Failing)
//Storyboard Layer 2 (Passing)
//Storyboard Layer 3 (Foreground)
//Storyboard Sound Samples
//Background Colour Transformations
3,100,0,0,0

[TimingPoints]
1475,705.882352941176,4,1,0,100,1

[Colours]
Combo1 : 171,219,81
Combo2 : 171,3,108
Combo3 : 124,165,48
Combo4 : 215,55,147

[HitObjects]
64,96,12769,1,0
160,96,13474,1,0
256,96,14180,1,2
416,224,15592,5,0
320,224,16298,1,0
224,224,17004,1,2
320,96,18416,5,0
320,192,19122,1,0
224,192,19827,1,0
224,96,20533,1,0
320,96,21239,1,2
320,192,21945,1,2
320,288,22651,1,2
224,288,23357,1,0
224,192,24063,5,4
320,128,24769,1,0
224,64,25474,1,0
128,32,26180,1,0
128,128,26886,1,4
224,192,27592,1,0
320,256,28298,1,0
416,288,29004,1,0
256,320,29710,5,4
160,320,30416,1,0
160,224,31122,1,4
160,128,31827,1,0
256,128,32533,1,2
352,128,33239,1,2
352,224,33945,1,2
256,224,34651,1,0
256,224,35004,1,0
64,32,46651,5,0
160,32,47357,1,0
256,32,48063,1,0
352,32,48769,1,0
320,160,49474,5,4
192,160,50180,1,0
192,256,50886,1,0
320,256,51592,1,0
320,160,52298,1,4
192,160,53004,1,0
256,96,53710,5,2
256,96,54416,1,2
192,160,55122,5,4
320,160,55827,1,0
320,256,56533,1,0
192,256,57239,1,0
192,352,57945,1,2
320,352,58651,1,2
256,256,59357,1,6
416,192,60769,5,0
384,96,61474,1,0
320,192,62180,1,0
288,96,62886,1,0
224,192,63592,1,2
192,96,64298,1,0
128,192,65004,1,2
96,96,65710,1,0
192,96,66416,5,0
288,96,67122,1,0
384,96,67827,1,0
384,192,68533,1,0
288,192,69239,1,0
192,192,69945,1,0
96,192,70651,1,0
96,96,71357,1,0
96,96,71710,1,0
96,96,72063,1,4
64,64,83357,5,0
160,64,84063,1,0
256,64,84769,1,0
416,192,86180,5,0
320,192,86886,1,0
224,192,87592,1,0
64,320,89004,5,0
160,320,89710,1,0
128,224,90416,1,0
224,224,91122,1,0
192,128,91827,5,2
288,128,92533,1,2
241,214,93239,1,2
96,96,94651,5,4
192,96,95357,1,0
288,96,96063,1,0
288,96,96416,1,0
288,96,96769,1,0
320,192,97475,5,4
224,192,98180,1,0
128,192,98886,1,0
128,192,99239,1,0
128,192,99592,1,0
224,256,100298,5,4
288,192,101004,1,0
352,128,101710,1,4
416,64,102416,1,0
320,64,103122,1,2
256,64,103475,1,0
192,64,103827,1,2
128,64,104180,1,2
128,64,104533,1,2
416,96,120063,5,4
416,192,120769,1,0
320,192,121475,1,0
320,96,122180,1,0
224,96,122886,1,0
224,192,123592,1,0
313,152,124298,1,2
313,152,124651,1,2
313,152,125004,1,2
128,96,125710,5,4
128,192,126416,1,0
224,192,127122,1,0
224,96,127827,1,0
320,96,128533,1,0
320,192,129239,1,0
236,141,129945,1,0
236,141,130298,1,0
236,141,130651,1,0
320,32,131357,5,4
224,32,132063,1,0
224,128,132769,1,0
320,128,133474,1,0
320,224,134180,1,0
224,224,134886,1,0
275,140,135592,1,2
275,140,135945,1,2
275,140,136298,1,2
320,288,137004,5,4
416,288,137710,1,0
416,192,138416,1,0
320,192,139122,1,0
320,288,139827,1,2
416,288,140533,1,0
416,192,141239,1,2
416,96,141945,1,2
320,96,142651,1,6
68,96,153945,5,0
188,96,154651,1,0
308,96,155357,1,2
308,96,155710,1,0
308,96,156063,1,2
428,216,156769,5,0
308,216,157475,1,0
188,216,158180,1,2
188,216,158533,1,2
188,216,158886,1,2
96,96,159592,5,0
96,256,160298,1,0
256,256,161004,1,0
256,96,161710,1,0
416,96,162416,1,4
416,256,163122,1,0
256,256,163827,1,4
256,96,164533,1,0
384,96,165239,5,4
384,288,166651,1,0
256,160,168063,1,4
256,352,169475,1,0
128,192,170886,5,4
256,64,172298,1,0
384,192,173710,1,4
288,192,174416,1,0
192,192,175122,1,2
192,192,175475,1,2
192,192,175827,1,2
96,160,176533,5,6
160,64,177239,1,0
192,160,177945,1,0
256,64,178651,1,0
288,160,179357,1,0
352,64,180063,1,0
384,160,180769,1,2
384,160,181122,1,0
384,160,181475,1,2
448,224,182180,5,4
416,320,182886,1,0
352,224,183592,1,0
320,320,184298,1,0
256,224,185004,1,0
224,320,185710,1,0
160,224,186416,1,2
160,224,186769,1,2
160,224,187122,1,2
64,96,187827,5,4
160,96,188533,1,0
160,192,189239,1,0
64,192,189945,1,0
64,288,190651,1,0
160,288,191357,1,0
256,288,192063,1,0
256,288,192416,1,0
256,288,192769,1,0
448,288,193475,5,2
416,288,193827,1,0
384,288,194180,1,0
352,288,194533,1,0
320,288,194886,1,2
288,288,195239,1,0
256,288,195592,1,2
160,224,196298,5,2
192,224,196651,1,0
224,224,197004,1,0
256,224,197357,1,0
288,224,197710,1,2
320,224,198063,1,0
352,224,198416,1,2
352,128,199122,5,4
288,64,199827,1,0
224,128,200533,1,0
160,64,201239,1,0
96,128,201945,1,2
160,192,202651,1,0
248,156,203357,1,2
248,156,203710,1,0
248,156,204063,1,2
320,64,204769,5,4
192,64,205475,1,0
192,192,206180,1,4
320,192,206886,1,0
256,96,207592,1,4
256,192,208298,1,0
256,288,209004,1,4
352,288,209710,1,4
352,288,210063,1,0
352,192,210416,5,4
128,96,221710,5,4
256,96,223122,1,0
256,96,223475,1,0
384,96,224533,1,0
384,224,225945,1,0
384,224,226298,1,0
