osu file format v9

[General]
AudioFilename: The_Less_They_Know_(Instrumental).mp3
AudioLeadIn: 0
PreviewTime: 38973
Countdown: 0
SampleSet: Soft
StackLeniency: 0.7
Mode: 0
LetterboxInBreaks: 1

[Editor]
Bookmarks: 39067,51067,63067,88567,102067,114067,126067
DistanceSpacing: 1
BeatDivisor: 2
GridSize: 8

[Metadata]
Title:The Less They Know (Instrumental ver.)
Artist:GReeNOX
Creator:senaya
Version:Normal
Source:
Tags:InTernaL UnCeRTaintY winber1

[Difficulty]
HPDrainRate:3
CircleSize:3
OverallDifficulty:3
ApproachRate:3
SliderMultiplier:1.19999990463257
SliderTickRate:1

[Events]
//Background and Video events
0,0,"bg1.jpg"
//Break Periods
2,76771,87127
//Storyboard Layer 0 (Background)
//Storyboard Layer 1 (Fail)
//Storyboard Layer 2 (Pass)
//Storyboard Layer 3 (Foreground)
//Storyboard Sound Samples
//Background Colour Transformations
3,100,0,0,0

[TimingPoints]
71,375,4,2,1,80,1,0
39071,-100,4,2,1,80,0,1
39446,-100,4,2,1,80,0,0
41508,-100,4,2,2,80,0,0
41883,-100,4,2,1,80,0,0
47508,-100,4,2,2,80,0,0
47883,-100,4,2,1,80,0,0
51071,-100,4,2,1,80,0,1
51446,-100,4,2,1,80,0,0
63071,-100,4,2,1,80,0,1
63258,-100,4,2,2,80,0,1
63633,-100,4,2,1,80,0,1
75071,-100,4,2,1,80,0,0
75164,-100,4,2,1,20,0,0
88383,-200,4,2,1,80,0,0
90633,-200,4,2,0,80,0,0
91008,-200,4,2,1,80,0,0
96614,-200,4,2,0,80,0,0
97008,-200,4,2,1,80,0,0
100196,-200,4,2,1,20,0,0
101957,-100,4,1,1,80,0,0
102071,-100,4,1,1,80,0,1
102164,-100,4,2,1,80,0,1
102446,-100,4,2,1,80,0,0
104883,-100,4,2,1,80,0,0
107883,-100,4,1,0,80,0,0
108258,-100,4,2,1,80,0,0
114003,-100,4,2,1,80,0,0
114007,-100,4,1,1,80,0,1
114164,-100,4,2,1,80,0,1
114446,-100,4,2,1,80,0,0
119984,-100,4,1,0,80,0,0
120164,-100,4,2,1,80,0,0
125984,-100,4,1,0,80,0,1
126164,-100,4,2,1,80,0,1
126258,-100,4,2,2,80,0,1
126633,-100,4,2,1,80,0,1
137696,-100,4,2,1,80,0,0
137883,-100,4,2,1,20,0,0

[Colours]
Combo1 : 219,230,226
Combo2 : 75,103,102
Combo3 : 135,160,158

[HitObjects]
136,144,39071,2,0,B|208:112|272:136,1,119.999990463257,4|10
360,80,39821,1,0
376,200,40196,1,10
456,288,40571,2,0,B|376:328|296:304,1,119.999990463257,0|10
224,336,41321,6,0,B|112:248|112:112|232:24,1,359.999971389771,2|10
344,48,42821,1,0
464,32,43196,2,0,B|503:87|467:144,1,119.999990463257,10|4
466,144,43946,1,4
472,264,44321,1,6
392,352,44696,1,6
352,240,45071,6,0,B|314:194|242:202,1,119.999990463257,4|10
264,320,45821,1,0
160,256,46196,2,0,B|128:200|168:136,1,119.999990463257,10|0
264,72,46946,1,10
384,88,47321,6,0,B|456:216|360:328,1,239.999980926514,2|0
372,312,48446,1,10
256,320,48821,2,0,B|168:320|144:216,2,119.999990463257,0|10|4
280,200,49946,2,0,B|193:183|189:76,2,119.999990463257,12|6|14
392,160,51071,5,4
304,80,51446,2,0,B|376:48,2,59.9999952316285,10|0|2
184,72,52196,2,2,B|184:208,1,119.999990463257,8|8
184,312,52946,2,0,B|328:344,1,119.999990463257,10|2
296,216,53696,2,2,B|424:248,1,119.999990463257,8|4
392,128,54446,6,0,B|456:128,2,59.9999952316285,2|2|2
272,128,55196,2,0,B|136:96,1,119.999990463257,8|12
32,104,55946,1,4
32,224,56321,1,4
152,224,56696,1,4
80,328,57071,6,0,B|152:368|216:320,1,119.999990463257,4|10
312,336,57821,2,0,B|352:279|320:223,1,119.999990463257,0|10
216,160,58571,2,0,B|221:89|294:81,1,119.999990463257,0|10
408,64,59321,1,2
456,176,59696,1,8
448,296,60071,6,0,B|384:336|328:288,1,119.999990463257,0|10
232,240,60821,2,0,B|184:312|248:368|248:368,2,119.999990463257,0|8|4
224,120,61946,1,4
224,120,62321,1,4
224,120,62696,1,4
280,16,63071,6,0,B|384:104|384:240|264:336,1,359.999971389771,4|8
152,328,64571,2,0,B|64:240,1,119.999990463257,0|8
184,208,65321,2,0,B|152:144,2,59.9999952316285,0|0|8
280,136,66071,2,0,B|256:16,1,119.999990463257,0|8
368,64,66821,1,0
368,64,67196,1,8
416,176,67571,5,4
392,296,67946,1,12
272,320,68321,2,4,B|192:336|160:248,1,119.999990463257
272,200,69071,5,4
200,104,69446,2,8,B|104:72,2,59.9999952316285,8|0|8
88,144,70196,2,0,B|72:296,1,119.999990463257,8|0
184,208,70946,2,8,B|248:184,2,59.9999952316285,8|0|8
304,240,71696,2,0,B|224:352,1,119.999990463257,8|0
136,272,72446,6,0,B|-16:272,1,119.999990463257,8|0
56,160,73196,2,2,B|176:160,1,119.999990463257,8|12
136,48,73946,1,12
256,40,74321,1,12
376,48,74696,1,12
256,192,75071,12,0,76571
200,128,88571,6,0,B|272:88|336:144,1,119.999990463257,2|0
432,112,90071,1,2
376,216,90821,1,8
440,320,91571,2,0,B|368:360|304:304,1,119.999990463257,2|0
208,336,93071,1,2
256,224,93821,1,4
360,168,94571,6,0,B|400:240|344:304,1,119.999990463257,2|0
256,344,96071,1,2
192,240,96821,1,8
88,296,97571,6,0,B|48:224|104:160,1,119.999990463257,2|0
120,64,99071,1,2
200,152,99821,1,4
256,192,100196,12,0,101509
256,192,102071,6,0,B|224:264|248:328,1,119.999990463257,4|10
360,304,102821,1,0
376,184,103196,1,10
456,96,103571,2,0,B|376:56|296:80,1,119.999990463257,0|10
224,72,104321,2,0,B|136:176,1,119.999990463257,2|8
264,200,105071,6,2,B|224:320|224:320,1,119.999990463257,0|10
344,336,105821,1,0
464,352,106196,2,0,B|503:297|467:240,1,119.999990463257,10|4
466,239,106946,1,4
472,120,107321,1,6
392,32,107696,1,6
344,144,108071,6,0,B|306:189|234:181,1,119.999990463257,4|10
248,64,108821,1,0
152,136,109196,2,0,B|120:192|160:256,1,119.999990463257,10|0
248,312,109946,1,10
384,296,110321,5,2
384,296,110696,2,0,B|456:168|360:56,1,239.999980926514,8|10
256,64,111821,2,0,B|168:64|144:168,2,119.999990463257,0|10|4
280,184,112946,1,4
168,224,113321,1,6
280,184,113696,1,6
392,224,114071,5,4
304,304,114446,2,0,B|376:336,2,59.9999952316285,2|0|2
184,312,115196,2,2,B|184:176,1,119.999990463257,8|8
184,72,115946,2,0,B|328:40,1,119.999990463257,10|2
296,168,116696,2,2,B|424:136,1,119.999990463257,8|4
392,256,117446,6,0,B|456:256,2,59.9999952316285,2|0|2
272,256,118196,2,0,B|136:288,1,119.999990463257,8|12
40,312,118946,1,4
104,208,119321,1,4
160,104,119696,1,4
40,96,120071,6,0,B|-7:163|33:232,1,119.999990463257,4|10
120,288,120821,1,0
240,280,121196,1,10
200,168,121571,2,0,B|256:120|328:176,1,119.999990463257,0|10
360,272,122321,1,2
456,208,122696,1,8
448,88,123071,6,0,B|384:48|328:96,1,119.999990463257,0|10
232,144,123821,2,0,B|184:72|248:16|248:16,2,119.999990463257,0|8|4
224,264,124946,1,4
224,264,125321,1,4
224,264,125696,1,4
280,368,126071,6,0,B|384:280|384:144|264:48,1,359.999971389771,4|8
152,56,127571,2,0,B|64:144,1,119.999990463257,0|8
184,176,128321,2,0,B|152:240,2,59.9999952316285,0|0|8
280,248,129071,2,0,B|256:368,1,119.999990463257,0|8
368,320,129821,1,0
368,320,130196,1,8
424,216,130571,5,4
384,104,130946,1,12
272,64,131321,2,4,B|192:48|160:136,1,119.999990463257
272,184,132071,5,4
200,280,132446,2,8,B|104:312,2,59.9999952316285,8|0|8
88,240,133196,2,0,B|72:88,1,119.999990463257,8|0
184,176,133946,2,8,B|248:200,2,59.9999952316285,8|0|8
304,144,134696,2,0,B|224:32,1,119.999990463257,8|0
136,112,135446,6,0,B|-16:112,1,119.999990463257,8|0
56,224,136196,2,2,B|176:224,1,119.999990463257,8|12
120,328,136946,1,12
240,336,137321,1,12
360,328,137696,2,0,B|408:264|352:208|352:208,1,119.999990463257,12|0
