osu file format v9

[General]
AudioFilename: The_Less_They_Know_(Instrumental).mp3
AudioLeadIn: 0
PreviewTime: 38973
Countdown: 0
SampleSet: Normal
StackLeniency: 0.7
Mode: 0
LetterboxInBreaks: 1

[Editor]
Bookmarks: 39067,51067,63067,88567,102067,114067,126067
DistanceSpacing: 2
BeatDivisor: 4
GridSize: 8

[Metadata]
Title:The Less They Know (Instrumental ver.)
Artist:GReeNOX
Creator:senaya
Version:Insane
Source:
Tags:InTernaL UnCeRTaintY winber1

[Difficulty]
HPDrainRate:8
CircleSize:4
OverallDifficulty:7
ApproachRate:8
SliderMultiplier:1.59999990463257
SliderTickRate:1

[Events]
//Background and Video events
0,0,"bg1.jpg"
//Break Periods
2,76771,87821
//Storyboard Layer 0 (Background)
//Storyboard Layer 1 (Fail)
//Storyboard Layer 2 (Pass)
//Storyboard Layer 3 (Foreground)
//Storyboard Sound Samples
//Background Colour Transformations
3,100,0,0,0

[TimingPoints]
71,375,4,1,1,80,1,0
39071,-100,4,1,1,80,0,1
39446,-100,4,2,1,80,0,0
51071,-100,4,2,1,80,0,1
51446,-100,4,2,1,80,0,0
63071,-100,4,2,1,80,0,1
74414,-100,4,2,1,40,0,1
74977,-100,4,2,1,70,0,1
75071,-100,4,2,1,70,0,0
75164,-100,4,2,1,20,0,0
76664,-100,4,2,0,100,0,0
88852,-100,4,2,0,70,0,0
89039,-100,4,2,0,100,0,0
90727,-100,4,2,0,70,0,0
90914,-100,4,2,0,100,0,0
91852,-100,4,2,0,70,0,0
92039,-100,4,2,0,100,0,0
93352,-100,4,2,0,70,0,0
93539,-100,4,2,0,100,0,0
94852,-100,4,2,0,70,0,0
95039,-100,4,2,0,100,0,0
96727,-100,4,2,0,70,0,0
96914,-100,4,2,0,100,0,0
97852,-100,4,2,0,70,0,0
98039,-100,4,2,0,100,0,0
99352,-100,4,2,0,70,0,0
99727,-100,4,2,1,70,0,0
101957,-100,4,1,1,100,0,0
102071,-100,4,1,1,100,0,1
102164,-100,4,2,1,100,0,1
102446,-100,4,2,1,100,0,0
107977,-100,4,1,1,100,0,0
108164,-100,4,2,1,100,0,0
113602,-100,4,2,1,40,0,0
114071,-100,4,1,1,100,0,0
114164,-100,4,2,1,100,0,0
119984,-100,4,1,0,100,0,0
120164,-100,4,2,1,100,0,0
125984,-100,4,1,0,100,0,1
126164,-100,4,2,1,100,0,1
131977,-100,4,1,1,100,0,1
132164,-100,4,2,1,100,0,1
137321,-100,4,2,1,100,0,1
137414,-100,4,2,1,50,0,1
137696,-100,4,2,1,50,0,0
137977,-100,4,2,1,20,0,0

[Colours]
Combo1 : 219,230,226
Combo2 : 75,103,102
Combo3 : 135,160,158

[HitObjects]
128,184,39071,2,0,B|208:104,1,79.9999952316283,4|0
184,127,39446,1,8
224,48,39633,2,0,B|304:128,1,79.9999952316283
280,104,40008,1,0
360,136,40196,2,0,B|280:208,1,79.9999952316283,8|0
272,272,40571,2,0,B|192:192,2,79.9999952316283,0|0|8
272,272,41133,1,0
360,256,41321,2,0,B|464:224,1,79.9999952316283
436,232,41602,1,0
436,232,41696,1,8
448,320,41883,5,0
448,320,42071,2,0,B|368:344|368:344,1,79.9999952316283,0|0
280,352,42446,2,0,B|256:240,1,79.9999952316283,8|0
176,248,42821,1,0
176,248,43008,1,0
104,200,43196,1,8
104,200,43383,2,0,B|56:112,1,79.9999952316283
152,120,43758,2,0,B|200:40,1,79.9999952316283,0|8
193,51,44133,1,0
280,64,44321,5,8
296,80,44414,1,0
312,96,44508,1,8
328,112,44602,1,0
344,128,44696,1,8
232,176,45071,5,4
168,120,45258,2,0,B|128:216,1,79.9999952316283,0|8
64,144,45633,2,0,B|48:64,2,79.9999952316283
64,144,46196,1,8
64,232,46383,1,8
64,232,46477,1,0
64,232,46571,2,0,B|128:296,1,79.9999952316283
208,272,46946,1,8
384,272,47321,2,0,B|448:192,1,79.9999952316283
464,128,47696,5,8
376,104,47883,1,0
288,128,48071,1,0
200,152,48258,1,0
120,128,48446,1,8
120,128,48633,1,0
40,104,48821,6,0,B|104:32,1,79.9999952316283
120,128,49196,1,8
120,128,49383,2,4,B|48:208,1,79.9999952316283,0|0
104,272,49758,1,8
120,288,49852,1,0
136,304,49946,1,8
304,264,50321,5,2
392,248,50508,1,2
408,72,50696,1,4
320,88,50883,1,4
80,72,51071,6,0,B|112:152,1,79.9999952316283,4|0
48,216,51446,1,8
128,248,51633,1,0
216,240,51821,2,0,B|192:144,1,79.9999952316283
256,96,52196,2,0,B|288:208,1,79.9999952316283,8|0
352,120,52571,5,0
408,192,52758,1,8
408,192,52852,1,0
408,192,52946,1,8
352,264,53133,1,0
304,192,53321,6,0,B|232:256,1,79.9999952316283
280,328,53696,2,0,B|176:312,1,79.9999952316283,8|0
112,328,54071,1,0
72,248,54258,1,0
72,248,54352,1,0
72,248,54446,1,8
112,168,54633,1,0
64,96,54821,1,8
64,96,54915,1,0
64,96,55009,1,2
152,88,55196,1,8
152,88,55289,1,0
152,88,55383,1,2
224,144,55571,6,0,B|296:64,1,79.9999952316283
277,84,55946,1,8
360,104,56133,2,0,B|296:176,1,79.9999952316283,0|2
306,163,56508,1,2
306,163,56696,1,4
306,163,56883,1,4
144,168,57071,6,0,B|128:240|200:296,1,119.999992847442,4|0
200,264,57446,2,0,B|312:288|312:288,2,79.9999952316283,8|0|0
112,264,58008,1,0
152,344,58196,1,8
168,344,58289,1,0
184,344,58383,1,8
200,344,58477,1,0
216,344,58571,1,0
280,280,58758,2,0,B|352:344,1,79.9999952316283,0|8
339,333,59133,1,0
360,248,59321,1,0
360,248,59508,2,0,B|432:176,3,79.9999952316283,0|8|0|0
432,104,60258,5,0
344,88,60446,1,8
256,72,60633,1,0
168,56,60821,2,0,B|72:120,1,79.9999952316283
184,136,61196,2,0,B|280:200,2,79.9999952316283,8|0|0
184,136,61758,2,0,B|88:200,2,79.9999952316283,0|8|0
360,144,62321,5,2
360,232,62508,1,2
152,232,62696,1,4
152,144,62883,1,4
256,112,63071,6,0,B|328:48,1,79.9999952316283,4|0
315,58,63446,1,8
360,120,63633,1,0
360,120,63821,2,0,B|456:72,1,79.9999952316283
512,120,64196,1,8
440,168,64383,1,0
440,168,64477,1,0
440,168,64571,6,0,B|352:208,1,79.9999952316283
368,296,64946,2,0,B|272:264,1,79.9999952316283,8|0
292,270,65321,1,0
224,328,65508,2,0,B|328:360,2,79.9999952316283,0|8|0
136,344,66071,1,0
136,344,66258,2,0,B|176:248,1,79.9999952316283,0|8
80,280,66633,1,0
80,280,66821,2,0,B|120:176,1,79.9999952316283
192,192,67196,2,0,B|144:112,1,79.9999952316283,8|0
240,104,67571,5,0
280,184,67758,1,0
352,240,67946,1,8
392,320,68133,1,0
304,320,68321,1,0
240,256,68508,1,8
224,240,68602,1,0
208,224,68696,1,8
192,208,68789,1,0
176,192,68883,1,8
120,128,69071,6,0,B|192:72,1,79.9999952316283,4|0
264,48,69446,1,8
264,48,69633,1,0
320,112,69821,2,0,B|376:32,2,79.9999952316283,0|0|8
320,112,70383,1,0
176,192,70758,5,8
176,208,70851,1,0
176,224,70945,1,8
176,240,71039,1,0
176,256,71133,1,8
160,344,71321,2,0,B|80:288,2,79.9999952316283,0|0|8
160,344,71883,1,0
328,296,72259,5,8
328,280,72352,1,0
328,264,72446,1,8
328,176,72633,2,0,B|400:128,2,79.9999952316283
328,176,73196,1,8
328,176,73383,1,0
184,72,73758,5,0
96,56,73945,1,8
120,136,74133,1,0
96,216,74321,1,0
184,216,74508,1,0
189,200,74602,1,0
194,185,74696,1,0
200,170,74789,1,0
205,155,74883,1,0
280,200,75070,1,4
256,192,75258,12,0,76571
424,336,88571,6,0,B|344:280,1,79.9999952316285,0|0
312,360,88946,1,8
272,280,89133,2,0,B|328:200,2,79.9999952316285,0|0|0
208,336,89696,1,0
208,336,89883,2,0,B|136:288,1,79.9999952316285
240,160,90258,1,2
112,56,90446,1,4
64,224,90821,6,0,B|128:288|128:288,1,79.9999952316285,8|0
208,296,91196,1,0
296,304,91383,1,0
384,288,91571,2,0,B|336:192,1,79.9999952316285
348,216,91946,1,8
312,136,92133,2,0,B|256:216,1,79.9999952316285
266,201,92508,1,0
224,128,92696,1,0
224,128,92883,2,0,B|144:152,2,79.9999952316285
224,128,93446,1,8
408,280,93821,5,2
288,304,94008,1,2
344,152,94196,1,4
464,128,94383,1,4
392,80,94571,6,0,B|304:32,1,79.9999952316285
321,41,94946,1,8
248,88,95133,1,2
248,104,95227,1,0
248,120,95321,1,2
160,112,95508,1,0
160,112,95696,2,0,B|64:56,2,79.9999952316285
264,240,96258,1,2
120,320,96446,1,4
64,176,96821,6,0,B|128:112|128:112,1,79.9999952316285,8|0
208,96,97196,1,0
296,80,97383,1,0
384,96,97571,2,0,B|336:192,1,79.9999952316285
348,167,97946,1,8
312,248,98133,1,0
312,248,98321,2,0,B|256:168,1,79.9999952316285
224,256,98696,1,0
224,256,98883,2,0,B|144:232,2,79.9999952316285
224,256,99446,1,8
424,128,99821,5,2
392,288,100008,1,2
264,184,100196,1,4
232,344,100383,1,4
256,192,100571,12,0,101883
336,96,102071,6,0,B|384:176,1,79.9999952316283,4|0
296,200,102446,1,8
256,120,102633,2,0,B|208:32,2,79.9999952316283
184,168,103196,1,8
104,192,103383,6,0,B|112:272|208:288,1,119.999992847442
192,288,103758,2,0,B|112:344,2,79.9999952316283,0|8|0
264,344,104321,1,0
336,288,104508,2,0,B|424:352,2,79.9999952316283,0|8|0
336,200,105071,5,8
336,184,105164,1,0
336,168,105258,1,2
256,128,105446,1,8
256,144,105539,1,0
256,160,105633,1,2
240,240,105821,6,0,B|184:320,1,79.9999952316283
194,305,106196,1,8
112,296,106383,2,0,B|176:208,1,79.9999952316283
159,231,106758,1,0
88,200,106946,2,0,B|88:104,1,79.9999952316283,8|0
88,120,107321,1,4
88,120,107508,1,4
352,96,108071,5,4
352,96,108258,2,0,B|440:40,1,79.9999952316283,0|8
419,53,108633,1,0
432,144,108821,1,0
352,184,109008,2,0,B|376:240|448:224,2,79.9999952316283,0|8|0
176,152,109759,5,8
176,168,109852,1,0
176,184,109946,1,8
88,184,110133,1,0
128,264,110321,1,0
216,264,110508,2,0,B|272:239|256:168,2,79.9999952316283,0|8|0
304,288,111071,5,0
392,288,111258,2,0,B|456:344,2,79.9999952316283,0|8|0
456,224,111821,1,0
432,144,112008,2,0,B|372:159|377:232,2,79.9999952316283,0|8|0
464,64,112571,2,0,B|360:24,1,79.9999952316283
304,56,112946,5,8
144,24,113133,1,0
24,128,113321,1,4
56,288,113508,1,4
216,312,113696,1,0
232,296,113789,5,0
248,280,113883,1,0
264,264,113977,1,0
280,248,114071,2,0,B|336:192|320:136|320:136,1,119.999992847442,4|0
336,120,114446,2,0,B|432:120|432:120,2,79.9999952316283,8|0|0
248,120,115008,2,0,B|184:32,2,79.9999952316283,0|8|0
192,192,115571,5,0
136,256,115758,1,0
112,344,115946,2,0,B|64:352|50:300,2,79.9999952316283,8|0|0
200,344,116508,1,8
216,344,116602,1,0
232,344,116696,1,8
320,344,116883,1,0
416,304,117071,5,0
416,304,117258,2,0,B|336:240,1,79.9999952316283,0|8
432,216,117633,2,0,B|480:144,1,79.9999952316283
476,149,118008,1,0
440,64,118196,1,8
440,64,118383,2,0,B|392:136,1,79.9999952316283,0|0
360,48,118758,2,0,B|256:48,1,79.9999952316283,0|8
288,136,119133,1,0
296,224,119321,5,8
296,240,119414,1,0
296,256,119508,1,8
296,272,119602,1,0
296,288,119696,1,8
296,304,119789,1,0
296,320,119883,1,8
296,336,119977,1,0
296,352,120071,6,0,B|240:408|168:328,1,119.999992847442,4|0
176,328,120446,2,0,B|96:328,2,79.9999952316283,8|0|0
184,240,121008,2,0,B|272:240,2,79.9999952316283,0|8|0
144,160,121571,5,0
232,144,121758,1,0
320,160,121946,1,8
408,144,122133,1,0
408,144,122227,1,0
408,144,122321,1,0
376,224,122508,6,0,B|448:304,2,79.9999952316283,0|8|0
288,224,123071,2,0,B|232:288,1,79.9999952316283
235,284,123352,1,0
235,284,123446,1,8
168,336,123633,5,0
152,248,123821,1,0
176,160,124008,1,0
160,72,124196,1,8
248,80,124383,2,0,B|344:24,1,79.9999952316283
320,128,124758,2,0,B|240:176,2,79.9999952316283,0|8|0
392,176,125321,5,8
400,192,125414,1,0
408,208,125508,1,8
416,224,125602,1,0
424,240,125696,1,8
416,256,125789,1,0
408,272,125883,1,8
400,288,125977,1,0
392,304,126071,6,0,B|320:376|224:288,1,159.999990463257,4|8
280,224,126633,2,0,B|226:192|178:247,3,79.9999952316283,0|0|0|8
160,304,127383,1,8
144,288,127477,1,0
128,272,127571,1,8
72,208,127758,2,0,B|128:128|128:128,1,79.9999952316283,0|8
200,120,128133,5,8
217,104,128227,1,0
232,88,128321,1,8
312,56,128508,1,0
312,56,128696,1,8
312,56,128883,1,0
400,56,129071,6,0,B|464:136|400:200,1,159.999990463257,0|8
328,136,129633,1,8
320,152,129727,1,0
312,168,129821,1,8
240,216,130008,2,0,B|344:264,1,79.9999952316283,0|8
368,312,130383,5,0
280,328,130571,1,0
192,312,130758,1,0
104,328,130946,1,8
48,264,131133,2,0,B|144:216,1,79.9999952316283
119,228,131508,1,2
119,228,131696,1,4
119,228,131883,1,4
48,176,132071,6,0,B|88:120|168:144,1,119.999992847442,4|0
168,128,132446,2,0,B|256:128,2,79.9999952316283,8|0|0
120,56,133008,1,0
208,40,133196,1,8
296,56,133383,1,0
384,48,133571,1,0
408,128,133758,5,0
408,128,133852,1,0
408,128,133946,1,8
320,144,134133,1,0
320,144,134227,1,0
320,144,134321,1,0
232,144,134508,5,0
232,144,134696,2,0,B|184:216,1,79.9999952316283,8|0
272,224,135071,2,0,B|312:304,1,79.9999952316283
307,295,135446,1,8
224,312,135633,2,0,B|144:360,2,79.9999952316283
152,264,136196,1,8
168,176,136383,1,0
168,176,136570,2,0,B|216:88,1,79.9999952316283
272,168,136945,2,0,B|352:120,1,79.9999952316283,8|0
340,126,137321,1,0
376,208,137508,5,8
376,224,137602,1,0
376,240,137696,1,8
376,256,137789,1,0
376,272,137883,2,0,B|416:312|472:264,1,79.9999952316283,8|0
