osu file format v9

[General]
AudioFilename: The_Less_They_Know_(Instrumental).mp3
AudioLeadIn: 0
PreviewTime: 38973
Countdown: 0
SampleSet: Soft
StackLeniency: 0.7
Mode: 0
LetterboxInBreaks: 1

[Editor]
Bookmarks: 39067,51067,63067,88567,102067,114067,126067
DistanceSpacing: 0.8
BeatDivisor: 2
GridSize: 8

[Metadata]
Title:The Less They Know (Instrumental ver.)
Artist:GReeNOX
Creator:senaya
Version:Easy
Source:
Tags:InTernaL UnCeRTaintY winber1

[Difficulty]
HPDrainRate:2
CircleSize:3
OverallDifficulty:2
ApproachRate:3
SliderMultiplier:0.79999990463257
SliderTickRate:1

[Events]
//Background and Video events
0,0,"bg1.jpg"
//Break Periods
2,76771,87127
//Storyboard Layer 0 (Background)
//Storyboard Layer 1 (Fail)
//Storyboard Layer 2 (Pass)
//Storyboard Layer 3 (Foreground)
//Storyboard Sound Samples
//Background Colour Transformations
3,100,0,0,0

[TimingPoints]
71,375,4,2,1,80,1,0
39071,-100,4,2,1,80,0,1
39258,-100,4,2,2,80,0,1
39446,-100,4,2,2,80,0,0
39633,-100,4,2,1,80,0,0
48258,-100,4,2,2,80,0,0
48633,-100,4,2,1,80,0,0
51071,-100,4,2,1,80,0,1
51258,-100,4,2,2,80,0,1
51446,-100,4,2,2,80,0,0
51633,-100,4,2,1,80,0,0
63071,-100,4,2,1,80,0,1
63258,-100,4,2,2,80,0,1
63633,-100,4,2,1,80,0,1
64758,-100,4,2,2,80,0,1
65133,-100,4,2,1,80,0,1
75071,-100,4,2,1,80,0,0
75164,-100,4,2,1,20,0,0
88383,-100,4,2,1,80,0,0
90633,-100,4,2,0,80,0,0
91008,-100,4,2,1,80,0,0
94571,-100,4,2,0,80,0,0
99821,-100,4,2,1,50,0,0
101957,-100,4,1,1,80,0,0
102071,-100,4,1,1,80,0,1
102164,-100,4,2,1,80,0,1
102258,-100,4,2,2,80,0,1
102446,-100,4,2,2,80,0,0
102633,-100,4,2,1,80,0,0
105258,-100,4,2,2,80,0,0
105633,-100,4,2,1,80,0,0
107977,-100,4,1,1,80,0,0
108164,-100,4,2,1,80,0,0
108258,-100,4,2,2,80,0,0
108633,-100,4,2,1,80,0,0
109758,-100,4,2,2,80,0,0
110895,-100,4,2,1,80,0,0
114064,-100,4,1,1,80,0,1
114164,-100,4,2,1,80,0,1
114258,-100,4,2,2,80,0,1
114446,-100,4,2,2,80,0,0
114633,-100,4,2,1,80,0,0
119984,-100,4,1,0,80,0,0
120164,-100,4,2,1,80,0,0
120258,-100,4,2,2,80,0,0
120633,-100,4,2,1,80,0,0
125984,-100,4,1,0,80,0,1
126164,-100,4,2,1,80,0,1
126258,-100,4,2,2,80,0,1
126633,-100,4,2,1,80,0,1
127758,-100,4,2,2,80,0,1
128133,-100,4,2,1,80,0,1
129258,-100,4,2,2,80,0,1
129633,-100,4,2,1,80,0,1
130758,-100,4,2,2,80,0,1
131133,-100,4,2,1,80,0,1
137696,-100,4,2,1,80,0,0
137883,-100,4,2,1,70,0,0

[Colours]
Combo1 : 219,230,226
Combo2 : 75,103,102
Combo3 : 135,160,158

[HitObjects]
176,112,39071,2,0,B|264:72|335:114,1,159.999980926514
384,152,40196,1,8
384,280,40946,1,8
264,328,41696,2,0,B|195:358|107:326,1,159.999980926514,8|8
144,208,43196,1,8
232,112,43946,1,12
320,208,44696,6,0,B|416:200|470:262,1,159.999980926514,12|8
360,336,46196,2,0,B|462:335,2,79.999990463257,8|0|8
296,336,47321,1,0
232,336,47696,1,8
168,336,48071,2,0,B|88:312|62:219,1,159.999980926514
48,160,49196,1,8
168,216,49946,1,12
48,160,50696,1,12
64,96,51071,6,0,B|152:64|224:96,1,159.999980926514,4|0
240,160,52196,1,8
352,96,52946,1,8
464,160,53696,1,8
432,280,54446,2,0,B|363:310|275:278,1,159.999980926514,8|8
224,248,55571,5,4
168,216,55946,1,4
112,184,56321,1,4
56,160,56696,1,4
48,224,57071,2,0,B|63:275|23:317,1,79.999990463257,4|8
160,336,58196,5,8
288,344,58946,1,8
416,336,59696,2,0,B|456:352|496:336,2,79.999990463257,8|0|8
304,256,61196,1,8
328,200,61571,2,0,B|312:160|328:120,2,79.999990463257,12|4|4
360,256,62696,1,4
424,256,63071,6,0,B|454:187|422:99,1,159.999980926514,4|0
360,80,64196,1,8
296,56,64571,2,0,B|266:125|298:213,1,159.999980926514
280,272,65696,1,8
176,344,66446,1,8
64,272,67196,1,8
48,208,67571,2,4,B|32:168|48:128,3,79.999990463257,4|12|4|12
104,104,69071,6,0,B|144:88|184:104,1,79.999990463257,4|8
296,40,70196,1,8
408,104,70946,1,8
296,176,71696,2,0,B|327:263|297:332,1,159.999980926514,8|8
192,264,73196,1,8
136,296,73571,2,0,B|120:256|136:216,3,79.999990463257,4|4|4|4
256,192,75071,12,0,76571
332,110,88571,6,0,B|256:80|176:112,1,159.999980926514,2|0
56,56,90071,1,2
56,184,90821,1,8
176,216,91571,6,0,B|256:248|332:214,1,159.999980926514,2|0
456,184,93071,1,0
408,304,93821,1,2
352,336,94196,1,2
296,360,94571,6,0,B|224:392|140:361,1,159.999980926514,4|2
40,272,96071,1,2
80,152,96821,1,0
176,240,97571,6,0,B|220:162|296:141,1,159.999980926514,2|0
408,192,99071,1,2
256,192,99821,12,0,101321
256,192,102071,6,0,B|332:162|412:194,1,159.999980926514,4|0
440,248,103196,1,8
344,336,103946,1,8
216,360,104696,1,8
152,344,105071,6,0,B|122:268|154:188,1,159.999980926514,0|0
216,216,106196,1,8
280,240,106571,2,0,B|296:200|280:160,1,79.999990463257,4|4
216,144,107321,2,0,B|200:104|216:64,1,79.999990463257,4|4
280,48,108071,6,0,B|356:18|436:50,1,159.999980926514,4|0
472,104,109196,1,8
432,152,109571,2,0,B|356:182|276:150,2,159.999980926514
472,200,111446,1,8
432,320,112196,1,8
376,360,112571,2,0,B|360:320|376:280,2,79.999990463257,4|4|4
248,328,114071,6,0,B|172:358|92:326,1,159.999980926514,4|0
80,264,115196,1,8
136,152,115946,1,8
232,72,116696,1,8
352,40,117446,1,8
472,56,118196,1,8
472,120,118571,2,0,B|480:160|488:200,1,79.999990463257,4|4
424,200,119321,2,0,B|416:240|408:280,1,79.999990463257,4|4
344,296,120071,6,0,B|232:352|112:296,1,239.999971389771,4|8
160,176,121946,2,0,B|248:136|315:177,1,159.999980926514,8|8
312,304,123446,2,0,B|240:345|157:303,2,159.999980926514,8|8|12
312,240,125321,1,4
312,176,125696,1,4
312,112,126071,6,0,B|240:72|157:114,1,159.999980926514,4|0
160,176,127196,1,8
96,176,127571,2,0,B|56:256|98:331,1,159.999980926514,0|0
160,328,128696,1,8
224,328,129071,2,0,B|264:248|222:173,1,159.999980926514,0|0
160,176,130196,1,8
160,112,130571,2,0,B|240:72|315:111,1,159.999980926514,4|4
368,72,131696,2,4,B|384:112|368:152,1,79.999990463257,4|4
392,208,132446,5,8
352,328,133196,1,8
392,208,133946,1,8
368,80,134696,2,0,B|293:51|213:82,1,159.999980926514,8|8
192,208,136196,1,8
232,328,136946,1,8
192,208,137696,1,10
192,208,138071,5,0
