osu file format v13

[General]
AudioFilename: Kuroko no Basuke OST 2 CD1 - 26 The Other Self TV size.mp3
AudioLeadIn: 0
PreviewTime: 58122
Countdown: 1
SampleSet: Soft
StackLeniency: 0.2
Mode: 0
LetterboxInBreaks: 1
WidescreenStoryboard: 1

[Editor]
DistanceSpacing: 1.1
BeatDivisor: 4
GridSize: 8
TimelineZoom: 2.4

[Metadata]
Title:The other self
TitleUnicode:The other self
Artist:GRANRODEO
ArtistUnicode:GRANRODEO
Creator:monstrata
Version:Teiko
Source:
Tags:
BeatmapID:561976
BeatmapSetID:240656

[Difficulty]
HPDrainRate:4
CircleSize:5
OverallDifficulty:7.5
ApproachRate:9
SliderMultiplier:2
SliderTickRate:2

[Events]
//Background and Video events
0,0,"generation_of_miracles_by_nakamurakenji1993-d5yn9w0.jpg",0,0
//Break Periods
//Storyboard Layer 0 (Background)
//Storyboard Layer 1 (Fail)
//Storyboard Layer 2 (Pass)
//Storyboard Layer 3 (Foreground)
//Storyboard Sound Samples

[TimingPoints]
514,400,4,2,1,100,1,0
17922,-200,4,2,1,100,0,0
19722,-100,4,2,1,100,0,0
30722,-200,4,2,1,100,0,0
32522,-100,4,2,1,100,0,0
32622,-100,4,2,1,20,0,0
33222,-100,4,2,1,50,0,0
33822,-100,4,2,1,65,0,0
34122,-100,4,2,1,100,0,0
34222,-100,4,2,1,20,0,0
34722,-100,4,2,1,50,0,0
35322,-100,4,2,1,65,0,0
35722,-100,4,2,1,100,0,0
35822,-100,4,2,1,20,0,0
36322,-100,4,2,1,50,0,0
36922,-100,4,2,1,65,0,0
37322,-100,4,2,1,100,0,0
37422,-100,4,2,1,20,0,0
37922,-100,4,2,1,50,0,0
38522,-100,4,2,1,65,0,0
38922,-100,4,2,1,100,0,0
58122,-100,4,1,0,100,0,1
58303,-100,4,1,0,30,0,1
58403,-100,4,1,0,100,0,1
58603,-100,4,1,0,10,0,1
58703,-100,4,1,0,100,0,1
88722,-100,4,1,0,100,0,0

[HitObjects]
0,0,514,5,0,0:0:0:0:
512,0,614,5,0,0:0:0:0:
0,384,714,5,0,0:0:0:0:
512,384,814,5,0,0:0:0:0:
256,0,1114,6,0,L|256:80,1,50
256,384,1314,6,0,L|256:328,1,50
512,0,1714,1,0,0:0:0:0:
0,0,1814,5,0,0:0:0:0:
512,384,1914,5,0,0:0:0:0:
0,384,2014,5,0,0:0:0:0:
0,192,2314,6,0,L|64:192,1,50
512,192,2514,6,0,L|448:192,1,50
256,384,2914,6,0,L|256:320,1,50
48,48,3114,5,0,0:0:0:0:
464,336,3314,5,0,0:0:0:0:
512,0,3714,6,0,B|496:48|496:48|448:64,1,100
128,88,4114,5,0,0:0:0:0:
5,190,4314,1,0,0:0:0:0:
384,88,4514,5,0,0:0:0:0:
506,190,4714,1,0,0:0:0:0:
256,136,4914,5,0,0:0:0:0:
256,296,5114,1,0,0:0:0:0:
208,352,5314,6,0,P|256:368|304:352,1,100
315,6,5714,5,0,0:0:0:0:
496,72,5914,1,0,0:0:0:0:
184,8,6114,5,0,0:0:0:0:
2,73,6314,1,0,0:0:0:0:
256,48,6514,5,0,0:0:0:0:
256,240,6714,1,0,0:0:0:0:
0,384,6914,6,0,P|56:344|64:296,1,100
256,0,7214,6,0,L|256:128,1,100
512,384,7514,6,0,P|468:361|447:316,1,100
80,192,7914,5,0,0:0:0:0:
256,280,8114,1,0,0:0:0:0:
432,192,8314,1,0,0:0:0:0:
304,96,8514,6,0,B|256:112|256:112|208:96,2,100,0|0|0,0:0|0:0|0:0,0:0:0:0:
176,352,9114,5,0,0:0:0:0:
336,352,9314,1,0,0:0:0:0:
0,192,9514,5,0,0:0:0:0:
504,192,9714,5,0,0:0:0:0:
256,64,9914,5,0,0:0:0:0:
120,88,10114,6,0,P|72:72|32:32,1,100
392,88,10514,6,0,P|440:72|480:32,1,100
144,248,10914,5,0,0:0:0:0:
16,368,11114,1,0,0:0:0:0:
368,248,11314,5,0,0:0:0:0:
496,368,11514,1,0,0:0:0:0:
256,40,11714,6,0,P|272:88|256:136,1,100
256,344,12014,6,0,P|240:296|256:248,1,100
256,224,12314,1,0,0:0:0:0:
256,192,12414,1,0,0:0:0:0:
488,48,12714,5,0,0:0:0:0:
473,68,12814,1,0,0:0:0:0:
458,88,12914,1,0,0:0:0:0:
443,108,13014,1,0,0:0:0:0:
429,128,13114,1,0,0:0:0:0:
24,336,13314,6,0,L|88:248,1,100,0|0,0:0|0:0,0:0:0:0:
42,0,13714,5,0,0:0:0:0:
470,0,13914,5,0,0:0:0:0:
256,370,14114,5,0,0:0:0:0:
411,34,14314,5,0,0:0:0:0:
99,34,14514,5,0,0:0:0:0:
256,304,14714,5,0,0:0:0:0:
512,192,14914,5,0,0:0:0:0:
408,64,15114,5,0,0:0:0:0:
383,64,15214,1,0,0:0:0:0:
358,64,15314,1,0,0:0:0:0:
0,192,15514,5,0,0:0:0:0:
104,320,15714,5,0,0:0:0:0:
129,320,15814,1,0,0:0:0:0:
154,320,15914,1,0,0:0:0:0:
256,168,16114,6,0,P|240:192|264:168,1,100
80,64,16514,5,0,0:0:0:0:
432,64,16814,5,0,0:0:0:0:
256,360,17114,5,0,0:0:0:0:
256,336,17314,5,0,0:0:0:0:
256,312,17514,5,0,0:0:0:0:
256,288,17714,5,0,0:0:0:0:
24,112,17914,6,0,P|48:88|88:72,1,75
488,112,18314,6,0,P|464:88|424:72,1,75
256,8,18714,6,0,L|256:104,1,75
120,80,19114,5,0,0:0:0:0:
120,304,19314,5,0,0:0:0:0:
392,304,19514,5,0,0:0:0:0:
392,79,19714,6,0,P|436:97|447:144,1,100
440,168,20014,1,0,0:0:0:0:
424,184,20114,1,0,0:0:0:0:
120,360,20314,5,0,0:0:0:0:
45,257,20514,1,0,0:0:0:0:
165,296,20714,1,0,0:0:0:0:
45,335,20914,1,0,0:0:0:0:
120,233,21114,1,0,0:0:0:0:
424,80,21314,5,0,0:0:0:0:
507,128,21514,1,0,0:0:0:0:
336,174,21714,5,0,0:0:0:0:
368,264,21914,1,0,0:0:0:0:
88,80,22114,5,0,0:0:0:0:
5,128,22314,1,0,0:0:0:0:
176,174,22514,5,0,0:0:0:0:
144,264,22714,1,0,0:0:0:0:
328,29,22914,6,0,P|255:53|185:28,1,150
504,280,23314,5,0,0:0:0:0:
408,224,23514,1,0,0:0:0:0:
408,336,23714,1,0,0:0:0:0:
8,104,23914,5,0,0:0:0:0:
104,160,24114,1,0,0:0:0:0:
104,48,24314,2,0,P|192:48|224:88,1,100
408,48,24714,6,0,P|320:48|288:88,1,100
152,112,25114,6,0,P|208:179|198:229,1,100
360,112,25514,6,0,P|303:179|313:229,2,100,0|0|0,0:0|0:0|0:0,0:0:0:0:
136,296,26114,5,0,0:0:0:0:
32,336,26314,1,0,0:0:0:0:
376,296,26514,5,0,0:0:0:0:
480,336,26714,1,0,0:0:0:0:
136,88,26914,5,0,0:0:0:0:
32,48,27114,1,0,0:0:0:0:
376,88,27314,5,0,0:0:0:0:
480,48,27514,1,0,0:0:0:0:
256,360,27714,6,0,B|216:264|304:264|256:168,1,200
256,96,28314,1,0,0:0:0:0:
329,253,28514,5,0,0:0:0:0:
293,261,28614,1,0,0:0:0:0:
257,252,28714,1,0,0:0:0:0:
221,242,28814,1,0,0:0:0:0:
185,251,28914,1,0,0:0:0:0:
256,32,29114,5,0,0:0:0:0:
80,296,29314,6,0,B|48:336|48:336|-8:360,1,100
432,296,29614,6,0,B|464:336|464:336|508:355,1,100
256,192,29914,6,0,L|256:128,1,50
80,48,30114,5,0,0:0:0:0:
104,72,30314,5,0,0:0:0:0:
128,96,30514,5,0,0:0:0:0:
152,120,30714,6,0,L|200:168,1,50
360,120,31114,6,0,L|312:168,1,50
136,208,31514,6,0,L|201:225,1,50
376,208,31914,5,0,0:0:0:0:
351,214,32014,1,0,0:0:0:0:
327,220,32114,1,0,0:0:0:0:
256,192,32314,5,0,0:0:0:0:
288,24,32514,6,0,P|360:40|408:104,1,150
224,360,32914,6,0,P|152:344|104:280,1,150
59,112,33314,5,0,0:0:0:0:
136,104,33514,1,0,0:0:0:0:
89,41,33714,1,0,0:0:0:0:
480,340,33914,6,0,P|416:304|352:344,1,150
48,336,34314,5,0,0:0:0:0:
152,264,34514,1,0,0:0:0:0:
464,48,34714,5,0,0:0:0:0:
360,120,34914,1,0,0:0:0:0:
48,48,35114,5,0,0:0:0:0:
152,120,35314,1,0,0:0:0:0:
464,336,35514,5,0,0:0:0:0:
360,264,35714,2,0,L|248:184,2,100,0|0|0,0:0|0:0|0:0,0:0:0:0:
256,336,36314,1,0,0:0:0:0:
48,336,36514,6,0,L|48:224,1,100
176,280,36914,5,0,0:0:0:0:
176,160,37114,1,0,0:0:0:0:
304,224,37314,5,0,0:0:0:0:
304,104,37514,1,0,0:0:0:0:
432,168,37714,5,0,0:0:0:0:
432,48,37914,1,0,0:0:0:0:
80,48,38114,5,0,0:0:0:0:
80,336,38314,5,0,0:0:0:0:
432,336,38514,5,0,0:0:0:0:
432,48,38714,5,0,0:0:0:0:
0,192,38914,6,0,P|48:168|88:192,1,100
256,64,39314,5,0,0:0:0:0:
512,192,39514,6,0,P|464:216|424:192,1,100
256,320,39914,5,0,0:0:0:0:
127,226,40114,5,0,0:0:0:0:
384,226,40314,5,0,0:0:0:0:
256,40,40514,6,0,P|288:96|248:152,1,100
387,268,40814,6,0,P|323:267|294:205,1,100
124,268,41114,6,0,P|156:212|225:218,1,100
256,192,41514,5,0,0:0:0:0:
280,186,41614,1,0,0:0:0:0:
305,187,41714,1,0,0:0:0:0:
328,194,41814,1,0,0:0:0:0:
353,201,41914,1,0,0:0:0:0:
377,200,42014,1,0,0:0:0:0:
402,194,42114,6,0,P|464:168|440:104,2,150,0|0|0,0:0|0:0|0:0,0:0:0:0:
82,327,42914,6,0,P|113:288|160:272,1,100
429,56,43314,6,0,P|398:95|352:112,1,100
320,112,43614,1,0,0:0:0:0:
288,112,43714,6,0,L|192:48,1,100
309,259,44014,6,0,L|412:208,1,100
170,204,44314,6,0,L|163:319,1,100
269,157,44714,5,0,0:0:0:0:
279,221,44914,1,0,0:0:0:0:
219,197,45114,1,0,0:0:0:0:
23,44,45314,5,0,0:0:0:0:
488,44,45614,5,0,0:0:0:0:
256,368,45914,6,0,B|288:328|224:328|256:272,1,100
256,48,46314,5,0,0:0:0:0:
256,60,46414,1,0,0:0:0:0:
256,73,46514,1,0,0:0:0:0:
256,85,46614,1,0,0:0:0:0:
256,98,46714,1,0,0:0:0:0:
128,304,46914,6,0,P|80:272|64:224,1,100
384,304,47214,6,0,P|432:272|448:224,1,100
256,304,47514,6,0,L|256:184,1,100
272,40,47914,6,0,L|232:40,10,25,0|0|0|0|0|0|0|0|0|0|0,0:0|0:0|0:0|0:0|0:0|0:0|0:0|0:0|0:0|0:0|0:0,0:0:0:0:
328,360,48514,6,0,P|256:336|184:360,2,150,0|0|0,0:0|0:0|0:0,0:0:0:0:
496,192,49314,5,0,0:0:0:0:
424,192,49514,5,0,0:0:0:0:
352,192,49714,5,0,0:0:0:0:
280,192,49914,6,0,P|296:144|368:120,1,100
256,168,50314,6,0,P|208:152|184:80,1,100
232,192,50714,6,0,P|216:240|144:264,1,100
256,216,51114,6,0,P|304:232|328:304,2,100,0|0|0,0:0|0:0|0:0,0:0:0:0:
40,64,51714,6,0,P|80:32|144:40,1,100
168,144,52014,2,0,P|128:176|64:168,1,100
104,104,52314,1,0,0:0:0:0:
472,64,52514,6,0,P|432:32|368:40,1,100
344,144,52814,2,0,P|384:176|448:168,1,100
408,104,53114,1,0,0:0:0:0:
40,320,53314,6,0,P|80:352|144:344,1,100
168,240,53614,2,0,P|128:208|64:216,1,100
104,280,53914,1,0,0:0:0:0:
472,320,54114,6,0,P|432:352|368:344,1,100
344,240,54414,2,0,P|384:208|448:216,1,100
408,280,54714,1,0,0:0:0:0:
256,0,54914,5,0,0:0:0:0:
0,192,55214,5,0,0:0:0:0:
504,192,55514,5,0,0:0:0:0:
256,64,55714,5,0,0:0:0:0:
104,312,56014,5,0,0:0:0:0:
408,312,56314,1,0,0:0:0:0:
176,192,56514,5,0,0:0:0:0:
336,192,56814,5,0,0:0:0:0:
24,192,57114,5,0,0:0:0:0:
488,192,57314,5,0,0:0:0:0:
256,352,57714,5,0,0:0:0:0:
246,329,57814,1,0,0:0:0:0:
252,305,57914,1,0,0:0:0:0:
261,282,58014,1,0,0:0:0:0:
257,258,58114,6,0,P|240:192|264:144,1,100
342,202,58514,1,0,0:0:0:0:
256,72,58714,6,0,L|128:72,1,100
72,72,59114,1,0,0:0:0:0:
256,312,59314,6,0,L|408:312,1,150
448,160,59714,5,0,0:0:0:0:
368,128,59914,1,0,0:0:0:0:
344,48,60114,1,0,0:0:0:0:
64,224,60314,5,0,0:0:0:0:
144,256,60514,1,0,0:0:0:0:
168,336,60714,1,0,0:0:0:0:
256,8,60914,6,0,L|256:176,1,150
64,56,61314,6,0,P|96:136|128:160,1,100
256,344,61614,6,0,L|256:216,1,100
448,55,61914,6,0,P|437:104|407:144,1,100
408,312,62314,5,0,0:0:0:0:
472,296,62514,1,0,0:0:0:0:
424,248,62714,1,0,0:0:0:0:
176,64,62914,6,0,P|128:56|64:112,2,100,0|0|0,0:0|0:0|0:0,0:0:0:0:
256,288,63514,5,0,0:0:0:0:
336,64,63714,6,0,P|384:56|448:112,2,100,0|0|0,0:0|0:0|0:0,0:0:0:0:
256,336,64314,5,0,0:0:0:0:
64,304,64514,6,0,P|48:232|80:192,1,100
256,144,64914,5,0,0:0:0:0:
448,304,65114,6,0,P|464:232|432:192,1,100
256,335,65514,5,0,0:0:0:0:
399,192,65714,5,0,0:0:0:0:
256,48,65914,5,0,0:0:0:0:
112,192,66114,6,0,P|192:240|232:232,1,100
327,68,66414,6,0,P|246:112|233:151,1,100
327,315,66714,6,0,P|329:223|302:192,1,100
248,176,67114,1,0,0:0:0:0:
256,264,67314,1,0,0:0:0:0:
16,192,67514,5,0,0:0:0:0:
480,40,67714,6,0,L|448:152,1,100
480,344,68014,6,0,L|448:232,1,100
496,192,68314,1,0,0:0:0:0:
32,40,68514,6,0,L|64:152,1,100
32,344,68814,6,0,L|64:232,1,100
16,192,69114,1,0,0:0:0:0:
189,84,69314,6,0,B|256:24|328:88,2,150,0|0|0,0:0|0:0|0:0,0:0:0:0:
256,136,70114,6,0,B|208:232|304:232|256:328,1,200
256,0,70714,5,0,0:0:0:0:
418,86,70914,5,0,0:0:0:0:
434,7,71114,1,0,0:0:0:0:
496,64,71314,1,0,0:0:0:0:
94,298,71514,5,0,0:0:0:0:
78,377,71714,1,0,0:0:0:0:
16,320,71914,1,0,0:0:0:0:
317,240,72114,6,0,P|257:276|189:224,1,150
94,86,72514,5,0,0:0:0:0:
78,7,72714,1,0,0:0:0:0:
16,64,72914,1,0,0:0:0:0:
418,298,73114,5,0,0:0:0:0:
434,377,73314,1,0,0:0:0:0:
496,320,73514,1,0,0:0:0:0:
195,144,73714,6,0,P|255:108|323:160,1,150
80,232,74114,6,0,P|88:304|176:288,1,150
256,192,74514,5,0,0:0:0:0:
432,232,74714,6,0,P|424:304|336:288,1,150
96,48,75114,6,0,L|0:16,1,100
416,48,75514,6,0,L|510:16,1,100
256,376,75914,6,0,L|256:272,1,100
190,3,76314,5,0,0:0:0:0:
338,3,76514,1,0,0:0:0:0:
145,143,76714,5,0,0:0:0:0:
264,230,76914,1,0,0:0:0:0:
384,144,77114,1,0,0:0:0:0:
120,336,77314,6,0,P|88:272|48:264,2,100,0|0|0,0:0|0:0|0:0,0:0:0:0:
392,336,77914,6,0,P|424:272|464:264,2,100,0|0|0,0:0|0:0|0:0,0:0:0:0:
256,112,78514,5,0,0:0:0:0:
256,32,78714,1,0,0:0:0:0:
181,247,78914,5,0,0:0:0:0:
256,192,79114,5,0,0:0:0:0:
331,247,79314,5,0,0:0:0:0:
205,326,79514,6,0,L|325:327,1,100
8,328,79914,5,0,0:0:0:0:
256,32,80114,5,0,0:0:0:0:
504,328,80314,5,0,0:0:0:0:
78,53,80514,5,0,0:0:0:0:
96,120,80714,1,0,0:0:0:0:
30,101,80914,1,0,0:0:0:0:
434,53,81114,5,0,0:0:0:0:
416,120,81314,1,0,0:0:0:0:
482,101,81514,1,0,0:0:0:0:
256,368,81714,5,0,0:0:0:0:
256,16,81914,5,0,0:0:0:0:
64,264,82114,6,0,P|144:248|168:208,1,100
448,264,82414,6,0,P|368:248|344:208,1,100
256,192,82714,5,0,0:0:0:0:
40,40,82914,6,0,P|112:88|120:168,1,150
472,40,83314,6,0,P|400:88|392:168,1,150
33,290,83714,6,0,P|48:338|105:368,1,100
184,296,84014,2,0,P|168:247|111:217,1,100
108,293,84314,5,0,0:0:0:0:
479,290,84514,6,0,P|463:338|406:368,1,100
328,296,84814,2,0,P|343:247|400:217,1,100
404,293,85114,5,0,0:0:0:0:
80,104,85314,5,0,0:0:0:0:
256,48,85514,5,0,0:0:0:0:
256,73,85614,1,0,0:0:0:0:
256,98,85714,1,0,0:0:0:0:
432,104,85914,5,0,0:0:0:0:
256,214,86114,5,0,0:0:0:0:
256,239,86214,1,0,0:0:0:0:
256,264,86314,1,0,0:0:0:0:
16,192,86514,5,0,0:0:0:0:
496,192,86714,5,0,0:0:0:0:
256,192,86914,12,0,88714,0:0:0:0:
