osu file format v13

[General]
AudioFilename: Kuroko no Basuke OST 2 CD1 - 26 The Other Self TV size.mp3
AudioLeadIn: 0
PreviewTime: 58152
Countdown: 1
SampleSet: Normal
StackLeniency: 0.2
Mode: 0
LetterboxInBreaks: 1
WidescreenStoryboard: 1

[Editor]
DistanceSpacing: 1.1
BeatDivisor: 2
GridSize: 8
TimelineZoom: 2.4

[Metadata]
Title:The other self
TitleUnicode:The other self
Artist:GRANRODEO
ArtistUnicode:GRANRODEO
Creator:monstrata
Version:Momoi
Source:
Tags:
BeatmapID:565160
BeatmapSetID:240656

[Difficulty]
HPDrainRate:2
CircleSize:2
OverallDifficulty:2
ApproachRate:3
SliderMultiplier:1
SliderTickRate:1

[Events]
//Background and Video events
0,0,"momoi-satsuki-full-1307422.jpg",0,0
//Break Periods
//Storyboard Layer 0 (Background)
//Storyboard Layer 1 (Fail)
//Storyboard Layer 2 (Pass)
//Storyboard Layer 3 (Foreground)
//Storyboard Sound Samples

[TimingPoints]
514,400,4,1,0,100,1,0
57552,-100,4,1,0,100,0,1
88752,-100,4,1,0,100,0,0

[HitObjects]
154,180,514,6,0,P|182:265|289:293,1,200
357,203,1714,2,0,P|329:118|222:90,1,200
256,192,2914,1,0,0:0:0:0:
64,88,3714,6,0,B|168:48|168:128|272:80,1,200
448,296,5314,2,0,B|344:336|344:256|240:304,1,200
96,296,6914,6,0,B|80:248|80:248|192:224|176:104,1,200
256,72,8114,1,0,0:0:0:0:
334,149,8514,2,0,B|320:224|432:248|432:248|416:296,1,200
200,288,10114,6,0,P|160:256|112:240,2,100,0|0|0,0:0|0:0|0:0,0:0:0:0:
256,192,11314,1,0,0:0:0:0:
312,288,11714,2,0,P|352:256|400:240,2,100,0|0|0,0:0|0:0|0:0,0:0:0:0:
256,192,12914,1,0,0:0:0:0:
256,192,13314,12,0,16114,0:0:0:0:
272,272,17114,6,0,P|200:320|176:328,1,100
152,208,17914,2,0,P|224:160|248:152,1,100
264,48,18714,2,0,P|344:104|344:192,1,175
328,304,19714,6,0,P|272:280|232:280,1,100
123,198,20514,2,0,P|171:161|191:127,1,100
316,73,21314,2,0,P|324:134|344:168,1,100
240,192,22114,2,0,P|184:168|160:120,1,100
256,96,22914,6,0,B|312:96|312:96|376:128,2,100,0|0|0,0:0|0:0|0:0,0:0:0:0:
256,208,24114,1,0,0:0:0:0:
256,320,24514,2,0,B|200:320|200:320|136:288,2,100,0|0|0,0:0|0:0|0:0,0:0:0:0:
352,264,25714,1,0,0:0:0:0:
360,152,26114,6,0,L|312:56,1,100
200,64,26914,2,0,L|155:153,1,100
112,256,27714,2,0,B|192:296|256:272|256:272|320:296|416:256,1,300
400,144,29314,6,0,L|448:72,2,75,0|0|0,0:0|0:0|0:0,0:0:0:0:
256,48,30714,6,0,B|184:112|256:192|256:192|336:280|256:352,1,350
144,352,32514,1,0,0:0:0:0:
72,272,32914,1,0,0:0:0:0:
72,160,33314,6,0,L|152:80,2,100,0|0|0,0:0|0:0|0:0,0:0:0:0:
168,208,34514,2,0,P|256:168|344:216,1,200
432,272,35714,2,0,P|456:232|448:176,1,100
416,72,36514,6,0,P|344:88|320:120,1,100
256,24,37314,2,0,P|216:86|222:125,1,100
108,103,38114,2,0,P|124:175|156:199,1,100
160,301,38914,2,0,P|256:328|352:296,2,200,0|0|0,0:0|0:0|0:0,0:0:0:0:
136,192,42114,6,0,P|88:152|88:96,1,100,0|0,0:0|0:0,0:0:0:0:
192,96,42914,1,0,0:0:0:0:
256,184,43314,2,0,P|232:248|256:328,1,150
344,256,44314,2,0,P|416:248|456:184,1,150
400,104,45314,6,0,L|456:40,2,75,0|0|0,0:0|0:0|0:0,0:0:0:0:
256,176,46514,1,0,0:0:0:0:
168,112,46914,2,0,L|112:48,2,75,0|0|0,0:0|0:0|0:0,0:0:0:0:
256,280,48514,6,0,B|288:296|288:296|320:296|320:296|352:320,1,100
344,208,49314,6,0,L|394:208,2,50,0|0|0,0:0|0:0|0:0,0:0:0:0:
304,176,49914,2,0,L|416:104,2,100,0|0|0,0:0|0:0|0:0,0:0:0:0:
232,96,51114,2,0,L|136:152,1,100
120,168,51714,6,0,B|104:216|104:216|120:264,1,100
208,328,52514,2,0,B|256:344|256:344|304:328,1,100
392,264,53314,2,0,B|408:216|408:216|392:168,1,100
304,104,54114,2,0,B|256:88|256:88|208:104,1,100
132,182,54914,6,0,B|196:222|196:222|236:302,1,150
284,286,55714,2,0,B|317:219|317:219|381:179,1,150
384,128,56514,2,0,L|456:88,2,75,0|0|0,0:0|0:0|0:0,0:0:0:0:
344,88,57314,2,0,L|256:136,1,100
152,168,58114,6,0,P|120:120|64:96,2,100,0|0|0,0:0|0:0|0:0,0:0:0:0:
256,192,59314,1,0,0:0:0:0:
360,168,59714,2,0,P|392:120|448:96,2,100,0|0|0,0:0|0:0|0:0,0:0:0:0:
256,192,60914,1,0,0:0:0:0:
256,80,61314,6,0,P|351:128|360:226,1,200
363,323,62514,1,0,0:0:0:0:
256,304,62914,2,0,P|161:256|152:158,1,200
256,192,64114,1,0,0:0:0:0:
352,136,64514,6,0,P|416:112|448:72,2,100,0|0|0,0:0|0:0|0:0,0:0:0:0:
256,88,65714,1,0,0:0:0:0:
160,136,66114,2,0,P|96:112|64:72,2,100,0|0|0,0:0|0:0|0:0,0:0:0:0:
256,192,67314,1,0,0:0:0:0:
184,280,67714,6,0,P|144:328|80:336,1,100
88,232,68514,2,0,P|66:173|91:113,1,100
176,176,69314,2,0,P|237:186|276:238,2,100,0|0|0,0:0|0:0|0:0,0:0:0:0:
256,96,70514,1,0,0:0:0:0:
332,178,70914,6,0,P|371:259|320:358,1,200
256,264,72114,1,0,0:0:0:0:
180,178,72514,2,0,P|141:259|192:358,1,200
256,264,73714,1,0,0:0:0:0:
320,176,74114,6,0,P|256:136|192:176,1,150
256,264,75114,2,0,L|256:376,2,100,0|0|0,0:0|0:0|0:0,0:0:0:0:
256,48,76714,6,0,L|344:48,2,50,0|0|0,0:0|0:0|0:0,0:0:0:0:
200,56,77314,2,0,P|144:136|200:208,1,200
312,328,78914,6,0,P|368:248|312:176,1,200
168,64,80514,6,0,P|256:24|343:67,1,200
256,136,81714,1,0,0:0:0:0:
344,208,82114,2,0,P|256:248|168:208,2,200,0|0|0,0:0|0:0|0:0,0:0:0:0:
256,128,84514,5,0,0:0:0:0:
170,330,85314,1,0,0:0:0:0:
338,330,85914,1,0,0:0:0:0:
256,192,86514,2,0,L|256:80,1,100
256,192,87114,12,0,88714,0:0:0:0:
