osu file format v13

[General]
AudioFilename: Kuroko no Basuke OST 2 CD1 - 26 The Other Self TV size.mp3
AudioLeadIn: 0
PreviewTime: 58122
Countdown: 1
SampleSet: Soft
StackLeniency: 0.2
Mode: 0
LetterboxInBreaks: 1
WidescreenStoryboard: 1

[Editor]
DistanceSpacing: 1.1
BeatDivisor: 4
GridSize: 8
TimelineZoom: 4.000004

[Metadata]
Title:The other self
TitleUnicode:The other self
Artist:GRANRODEO
ArtistUnicode:GRANRODEO
Creator:monstrata
Version:Light & Shadow
Source:
Tags:
BeatmapID:567616
BeatmapSetID:240656

[Difficulty]
HPDrainRate:4
CircleSize:4
OverallDifficulty:7.5
ApproachRate:9
SliderMultiplier:1.6
SliderTickRate:2

[Events]
//Background and Video events
0,0,"Kagami-x-Kuroko-kuroko-no-basuke-35706183-862-520.jpg",0,0
//Break Periods
//Storyboard Layer 0 (Background)
//Storyboard Layer 1 (Fail)
//Storyboard Layer 2 (Pass)
//Storyboard Layer 3 (Foreground)
//Storyboard Sound Samples

[TimingPoints]
514,400,4,2,1,100,1,0
1722,-76.9230769230769,4,2,1,100,0,0
2822,-100,4,2,1,100,0,0
7422,-76.9230769230769,4,2,1,100,0,0
8522,-100,4,2,1,100,0,0
16522,-76.9230769230769,4,2,1,100,0,0
19722,-100,4,2,1,100,0,0
20322,-76.9230769230769,4,2,1,100,0,0
21322,-100,4,2,1,100,0,0
24722,-76.9230769230769,4,2,1,100,0,0
25122,-100,4,2,1,100,0,0
25522,-76.9230769230769,4,2,1,100,0,0
27722,-100,4,2,1,100,0,0
32522,-100,4,2,1,100,0,0
32622,-100,4,2,1,20,0,0
33922,-76.9230769230769,4,2,1,20,0,0
34122,-100,4,2,1,100,0,0
34222,-100,4,2,1,20,0,0
34722,-100,4,2,1,50,0,0
35322,-100,4,2,1,65,0,0
35722,-100,4,2,1,100,0,0
35822,-100,4,2,1,20,0,0
36322,-100,4,2,1,50,0,0
36922,-100,4,2,1,65,0,0
37322,-100,4,2,1,100,0,0
37422,-100,4,2,1,20,0,0
37922,-100,4,2,1,50,0,0
38522,-100,4,2,1,65,0,0
38922,-100,4,2,1,100,0,0
42922,-76.9230769230769,4,2,1,100,0,0
43722,-100,4,2,1,100,0,0
44722,-76.9230769230769,4,2,1,100,0,0
45322,-100,4,2,1,100,0,0
50322,-76.9230769230769,4,2,1,100,0,0
50722,-100,4,2,1,100,0,0
51722,-76.9230769230769,4,2,1,100,0,0
52522,-100,4,2,1,100,0,0
53322,-76.9230769230769,4,2,1,100,0,0
54122,-100,4,2,1,100,0,0
54922,-76.9230769230769,4,2,1,100,0,0
55722,-100,4,2,1,100,0,0
58122,-76.9230769230769,4,2,1,100,0,1
59722,-66.6666666666667,4,2,1,100,0,1
61322,-76.9230769230769,4,2,1,100,0,1
61622,-66.6666666666667,4,2,1,100,0,1
61922,-76.9230769230769,4,2,1,100,0,1
65122,-76.9230769230769,4,2,1,100,0,1
67722,-66.6666666666667,4,2,1,100,0,1
68522,-76.9230769230769,4,2,1,100,0,1
69322,-66.6666666666667,4,2,1,100,0,1
70922,-76.9230769230769,4,2,1,100,0,1
72122,-66.6666666666667,4,2,1,100,0,1
88722,-100,4,1,0,100,0,0

[HitObjects]
48,192,514,6,0,B|120:144|120:232|200:192,1,160
256,128,1114,1,0,0:0:0:0:
256,256,1414,1,0,0:0:0:0:
496,192,1714,6,0,B|392:248|392:136|288:192,1,207.999990478516
256,100,2314,1,0,0:0:0:0:
256,283,2514,1,0,0:0:0:0:
96,192,2814,6,0,L|200:192,1,80
360,72,3114,5,0,0:0:0:0:
360,312,3314,1,0,0:0:0:0:
184,224,3714,6,0,P|168:192|200:144,2,80,0|0|0,0:0|0:0|0:0,0:0:0:0:
116,104,4314,5,0,0:0:0:0:
142,24,4514,1,0,0:0:0:0:
225,24,4714,1,0,0:0:0:0:
251,104,4914,1,0,0:0:0:0:
184,152,5114,1,0,0:0:0:0:
452,311,5314,6,0,B|496:238|416:238|456:160,2,160,0|0|0,0:0|0:0|0:0,0:0:0:0:
160,304,6314,5,0,0:0:0:0:
96,192,6514,1,0,0:0:0:0:
160,80,6714,1,0,0:0:0:0:
464,304,6914,6,0,P|432:280|384:280,1,80
416,200,7214,2,0,P|376:195|334:219,1,80
328,128,7514,6,0,P|280:152|256:208,1,103.999995239258
160,272,7914,1,0,0:0:0:0:
256,328,8114,1,0,0:0:0:0:
352,272,8314,1,0,0:0:0:0:
328,72,8514,6,0,P|256:40|184:72,1,160
256,128,9114,1,0,0:0:0:0:
256,256,9314,1,0,0:0:0:0:
256,40,9514,5,0,0:0:0:0:
256,192,9714,1,0,0:0:0:0:
256,344,9914,1,0,0:0:0:0:
392,72,10114,6,0,L|448:144,1,80
432,272,10514,2,0,L|376:200,1,80
96,213,10914,5,0,0:0:0:0:
51,101,11114,1,0,0:0:0:0:
162,56,11314,1,0,0:0:0:0:
208,168,11514,1,0,0:0:0:0:
376,336,11714,6,0,P|336:320|312:288,1,80
392,256,12114,2,0,P|432:272|456:304,1,80
136,304,12514,5,0,0:0:0:0:
130,279,12614,1,0,0:0:0:0:
131,254,12714,1,0,0:0:0:0:
138,230,12814,1,0,0:0:0:0:
150,209,12914,1,0,0:0:0:0:
168,191,13014,1,0,0:0:0:0:
190,179,13114,1,0,0:0:0:0:
214,172,13214,1,0,0:0:0:0:
239,172,13314,6,0,P|284:184|311:214,1,80
213,264,13714,1,0,0:0:0:0:
213,119,13914,1,0,0:0:0:0:
340,192,14114,1,0,0:0:0:0:
115,191,14314,5,0,0:0:0:0:
326,70,14514,1,0,0:0:0:0:
326,313,14714,1,0,0:0:0:0:
40,72,14914,5,0,0:0:0:0:
432,80,15114,5,0,0:0:0:0:
440,98,15214,1,0,0:0:0:0:
448,116,15314,1,0,0:0:0:0:
88,184,15514,5,0,0:0:0:0:
480,192,15714,5,0,0:0:0:0:
488,210,15814,1,0,0:0:0:0:
496,228,15914,1,0,0:0:0:0:
136,296,16114,6,0,P|184:304|232:288,1,80
168,184,16514,6,0,P|176:136|224:104,1,103.999995239258
296,104,16814,2,0,P|337:133|346:183,1,103.999995239258
256,192,17114,5,0,0:0:0:0:
256,232,17314,1,0,0:0:0:0:
256,264,17514,1,0,0:0:0:0:
256,304,17714,1,0,0:0:0:0:
256,336,17914,5,0,0:0:0:0:
96,192,18314,5,0,0:0:0:0:
256,48,18714,5,0,0:0:0:0:
416,192,19114,5,0,0:0:0:0:
320,192,19314,1,0,0:0:0:0:
224,192,19514,1,0,0:0:0:0:
128,192,19714,2,0,B|104:144|104:144|128:88|192:88,1,160
432,352,20314,6,0,L|392:296,1,51.999997619629
334,217,20514,1,0,0:0:0:0:
492,268,20714,1,0,0:0:0:0:
334,320,20914,1,0,0:0:0:0:
432,185,21114,1,0,0:0:0:0:
80,184,21314,6,0,P|104:152|142:140,1,80
434,219,21714,5,0,0:0:0:0:
369,331,21914,1,0,0:0:0:0:
140,331,22114,5,0,0:0:0:0:
75,219,22314,1,0,0:0:0:0:
191,22,22514,5,0,0:0:0:0:
321,22,22714,1,0,0:0:0:0:
56,328,22914,6,0,P|96:320|136:328,1,80
256,24,23314,5,0,0:0:0:0:
399,125,23514,1,0,0:0:0:0:
240,198,23714,1,0,0:0:0:0:
226,344,23914,5,0,0:0:0:0:
107,260,24114,1,0,0:0:0:0:
240,198,24314,2,0,P|280:184|336:200,1,80
392,264,24714,6,0,P|344:288|280:272,1,103.999995239258
184,104,25114,6,0,P|224:90|280:106,1,80
464,360,25514,6,0,P|416:384|352:368,2,103.999995239258,0|0|0,0:0|0:0|0:0,0:0:0:0:
80,120,26114,5,0,0:0:0:0:
112,216,26314,1,0,0:0:0:0:
432,264,26514,5,0,0:0:0:0:
400,168,26714,1,0,0:0:0:0:
125,29,26914,5,0,0:0:0:0:
80,120,27114,1,0,0:0:0:0:
387,355,27314,5,0,0:0:0:0:
432,264,27514,1,0,0:0:0:0:
112,216,27714,6,0,P|184:248|256:216,1,160
184,152,28314,1,0,0:0:0:0:
256,88,28514,5,0,0:0:0:0:
223,64,28614,1,0,0:0:0:0:
185,56,28714,1,0,0:0:0:0:
146,63,28814,1,0,0:0:0:0:
113,86,28914,1,0,0:0:0:0:
328,152,29114,5,0,0:0:0:0:
328,256,29314,2,0,B|400:296|400:296|424:344,2,120,0|0|0,0:0|0:0|0:0,0:0:0:0:
113,86,30114,5,0,0:0:0:0:
256,40,30314,1,0,0:0:0:0:
398,86,30514,1,0,0:0:0:0:
256,344,30714,5,0,0:0:0:0:
256,40,31114,5,0,0:0:0:0:
32,192,31514,5,0,0:0:0:0:
480,192,31914,5,0,0:0:0:0:
459,165,32014,1,0,0:0:0:0:
435,143,32114,1,0,0:0:0:0:
406,126,32214,1,0,0:0:0:0:
374,116,32314,1,0,0:0:0:0:
341,112,32414,1,0,0:0:0:0:
308,114,32514,6,0,P|232:136|168:224,1,160
56,296,33314,1,0,0:0:0:0:
168,280,33514,1,0,0:0:0:0:
96,184,33714,1,0,0:0:0:0:
506,57,33914,6,0,P|447:37|378:66,1,103.999995239258
360,192,34314,1,0,0:0:0:0:
387,330,34514,1,0,0:0:0:0:
256,296,34714,5,0,0:0:0:0:
114,331,34914,1,0,0:0:0:0:
152,192,35114,5,0,0:0:0:0:
112,58,35314,1,0,0:0:0:0:
256,88,35514,5,0,0:0:0:0:
387,58,35714,2,0,P|446:37|496:47,2,80,0|0|0,0:0|0:0|0:0,0:0:0:0:
256,88,36314,1,0,0:0:0:0:
256,383,36514,5,0,0:0:0:0:
409,345,36714,1,0,0:0:0:0:
63,192,36914,5,0,0:0:0:0:
102,345,37114,1,0,0:0:0:0:
256,0,37314,5,0,0:0:0:0:
102,38,37514,1,0,0:0:0:0:
447,192,37714,5,0,0:0:0:0:
409,38,37914,1,0,0:0:0:0:
234,274,38114,5,0,0:0:0:0:
173,170,38314,1,0,0:0:0:0:
277,109,38514,1,0,0:0:0:0:
338,213,38714,1,0,0:0:0:0:
400,312,38914,6,0,P|440:288|464:248,1,80
256,176,39314,5,0,0:0:0:0:
112,312,39514,6,0,P|72:288|48:248,1,80
152,64,39914,5,0,0:0:0:0:
256,96,40114,1,0,0:0:0:0:
360,64,40314,1,0,0:0:0:0:
256,352,40514,6,0,L|256:248,1,80
187,231,40814,2,0,L|277:283,1,80
326,231,41114,2,0,L|235:283,1,80
256,64,41514,5,0,0:0:0:0:
248,89,41614,1,0,0:0:0:0:
247,116,41714,1,0,0:0:0:0:
255,141,41814,1,0,0:0:0:0:
263,166,41914,1,0,0:0:0:0:
264,193,42014,1,0,0:0:0:0:
257,219,42114,6,0,P|208:304|168:304,2,120,0|0|0,0:0|0:0|0:0,0:0:0:0:
72,192,42914,6,0,P|88:128|192:112,1,155.999992858887
152,184,43314,2,0,P|136:248|32:264,1,155.999992858887
392,136,43714,6,0,B|440:160|440:160|464:208,1,80
392,136,44014,2,0,B|347:165|347:165|293:162,1,80
392,136,44314,2,0,B|388:82|388:82|418:37,1,80
352,304,44714,6,0,P|287:332|186:306,1,155.999992858887
168,304,45114,1,0,0:0:0:0:
384,64,45314,6,0,P|352:32|288:32,1,80
320,104,45614,2,0,P|276:92|216:120,1,80
280,168,45914,2,0,P|236:179|208:232,1,80
36,345,46314,5,0,0:0:0:0:
43,313,46414,1,0,0:0:0:0:
64,288,46514,1,0,0:0:0:0:
95,277,46614,1,0,0:0:0:0:
127,270,46714,1,0,0:0:0:0:
155,251,46814,1,0,0:0:0:0:
168,221,46914,6,0,L|120:136,1,80
216,160,47214,2,0,L|216:67,1,80
288,131,47514,2,0,L|334:50,1,80
400,224,47914,5,0,0:0:0:0:
430,235,48014,1,0,0:0:0:0:
447,264,48114,1,0,0:0:0:0:
443,296,48214,1,0,0:0:0:0:
420,319,48314,1,0,0:0:0:0:
388,324,48414,1,0,0:0:0:0:
359,307,48514,6,0,L|280:280,1,80
152,307,48814,2,0,L|227:281,1,80
256,208,49114,1,0,0:0:0:0:
480,104,49314,5,0,0:0:0:0:
432,192,49514,1,0,0:0:0:0:
480,272,49714,1,0,0:0:0:0:
112,80,49914,6,0,P|168:56|224:80,1,120
328,312,50314,6,0,P|256:336|176:312,1,155.999992858887
291,76,50714,6,0,P|346:56|400:80,1,120
352,192,51114,5,0,0:0:0:0:
320,182,51214,1,0,0:0:0:0:
287,181,51314,1,0,0:0:0:0:
255,191,51414,1,0,0:0:0:0:
223,201,51514,1,0,0:0:0:0:
190,202,51614,1,0,0:0:0:0:
158,194,51714,2,0,P|112:208|88:256,1,103.999995239258
168,272,52014,2,0,P|146:317|97:332,1,103.999995239258
24,360,52314,1,0,0:0:0:0:
353,194,52514,6,0,P|400:216|416:256,1,80
344,272,52814,2,0,P|366:304|403:317,1,80
472,352,53114,1,0,0:0:0:0:
158,189,53314,6,0,P|112:176|88:128,1,103.999995239258
168,112,53614,2,0,P|146:66|97:51,1,103.999995239258
24,24,53914,1,0,0:0:0:0:
353,189,54114,6,0,P|400:168|416:128,1,80
344,112,54414,2,0,P|366:79|403:66,1,80
472,32,54714,1,0,0:0:0:0:
112,344,54914,5,0,0:0:0:0:
200,344,55114,2,0,P|248:328|256:280,1,103.999995239258
256,192,55514,1,0,0:0:0:0:
400,56,55714,5,0,0:0:0:0:
312,56,55914,2,0,P|272:72|256:120,1,80
256,192,56314,1,0,0:0:0:0:
88,56,56514,5,0,0:0:0:0:
424,328,56814,5,0,0:0:0:0:
256,8,57114,5,0,0:0:0:0:
256,384,57314,5,0,0:0:0:0:
328,136,57714,5,0,0:0:0:0:
295,112,57814,1,0,0:0:0:0:
257,104,57914,1,0,0:0:0:0:
218,111,58014,1,0,0:0:0:0:
185,134,58114,6,0,P|144:168|136:240,1,103.999995239258
216,216,58514,1,0,0:0:0:0:
248,296,58714,2,0,P|288:264|296:192,1,103.999995239258
311,92,59114,1,0,0:0:0:0:
408,160,59314,1,0,0:0:0:0:
418,42,59514,1,0,0:0:0:0:
408,160,59714,6,0,P|448:200|448:272,1,120.000004577637
368,240,60114,1,0,0:0:0:0:
336,320,60314,2,0,P|288:272|288:208,1,120.000004577637
128,208,60714,1,0,0:0:0:0:
221,73,60914,1,0,0:0:0:0:
57,59,61114,1,0,0:0:0:0:
164,299,61314,6,0,P|204:331|255:336,1,103.999995239258
223,58,61614,6,0,P|166:73|131:120,1,120.000004577637
392,218,61914,6,0,P|399:167|380:120,1,103.999995239258
312,176,62314,1,0,0:0:0:0:
256,256,62514,1,0,0:0:0:0:
200,176,62714,1,0,0:0:0:0:
0,346,62914,5,0,0:0:0:0:
511,37,63114,5,0,0:0:0:0:
28,241,63314,5,0,0:0:0:0:
483,142,63514,5,0,0:0:0:0:
55,135,63714,5,0,0:0:0:0:
456,248,63914,5,0,0:0:0:0:
84,30,64114,5,0,0:0:0:0:
427,353,64314,5,0,0:0:0:0:
128,336,64514,5,0,0:0:0:0:
72,272,64714,1,0,0:0:0:0:
48,352,64914,1,0,0:0:0:0:
448,48,65114,6,0,P|376:80|312:48,1,155.999992858887
208,264,65514,5,0,0:0:0:0:
256,360,65714,1,0,0:0:0:0:
304,264,65914,1,0,0:0:0:0:
64,80,66114,6,0,P|80:128|128:152,1,103.999995239258
94,240,66414,2,0,P|127:202|124:148,1,103.999995239258
218,135,66714,2,0,P|168:124|123:154,1,103.999995239258
464,328,67114,5,0,0:0:0:0:
464,240,67314,1,0,0:0:0:0:
256,8,67514,5,0,0:0:0:0:
464,328,67714,6,0,P|408:312|376:256,1,120.000004577637
288,104,68014,2,0,P|344:120|376:176,1,120.000004577637
288,192,68314,1,0,0:0:0:0:
48,328,68514,6,0,P|104:312|136:256,1,103.999995239258
216,104,68814,2,0,P|160:120|128:176,1,103.999995239258
216,192,69114,1,0,0:0:0:0:
504,136,69314,6,0,P|528:192|504:248,2,120.000004577637,0|0|0,0:0|0:0|0:0,0:0:0:0:
0,192,69914,5,0,0:0:0:0:
440,192,70114,5,0,0:0:0:0:
411,182,70214,1,0,0:0:0:0:
381,178,70314,1,0,0:0:0:0:
352,182,70414,1,0,0:0:0:0:
324,193,70514,1,0,0:0:0:0:
296,204,70614,1,0,0:0:0:0:
266,209,70714,1,0,0:0:0:0:
237,203,70814,1,0,0:0:0:0:
209,192,70914,6,0,P|160:200|104:160,1,103.999995239258
176,112,71314,1,0,0:0:0:0:
144,32,71514,2,0,P|193:24|249:64,1,103.999995239258
464,360,71914,5,0,0:0:0:0:
408,192,72114,2,0,P|400:128|448:48,1,120.000004577637
72,272,72514,5,0,0:0:0:0:
176,264,72714,1,0,0:0:0:0:
216,360,72914,1,0,0:0:0:0:
64,147,73114,5,0,0:0:0:0:
248,133,73314,1,0,0:0:0:0:
320,304,73514,1,0,0:0:0:0:
56,16,73714,6,0,L|192:0,1,120.000004577637
456,368,74114,6,0,L|320:384,1,120.000004577637
256,304,74514,1,0,0:0:0:0:
175,382,74714,2,0,L|56:368,1,120.000004577637
448,48,75114,6,0,P|472:120|448:192,1,120.000004577637,0|0,0:0|0:0,0:0:0:0:
64,336,75514,6,0,P|40:264|64:192,1,120.000004577637,0|0,0:0|0:0,0:0:0:0:
447,300,75914,5,0,0:0:0:0:
366,247,76114,1,0,0:0:0:0:
360,344,76314,1,0,0:0:0:0:
256,8,76514,5,0,0:0:0:0:
65,300,76714,5,0,0:0:0:0:
146,247,76914,1,0,0:0:0:0:
152,344,77114,1,0,0:0:0:0:
424,80,77314,6,0,L|464:32,1,60.0000022888184
424,80,77514,2,0,L|445:138,1,60.0000022888184
424,80,77714,2,0,L|362:69,1,60.0000022888184
88,304,77914,6,0,L|48:352,1,60.0000022888184
88,304,78114,2,0,L|66:245,1,60.0000022888184
88,304,78314,2,0,L|149:314,1,60.0000022888184
464,344,78514,6,0,P|488:288|464:232,1,120.000004577637
190,282,78914,5,0,0:0:0:0:
256,80,79114,1,0,0:0:0:0:
321,282,79314,1,0,0:0:0:0:
150,157,79514,1,0,0:0:0:0:
361,157,79714,1,0,0:0:0:0:
64,192,79914,5,0,0:0:0:0:
256,80,80114,1,0,0:0:0:0:
448,192,80314,1,0,0:0:0:0:
196,234,80514,5,0,0:0:0:0:
204,139,80714,1,0,0:0:0:0:
345,127,80914,5,0,0:0:0:0:
333,271,81114,1,0,0:0:0:0:
121,288,81314,5,0,0:0:0:0:
139,73,81514,1,0,0:0:0:0:
458,47,81714,5,0,0:0:0:0:
430,369,81914,1,0,0:0:0:0:
200,32,82114,6,0,P|256:16|320:32,1,120.000004577637
312,352,82414,6,0,P|256:368|192:352,1,120.000004577637
256,192,82714,1,0,0:0:0:0:
40,280,82914,6,0,P|16:192|40:104,1,180.000006866455
472,104,83314,6,0,P|496:192|472:280,1,180.000006866455
120,144,83714,6,0,P|136:96|200:56,1,120.000004577637
392,240,84014,6,0,P|376:288|312:328,1,120.000004577637
256,8,84314,5,0,0:0:0:0:
191,326,84514,6,0,P|141:295|120:240,1,120.000004577637
320,57,84814,6,0,P|370:88|392:144,1,120.000004577637
256,376,85114,5,0,0:0:0:0:
13,16,85314,5,0,0:0:0:0:
473,351,85514,5,0,0:0:0:0:
448,330,85614,1,0,0:0:0:0:
424,310,85714,1,0,0:0:0:0:
498,16,85914,5,0,0:0:0:0:
38,351,86114,5,0,0:0:0:0:
63,330,86214,1,0,0:0:0:0:
87,310,86314,1,0,0:0:0:0:
512,0,86514,5,0,0:0:0:0:
0,384,86714,5,0,0:0:0:0:
256,192,86914,12,0,88714,0:0:0:0:
