osu file format v13

[General]
AudioFilename: Kuroko no Basuke OST 2 CD1 - 26 The Other Self TV size.mp3
AudioLeadIn: 0
PreviewTime: 58152
Countdown: 1
SampleSet: Normal
StackLeniency: 0.2
Mode: 0
LetterboxInBreaks: 1
WidescreenStoryboard: 0

[Editor]
DistanceSpacing: 1.1
BeatDivisor: 4
GridSize: 8
TimelineZoom: 2.4

[Metadata]
Title:The other self
TitleUnicode:The other self
Artist:GRANRODEO
ArtistUnicode:GRANRODEO
Creator:monstrata
Version:Kuroko
Source:
Tags:
BeatmapID:556104
BeatmapSetID:240656

[Difficulty]
HPDrainRate:7
CircleSize:4
OverallDifficulty:7.5
ApproachRate:8
SliderMultiplier:1.4
SliderTickRate:1

[Events]
//Background and Video events
0,0,"E9829Jh.jpg",0,0
//Break Periods
//Storyboard Layer 0 (Background)
//Storyboard Layer 1 (Fail)
//Storyboard Layer 2 (Pass)
//Storyboard Layer 3 (Foreground)
//Storyboard Sound Samples

[TimingPoints]
514,400,4,1,0,100,1,0
57552,-100,4,1,0,100,0,1
88752,-100,4,1,0,100,0,0

[HitObjects]
118,191,514,6,0,B|190:207|190:175|256:192,1,140,0|0,0:0|0:0,0:0:0:0:
118,191,1114,1,0,0:0:0:0:
293,281,1314,2,0,P|256:289|218:279,1,70
394,193,1714,2,0,B|322:177|322:209|256:192,1,140,0|0,0:0|0:0,0:0:0:0:
394,193,2314,1,0,0:0:0:0:
289,102,2514,2,0,P|257:94|219:102,1,70,0|0,0:0|0:0,0:0:0:0:
256,167,2814,2,0,L|256:228,1,35
256,328,3114,1,0,0:0:0:0:
256,96,3314,1,0,0:0:0:0:
382,210,3714,5,0,0:0:0:0:
352,128,3914,2,0,L|432:96,1,70
496,72,4314,1,0,0:0:0:0:
269,158,4514,1,0,0:0:0:0:
382,210,4714,1,0,0:0:0:0:
269,158,4914,1,0,0:0:0:0:
160,208,5114,1,0,0:0:0:0:
256,336,5314,6,0,B|256:304|256:304|280:272,1,70
224,192,5714,2,0,B|224:224|224:224|200:256,1,70
201,254,6114,1,0,0:0:0:0:
256,336,6314,1,0,0:0:0:0:
224,192,6514,1,0,0:0:0:0:
256,336,6714,1,0,0:0:0:0:
200,256,6914,6,0,P|130:254|94:197,1,140
243,56,7514,2,0,L|208:116,1,70
131,255,7914,1,0,0:0:0:0:
243,56,8114,1,0,0:0:0:0:
296,256,8314,1,0,0:0:0:0:
208,116,8514,2,0,L|173:177,2,70,0|0|0,0:0|0:0|0:0,0:0:0:0:
296,257,9114,1,0,0:0:0:0:
174,177,9314,1,0,0:0:0:0:
296,256,9514,1,0,0:0:0:0:
296,123,9714,1,0,0:0:0:0:
412,190,9914,1,0,0:0:0:0:
296,256,10114,6,0,L|216:256,1,70
296,123,10514,2,0,L|336:53,1,70
331,62,10914,1,0,0:0:0:0:
412,190,11114,1,0,0:0:0:0:
296,123,11314,2,0,L|261:183,1,70
132,252,11714,6,0,L|97:191,1,70
132,252,12114,1,0,0:0:0:0:
202,253,12314,2,0,L|132:253,1,70
132,253,12714,1,0,0:0:0:0:
124,234,12814,1,0,0:0:0:0:
120,215,12914,1,0,0:0:0:0:
124,195,13014,1,0,0:0:0:0:
133,177,13114,1,0,0:0:0:0:
140,158,13214,1,0,0:0:0:0:
140,138,13314,6,0,P|116:114|84:122,1,70
287,55,13714,1,0,0:0:0:0:
287,55,13914,1,0,0:0:0:0:
395,179,14114,1,0,0:0:0:0:
395,179,14314,1,0,0:0:0:0:
310,321,14514,1,0,0:0:0:0:
310,320,14714,1,0,0:0:0:0:
150,283,14914,1,0,0:0:0:0:
150,283,15114,1,0,0:0:0:0:
116,272,15214,1,0,0:0:0:0:
82,262,15314,1,0,0:0:0:0:
310,321,15514,1,0,0:0:0:0:
309,320,15714,1,0,0:0:0:0:
289,349,15814,1,0,0:0:0:0:
269,378,15914,1,0,0:0:0:0:
150,283,16114,6,0,L|216:224,1,70
289,186,16514,2,0,B|249:178|249:178|225:194|209:178|185:194|185:194|153:186,1,140
154,77,17114,1,0,0:0:0:0:
259,220,17314,1,0,0:0:0:0:
154,186,17514,1,0,0:0:0:0:
259,43,17714,1,0,0:0:0:0:
323,132,17914,6,0,P|367:147|385:171,1,70
274,280,18314,2,0,P|239:310|209:314,1,70
170,163,18714,2,0,P|161:118|173:90,1,70
169,97,19114,1,0,0:0:0:0:
275,280,19314,1,0,0:0:0:0:
169,97,19514,1,0,0:0:0:0:
275,280,19714,2,0,L|352:240,1,70
426,209,20114,1,0,0:0:0:0:
189,325,20314,1,0,0:0:0:0:
336,248,20514,6,0,L|294:171,1,70
253,100,20914,1,0,0:0:0:0:
387,334,21114,1,0,0:0:0:0:
253,100,21314,2,0,L|353:100,1,70
324,232,21714,1,0,0:0:0:0:
324,100,21914,1,0,0:0:0:0:
438,166,22114,1,0,0:0:0:0:
324,100,22314,1,0,0:0:0:0:
324,232,22514,1,0,0:0:0:0:
438,166,22714,1,0,0:0:0:0:
323,100,22914,6,0,L|253:100,1,70
253,100,23314,1,0,0:0:0:0:
80,160,23514,1,0,0:0:0:0:
216,32,23714,1,0,0:0:0:0:
253,100,23914,1,0,0:0:0:0:
80,160,24114,1,0,0:0:0:0:
129,209,24314,2,0,P|107:182|61:148,1,70
44,226,24714,1,0,0:0:0:0:
82,160,24914,1,0,0:0:0:0:
195,226,25114,1,0,0:0:0:0:
158,160,25314,1,0,0:0:0:0:
158,292,25514,1,0,0:0:0:0:
82,291,25714,1,0,0:0:0:0:
158,160,25914,1,0,0:0:0:0:
354,160,26114,6,0,P|339:129|300:124,1,70
306,122,26514,1,0,0:0:0:0:
240,88,26714,1,0,0:0:0:0:
306,122,26914,1,0,0:0:0:0:
176,128,27114,1,0,0:0:0:0:
306,122,27314,1,0,0:0:0:0:
113,168,27514,1,0,0:0:0:0:
306,122,27714,2,0,P|346:174|304:224,1,140,0|0,0:0|0:0,0:0:0:0:
113,168,28314,1,0,0:0:0:0:
306,122,28514,1,0,0:0:0:0:
304,224,28714,1,0,0:0:0:0:
288,224,28814,1,0,0:0:0:0:
272,224,28914,2,0,L|200:224,1,70
272,224,29314,6,0,L|192:128,2,105,0|0|0,0:0|0:0|0:0,0:0:0:0:
204,143,30114,2,0,L|272:96,1,70
352,136,30514,1,0,0:0:0:0:
205,144,30714,2,0,P|170:130|139:128,1,70
208,243,31114,2,0,P|194:278|192:309,1,70
307,240,31514,2,0,P|342:254|373:256,1,70
208,242,31914,1,0,0:0:0:0:
374,256,32114,1,0,0:0:0:0:
304,142,32314,1,0,0:0:0:0:
374,255,32514,6,0,B|401:279|401:279|409:311,1,70
376,200,32914,2,0,B|403:224|403:224|411:256,1,70
303,143,33314,1,0,0:0:0:0:
411,256,33514,1,0,0:0:0:0:
400,32,33714,1,0,0:0:0:0:
411,256,33914,2,0,P|344:272|264:256,1,140
185,231,34514,1,0,0:0:0:0:
274,260,34714,1,0,0:0:0:0:
274,109,34914,1,0,0:0:0:0:
328,184,35114,1,0,0:0:0:0:
185,138,35314,1,0,0:0:0:0:
275,109,35514,1,0,0:0:0:0:
274,260,35714,2,0,B|312:256|312:256|360:288|360:288|416:280,1,140
275,261,36314,5,0,0:0:0:0:
400,160,36514,2,0,P|368:144|328:136,1,70
445,213,36914,2,0,P|425:183|394:156,1,70
330,64,37314,1,0,0:0:0:0:
400,160,37514,1,0,0:0:0:0:
400,42,37714,1,0,0:0:0:0:
330,137,37914,1,0,0:0:0:0:
442,101,38114,1,0,0:0:0:0:
319,144,38314,1,0,0:0:0:0:
404,29,38514,1,0,0:0:0:0:
404,172,38714,1,0,0:0:0:0:
320,56,38914,6,0,P|288:48|248:56,1,70
288,216,39314,1,0,0:0:0:0:
252,54,39514,2,0,P|286:47|320:56,1,70
288,216,39914,1,0,0:0:0:0:
212,348,40114,1,0,0:0:0:0:
365,349,40314,1,0,0:0:0:0:
288,216,40514,2,0,L|248:280,1,70
365,349,40914,1,0,0:0:0:0:
288,216,41114,2,0,L|252:149,1,70
255,154,41514,5,0,0:0:0:0:
271,147,41614,1,0,0:0:0:0:
288,146,41714,1,0,0:0:0:0:
305,152,41814,1,0,0:0:0:0:
321,158,41914,1,0,0:0:0:0:
339,158,42014,1,0,0:0:0:0:
357,154,42114,2,0,P|406:130|436:91,2,105,0|0|0,0:0|0:0|0:0,0:0:0:0:
436,90,42914,6,0,P|464:132|465:165,1,70
357,155,43314,2,0,P|315:182|282:183,1,70
296,185,43714,2,0,P|246:161|189:153,2,105,0|0|0,0:0|0:0|0:0,0:0:0:0:
256,296,44714,1,0,0:0:0:0:
296,184,44914,1,0,0:0:0:0:
408,216,45114,1,0,0:0:0:0:
296,184,45314,2,0,L|352:296,2,105,0|0|0,0:0|0:0|0:0,0:0:0:0:
342,277,46314,5,0,0:0:0:0:
331,254,46414,1,0,0:0:0:0:
319,230,46514,1,0,0:0:0:0:
307,207,46614,1,0,0:0:0:0:
296,184,46714,1,0,0:0:0:0:
343,278,46914,2,0,L|384:360,1,70
343,279,47214,2,0,L|251:273,1,70
343,278,47514,2,0,L|393:201,1,70
381,219,47914,5,0,0:0:0:0:
381,201,48014,1,0,0:0:0:0:
381,184,48114,1,0,0:0:0:0:
381,166,48214,1,0,0:0:0:0:
381,149,48314,2,0,L|431:72,1,70
381,219,48714,6,0,P|303:231|236:218,1,140
240,144,49314,1,0,0:0:0:0:
380,219,49514,1,0,0:0:0:0:
240,96,49714,1,0,0:0:0:0:
348,226,49914,2,0,P|309:232|275:225,1,70
239,95,50314,2,0,P|264:126|275:158,1,70
180,254,50714,2,0,P|194:217|217:192,1,70
349,226,51114,1,0,0:0:0:0:
181,256,51314,1,0,0:0:0:0:
240,95,51514,1,0,0:0:0:0:
349,226,51714,6,0,L|295:308,1,70
256,232,52114,1,0,0:0:0:0:
180,255,52314,1,0,0:0:0:0:
193,337,52514,2,0,L|272:311,1,70
257,233,52914,1,0,0:0:0:0:
234,157,53114,1,0,0:0:0:0:
227,87,53314,6,0,L|234:160,1,70,0|0,0:0|0:0,0:0:0:0:
347,213,53714,1,0,0:0:0:0:
462,168,53914,1,0,0:0:0:0:
391,265,54114,2,0,L|334:198,1,70
462,168,54514,1,0,0:0:0:0:
391,265,54714,1,0,0:0:0:0:
256,304,54914,6,0,L|328:275,1,70
96,256,55214,1,0,0:0:0:0:
256,304,55514,1,0,0:0:0:0:
256,304,55714,6,0,L|191:277,1,70
416,256,56014,1,0,0:0:0:0:
256,304,56314,1,0,0:0:0:0:
256,80,56514,1,0,0:0:0:0:
256,304,56814,1,0,0:0:0:0:
256,80,57114,1,0,0:0:0:0:
256,304,57314,1,0,0:0:0:0:
256,88,57714,5,0,0:0:0:0:
256,97,57814,1,0,0:0:0:0:
256,106,57914,1,0,0:0:0:0:
256,115,58014,1,0,0:0:0:0:
256,122,58114,2,0,L|256:204,1,70
368,282,58514,1,0,0:0:0:0:
256,192,58714,2,0,L|256:262,1,70
144,102,59114,1,0,0:0:0:0:
256,192,59314,1,0,0:0:0:0:
368,282,59514,1,0,0:0:0:0:
256,192,59714,6,0,L|316:157,1,70
176,240,60114,1,0,0:0:0:0:
316,157,60314,2,0,L|256:192,1,70
408,104,60714,1,0,0:0:0:0:
256,192,60914,1,0,0:0:0:0:
408,104,61114,1,0,0:0:0:0:
256,104,61314,6,0,P|216:96|184:96,1,70
145,151,61614,2,0,P|171:120|187:92,1,70
159,31,61914,2,0,P|172:69|188:97,1,70
267,259,62314,1,0,0:0:0:0:
188,95,62514,1,0,0:0:0:0:
267,113,62714,1,0,0:0:0:0:
301,186,62914,1,0,0:0:0:0:
188,276,63114,1,0,0:0:0:0:
267,259,63314,1,0,0:0:0:0:
125,226,63514,1,0,0:0:0:0:
125,146,63714,1,0,0:0:0:0:
301,186,63914,1,0,0:0:0:0:
125,226,64114,1,0,0:0:0:0:
301,186,64314,1,0,0:0:0:0:
125,146,64514,6,0,P|154:124|189:114,1,70
266,98,64914,1,0,0:0:0:0:
125,146,65114,2,0,P|96:168|61:178,1,70
64,177,65514,1,0,0:0:0:0:
146,228,65714,1,0,0:0:0:0:
266,98,65914,1,0,0:0:0:0:
146,228,66114,2,0,L|225:185,1,70
146,228,66414,2,0,L|234:214,1,70
147,229,66714,2,0,L|235:246,1,70
391,274,67114,1,0,0:0:0:0:
215,242,67314,1,0,0:0:0:0:
380,108,67514,1,0,0:0:0:0:
392,176,67714,6,0,P|384:120|368:80,1,70
448,96,68014,2,0,P|392:104|352:120,1,70
296,64,68314,1,0,0:0:0:0:
120,104,68514,2,0,P|176:112|216:128,1,70
200,48,68814,2,0,P|192:104|176:144,1,70
232,200,69114,1,0,0:0:0:0:
200,48,69314,2,0,B|120:32|120:32|80:40,2,105,0|0|0,0:0|0:0|0:0,0:0:0:0:
97,36,70114,1,0,0:0:0:0:
82,58,70214,1,0,0:0:0:0:
73,82,70314,1,0,0:0:0:0:
69,108,70414,1,0,0:0:0:0:
72,136,70514,2,0,P|80:176|112:208,1,70
152,272,70914,5,0,0:0:0:0:
360,272,71114,1,0,0:0:0:0:
256,248,71314,1,0,0:0:0:0:
360,272,71514,1,0,0:0:0:0:
256,91,71714,1,0,0:0:0:0:
287,193,71914,1,0,0:0:0:0:
360,272,72114,2,0,L|448:320,1,70
424,152,72514,5,0,0:0:0:0:
360,272,72714,1,0,0:0:0:0:
256,91,72914,1,0,0:0:0:0:
193,209,73114,1,0,0:0:0:0:
256,92,73314,1,0,0:0:0:0:
361,270,73514,1,0,0:0:0:0:
193,209,73714,2,0,L|99:204,1,70
257,92,74114,6,0,L|308:13,1,70
193,209,74514,1,0,0:0:0:0:
257,93,74714,2,0,L|340:50,1,70
333,56,75114,2,0,L|240:104,1,105
240,104,75514,2,0,L|240:220,1,105
240,209,75914,2,0,L|333:256,1,105
333,256,76314,1,0,0:0:0:0:
240,208,76514,1,0,0:0:0:0:
240,104,76714,1,0,0:0:0:0:
240,208,76914,1,0,0:0:0:0:
152,256,77114,1,0,0:0:0:0:
78,160,77314,5,0,0:0:0:0:
63,40,77514,1,0,0:0:0:0:
176,88,77714,1,0,0:0:0:0:
63,40,77914,1,0,0:0:0:0:
78,160,78114,1,0,0:0:0:0:
176,88,78314,1,0,0:0:0:0:
336,88,78514,1,0,0:0:0:0:
176,88,78714,1,0,0:0:0:0:
336,88,78914,5,0,0:0:0:0:
434,160,79114,1,0,0:0:0:0:
449,40,79314,1,0,0:0:0:0:
336,88,79514,1,0,0:0:0:0:
449,40,79714,1,0,0:0:0:0:
434,160,79914,1,0,0:0:0:0:
256,192,80114,1,0,0:0:0:0:
78,160,80314,1,0,0:0:0:0:
256,262,80514,6,0,L|256:166,1,70
256,344,80914,1,0,0:0:0:0:
256,191,81114,2,0,L|339:143,1,70
184,231,81514,2,0,L|100:279,1,70
184,231,81914,1,0,0:0:0:0:
318,156,82114,2,0,B|286:132|286:132|238:116,1,70
199,157,82414,2,0,B|235:141|235:141|273:107,1,70
258,121,82714,1,0,0:0:0:0:
288,323,82914,2,0,L|254:263,1,70
223,60,83314,2,0,L|258:121,1,70
288,323,83714,5,0,0:0:0:0:
286,209,83914,2,0,L|223:173,1,70
223,60,84314,1,0,0:0:0:0:
124,224,84514,1,0,0:0:0:0:
225,174,84714,2,0,L|286:209,1,70
387,159,85114,1,0,0:0:0:0:
256,192,85314,5,0,0:0:0:0:
124,224,85514,1,0,0:0:0:0:
90,233,85614,1,0,0:0:0:0:
56,241,85714,1,0,0:0:0:0:
256,192,85914,1,0,0:0:0:0:
387,159,86114,1,0,0:0:0:0:
421,150,86214,1,0,0:0:0:0:
455,142,86314,1,0,0:0:0:0:
56,241,86514,1,0,0:0:0:0:
455,142,86714,1,0,0:0:0:0:
256,192,86914,12,0,88714,0:0:0:0:
