osu file format v13

[General]
AudioFilename: Kuroko no Basuke OST 2 CD1 - 26 The Other Self TV size.mp3
AudioLeadIn: 0
PreviewTime: 58152
Countdown: 1
SampleSet: None
StackLeniency: 0.2
Mode: 0
LetterboxInBreaks: 1
WidescreenStoryboard: 1

[Editor]
DistanceSpacing: 1.1
BeatDivisor: 4
GridSize: 8
TimelineZoom: 4.059999

[Metadata]
Title:The other self
TitleUnicode:The other self
Artist:GRANRODEO
ArtistUnicode:GRANRODEO
Creator:monstrata
Version:Kiyoshi
Source:
Tags:
BeatmapID:571534
BeatmapSetID:240656

[Difficulty]
HPDrainRate:5
CircleSize:3.5
OverallDifficulty:5
ApproachRate:7.5
SliderMultiplier:1.6
SliderTickRate:1

[Events]
//Background and Video events
0,0,"Seirin.High.full.1207769.jpg",0,0
//Break Periods
//Storyboard Layer 0 (Background)
//Storyboard Layer 1 (Fail)
//Storyboard Layer 2 (Pass)
//Storyboard Layer 3 (Foreground)
//Storyboard Sound Samples

[TimingPoints]
514,400,4,1,0,100,1,0
30614,-133.333333333333,4,1,0,100,0,0
30752,-133.333333333333,4,1,0,100,0,0
32352,-100,4,1,0,100,0,0
57552,-100,4,1,0,100,0,1
88752,-100,4,1,0,100,0,0

[HitObjects]
232,232,514,6,0,B|192:160|192:160|232:88,1,160
288,160,1114,2,0,B|328:232|328:232|288:304,1,160
200,296,1714,6,0,B|152:272|152:272|104:296|104:296|56:272,1,160
96,192,2314,2,0,B|128:168|128:168|152:112,2,80,0|0|0,0:0|0:0|0:0,0:0:0:0:
232,112,2914,2,0,L|320:56,2,80,0|0|0,0:0|0:0|0:0,0:0:0:0:
200,288,3714,6,0,B|192:328|192:328|208:376,1,80
312,288,4114,2,0,B|320:328|320:328|304:376,1,80
176,208,4514,2,0,B|142:230|142:230|119:275,1,80
336,208,4914,2,0,B|369:230|369:230|392:275,1,80
448,200,5314,6,0,B|448:152|448:152|408:112,1,80
344,96,5714,1,0,0:0:0:0:
256,80,5914,1,0,0:0:0:0:
168,96,6114,2,0,B|112:120|112:120|112:139,1,80
32,176,6514,1,0,0:0:0:0:
56,264,6714,1,0,0:0:0:0:
256,280,6914,6,0,B|288:256|288:256|336:256,1,80
256,280,7214,2,0,B|260:319|260:319|236:361,1,80
256,280,7514,2,0,B|219:264|219:264|195:222,1,80
128,176,7914,6,0,B|160:144|160:144|160:88,1,80
216,40,8314,1,0,0:0:0:0:
296,40,8514,1,0,0:0:0:0:
352,109,8714,2,0,B|352:144|352:144|384:176,1,80
384,272,9114,1,0,0:0:0:0:
320,336,9314,1,0,0:0:0:0:
192,336,9514,1,0,0:0:0:0:
128,272,9714,1,0,0:0:0:0:
128,176,9914,1,0,0:0:0:0:
256,48,10114,6,0,B|312:72|312:72|352:136,1,120
344,168,10514,2,0,L|344:256,1,80
256,336,10914,2,0,B|200:312|200:312|160:248,1,120
168,216,11314,2,0,L|168:128,1,80
256,112,11714,6,0,B|296:136|296:136|352:136,1,80
256,272,12114,2,0,B|296:248|296:248|352:248,1,80
344,136,12514,2,0,B|392:136|392:136|456:160,1,80
344,248,12914,2,0,B|392:248|392:248|456:224,1,80
152,192,13314,6,0,L|48:192,1,80
24,120,13714,1,0,0:0:0:0:
40,104,13914,1,0,0:0:0:0:
56,88,14114,1,0,0:0:0:0:
136,48,14314,1,0,0:0:0:0:
152,64,14514,1,0,0:0:0:0:
168,80,14714,1,0,0:0:0:0:
248,136,14914,6,0,P|312:104|392:144,1,160
387,245,15514,2,0,P|318:280|248:248,1,160
96,224,16114,2,0,P|80:192|104:148,1,80
256,64,16514,6,0,B|304:160|304:160|232:200,1,160
176,216,17114,1,0,0:0:0:0:
96,248,17314,2,0,L|-8:296,2,80,0|0|0,0:0|0:0|0:0,0:0:0:0:
256,304,17914,6,0,B|336:328|336:328|424:296,2,160,0|0|0,0:0|0:0|0:0,0:0:0:0:
328,144,19114,1,0,0:0:0:0:
224,144,19314,1,0,0:0:0:0:
184,240,19514,1,0,0:0:0:0:
328,144,19714,6,0,P|392:120|360:32,1,160,0|0,0:0|0:0,0:0:0:0:
256,96,20314,1,0,0:0:0:0:
144,160,20514,2,0,B|184:184|184:184|240:184,1,80
360,224,20914,2,0,B|320:248|320:248|264:248,1,80
176,264,21314,6,0,B|191:308|191:308|234:344,1,80
304,328,21714,1,0,0:0:0:0:
392,312,21914,1,0,0:0:0:0:
464,264,22114,1,0,0:0:0:0:
512,192,22314,1,0,0:0:0:0:
424,104,22514,2,0,L|328:88,1,80
88,104,22914,6,0,L|184:88,1,80
181,194,23314,2,0,B|256:221|256:221|333:192,1,160
336,280,23914,1,0,0:0:0:0:
256,320,24114,1,0,0:0:0:0:
176,280,24314,6,0,L|80:232,1,80
176,72,24714,2,0,L|272:120,1,80
360,256,25114,2,0,L|264:208,1,80
360,48,25514,1,0,0:0:0:0:
464,96,25714,1,0,0:0:0:0:
376,160,25914,1,0,0:0:0:0:
136,224,26114,6,0,B|96:232|96:232|48:288,1,80
168,144,26514,2,0,B|129:130|129:130|59:155,1,80
235,90,26914,2,0,B|208:59|208:59|135:45,1,80
317,74,27314,2,0,B|309:34|309:34|253:-14,1,80
288,152,27714,5,0,0:0:0:0:
383,283,27914,1,0,0:0:0:0:
230,233,28114,1,0,0:0:0:0:
383,183,28314,1,0,0:0:0:0:
288,314,28514,5,0,0:0:0:0:
270,323,28614,1,0,0:0:0:0:
250,326,28714,1,0,0:0:0:0:
231,322,28814,1,0,0:0:0:0:
213,312,28914,1,0,0:0:0:0:
195,304,29014,1,0,0:0:0:0:
176,302,29114,1,0,0:0:0:0:
157,307,29214,1,0,0:0:0:0:
140,319,29314,6,0,B|83:294|83:294|53:239,2,120,0|0|0,0:0|0:0|0:0,0:0:0:0:
144,232,30114,1,0,0:0:0:0:
104,152,30314,1,0,0:0:0:0:
144,72,30514,1,0,0:0:0:0:
360,232,30714,6,0,L|412:322,1,90.0000034332277
296,280,31114,2,0,L|314:382,1,90.0000034332277
216,280,31514,2,0,L|197:382,1,90.0000034332277
152,232,31914,1,0,0:0:0:0:
224,160,32114,1,0,0:0:0:0:
254,160,32214,1,0,0:0:0:0:
284,160,32314,1,0,0:0:0:0:
360,96,32514,6,0,B|312:48|312:48|240:48,1,120
224,72,32914,2,0,L|120:72,1,80
88,144,33314,1,0,0:0:0:0:
48,224,33514,1,0,0:0:0:0:
88,304,33714,1,0,0:0:0:0:
256,304,33914,6,0,P|284:253|255:205,1,120
288,176,34314,2,0,L|384:128,2,80,0|0|0,0:0|0:0|0:0,0:0:0:0:
184,240,34914,1,0,0:0:0:0:
79,274,35114,1,0,0:0:0:0:
15,185,35314,1,0,0:0:0:0:
79,95,35514,1,0,0:0:0:0:
184,130,35714,2,0,L|280:176,2,80,0|0|0,0:0|0:0|0:0,0:0:0:0:
256,80,36314,1,0,0:0:0:0:
328,128,36514,6,0,L|416:176,1,80
320,264,36914,2,0,L|272:352,1,80
200,296,37314,1,0,0:0:0:0:
112,176,37514,1,0,0:0:0:0:
88,280,37714,1,0,0:0:0:0:
232,176,37914,1,0,0:0:0:0:
352,80,38114,6,0,B|416:80|416:80|456:136,1,120
352,304,38514,2,0,B|416:304|416:304|456:248,1,120
416,192,38914,2,0,L|296:192,1,120
256,192,39314,1,0,0:0:0:0:
168,192,39514,2,0,L|80:192,1,80
136,112,39914,5,0,0:0:0:0:
184,272,40114,1,0,0:0:0:0:
232,96,40314,1,0,0:0:0:0:
280,256,40514,2,0,B|336:272|336:272|400:248,2,120,0|0|0,0:0|0:0|0:0,0:0:0:0:
280,168,41314,6,0,L|304:104,1,40
304,160,41514,2,0,L|348:108,1,40
329,160,41714,2,0,L|388:126,1,40
351,169,41914,2,0,L|418:157,1,40
370,185,42114,2,0,L|494:208,2,120,0|0|0,0:0|0:0|0:0,0:0:0:0:
256,264,42914,6,0,L|160:240,1,80
64,224,43314,2,0,L|132:152,1,80
200,88,43714,2,0,L|240:208,2,120,0|0|0,0:0|0:0|0:0,0:0:0:0:
344,72,44714,5,0,0:0:0:0:
424,104,44914,1,0,0:0:0:0:
464,184,45114,1,0,0:0:0:0:
352,304,45314,2,0,B|304:336|304:336|216:336,2,120,0|0|0,0:0|0:0|0:0,0:0:0:0:
240,168,46314,5,0,0:0:0:0:
224,154,46414,1,0,0:0:0:0:
209,141,46514,1,0,0:0:0:0:
144,80,46714,1,0,0:0:0:0:
312,88,46914,2,0,P|344:56|432:56,2,120,0|0|0,0:0|0:0|0:0,0:0:0:0:
400,176,47914,5,0,0:0:0:0:
385,198,48014,1,0,0:0:0:0:
363,214,48114,1,0,0:0:0:0:
337,222,48214,1,0,0:0:0:0:
310,222,48314,1,0,0:0:0:0:
256,296,48514,2,0,B|192:296|192:296|118:248,2,120,0|0|0,0:0|0:0|0:0,0:0:0:0:
224,200,49314,5,0,0:0:0:0:
256,120,49514,1,0,0:0:0:0:
288,40,49714,1,0,0:0:0:0:
392,48,49914,2,0,L|352:136,1,80
456,160,50314,2,0,L|377:216,1,80
455,288,50714,2,0,L|358:297,1,80
296,336,51114,1,0,0:0:0:0:
264,256,51314,1,0,0:0:0:0:
176,256,51514,1,0,0:0:0:0:
216,136,51714,6,0,P|152:80|136:32,2,120,0|0|0,0:0|0:0|0:0,0:0:0:0:
296,136,52514,2,0,P|360:80|376:32,2,120,0|0|0,0:0|0:0|0:0,0:0:0:0:
176,208,53314,2,0,P|90:206|47:179,2,120,0|0|0,0:0|0:0|0:0,0:0:0:0:
336,208,54114,2,0,P|421:206|464:179,2,120,0|0|0,0:0|0:0|0:0,0:0:0:0:
304,288,54914,5,0,0:0:0:0:
432,320,55214,1,0,0:0:0:0:
304,288,55514,1,0,0:0:0:0:
208,288,55714,5,0,0:0:0:0:
80,320,56014,1,0,0:0:0:0:
208,288,56314,1,0,0:0:0:0:
256,216,56514,6,0,L|256:88,2,120,0|0|0,0:0|0:0|0:0,0:0:0:0:
256,360,57314,1,0,0:0:0:0:
64,136,57714,5,0,0:0:0:0:
66,116,57814,1,0,0:0:0:0:
73,97,57914,1,0,0:0:0:0:
85,82,58014,1,0,0:0:0:0:
104,72,58114,2,0,B|184:96|184:96|272:72,1,160
328,128,58714,2,0,L|384:224,1,80
256,272,59114,1,0,0:0:0:0:
184,128,59314,2,0,L|128:224,1,80
55,225,59714,6,0,P|97:282|186:277,1,160
271,102,60314,2,0,P|229:45|140:50,1,160
143,197,60914,2,0,L|184:128,1,80
328,128,61314,6,0,L|368:197,1,80
449,197,61614,2,0,L|369:197,1,80
330,267,61914,2,0,L|369:197,1,80
168,104,62314,6,0,P|136:136|120:192,1,80
208,176,62714,2,0,P|196:219|210:276,1,80
304,176,63114,2,0,P|315:219|301:276,1,80
344,104,63514,2,0,P|376:136|392:192,1,80
336,328,63914,1,0,0:0:0:0:
256,272,64114,1,0,0:0:0:0:
176,328,64314,1,0,0:0:0:0:
104,192,64514,6,0,P|64:168|56:112,2,80,0|0|0,0:0|0:0|0:0,0:0:0:0:
136,120,65114,2,0,P|124:74|158:29,1,80,0|0,0:0|0:0,0:0:0:0:
216,8,65514,1,0,0:0:0:0:
256,88,65714,1,0,0:0:0:0:
296,168,65914,1,0,0:0:0:0:
336,248,66114,2,0,B|400:344|400:344|472:360,2,160,0|0|0,0:0|0:0|0:0,0:0:0:0:
400,192,67114,5,0,0:0:0:0:
448,120,67314,1,0,0:0:0:0:
464,32,67514,1,0,0:0:0:0:
248,128,67714,2,0,B|176:152|176:152|128:200,2,120,0|0|0,0:0|0:0|0:0,0:0:0:0:
264,256,68514,2,0,B|336:232|336:232|384:184,2,120,0|0|0,0:0|0:0|0:0,0:0:0:0:
288,344,69314,2,0,P|216:336|176:264,1,160
264,256,69914,1,0,0:0:0:0:
240,168,70114,6,0,L|224:120,1,40
246,164,70314,2,0,L|243:114,1,40
255,166,70514,2,0,L|265:116,1,40
263,168,70714,2,0,L|285:122,1,40
269,173,70914,2,0,L|345:86,1,80
400,144,71314,1,0,0:0:0:0:
440,224,71514,2,0,L|368:296,1,80
320,344,71914,1,0,0:0:0:0:
232,320,72114,2,0,L|136:288,1,80
184,208,72514,6,0,B|160:176|160:176|88:152,2,80,0|0|0,0:0|0:0|0:0,0:0:0:0:
328,208,73114,2,0,B|352:176|352:176|424:152,2,80,0|0|0,0:0|0:0|0:0,0:0:0:0:
296,88,73714,2,0,P|256:96|216:88,1,80
144,40,74114,6,0,P|128:80|160:136,1,80
256,168,74514,1,0,0:0:0:0:
374,114,74714,2,0,P|383:76|368:40,1,80
466,266,75114,2,0,L|409:366,1,80
369,266,75514,2,0,L|270:323,1,80
285,216,75914,2,0,L|112:217,1,160,0|0,0:0|0:0,0:0:0:0:
128,128,76514,1,0,0:0:0:0:
256,64,76714,5,0,0:0:0:0:
336,88,76914,1,0,0:0:0:0:
384,160,77114,1,0,0:0:0:0:
200,248,77314,6,0,L|96:248,2,80,0|0|0,0:0|0:0|0:0,0:0:0:0:
312,248,77914,2,0,L|416:248,2,80,0|0|0,0:0|0:0|0:0,0:0:0:0:
256,176,78514,2,0,L|256:80,1,80
368,56,78914,5,0,0:0:0:0:
483,123,79114,1,0,0:0:0:0:
368,189,79314,1,0,0:0:0:0:
445,57,79514,1,0,0:0:0:0:
445,189,79714,1,0,0:0:0:0:
330,123,79914,5,0,0:0:0:0:
256,272,80114,1,0,0:0:0:0:
182,123,80314,1,0,0:0:0:0:
192,208,80514,6,0,L|112:224,2,80,0|0|0,0:0|0:0|0:0,0:0:0:0:
320,208,81114,2,0,L|400:224,2,80,0|0|0,0:0|0:0|0:0,0:0:0:0:
256,144,81714,2,0,L|256:64,1,80
167,56,82114,6,0,P|92:93|84:193,1,160
168,152,82714,1,0,0:0:0:0:
168,240,82914,2,0,L|224:320,1,80
344,240,83314,2,0,L|288:320,1,80
304,136,83714,6,0,B|368:136|368:136|416:96,2,120,0|0|0,0:0|0:0|0:0,0:0:0:0:
208,136,84514,2,0,B|144:136|144:136|96:96,2,120,0|0|0,0:0|0:0|0:0,0:0:0:0:
184,224,85314,5,0,0:0:0:0:
160,312,85514,2,0,L|136:384,2,40,0|0|0,0:0|0:0|0:0,0:0:0:0:
328,224,85914,1,0,0:0:0:0:
352,312,86114,2,0,L|376:384,2,40,0|0|0,0:0|0:0|0:0,0:0:0:0:
256,304,86514,5,0,0:0:0:0:
256,136,86714,1,0,0:0:0:0:
256,192,86914,12,0,88714,0:0:0:0:
