osu file format v13

[General]
AudioFilename: Kuroko no Basuke OST 2 CD1 - 26 The Other Self TV size.mp3
AudioLeadIn: 0
PreviewTime: 58152
Countdown: 1
SampleSet: Normal
StackLeniency: 0.2
Mode: 0
LetterboxInBreaks: 1
WidescreenStoryboard: 1

[Editor]
DistanceSpacing: 1.1
BeatDivisor: 4
GridSize: 8
TimelineZoom: 6.459996

[Metadata]
Title:The other self
TitleUnicode:The other self
Artist:GRANRODEO
ArtistUnicode:GRANRODEO
Creator:monstrata
Version:Hyuuga
Source:
Tags:
BeatmapID:570932
BeatmapSetID:240656

[Difficulty]
HPDrainRate:5
CircleSize:4
OverallDifficulty:5
ApproachRate:7.5
SliderMultiplier:1.4
SliderTickRate:1

[Events]
//Background and Video events
0,0,"Seirin.High.full.1207769.jpg",0,0
//Break Periods
//Storyboard Layer 0 (Background)
//Storyboard Layer 1 (Fail)
//Storyboard Layer 2 (Pass)
//Storyboard Layer 3 (Foreground)
//Storyboard Sound Samples

[TimingPoints]
514,400,4,1,0,100,1,0
30752,-133.333333333333,4,1,0,100,0,0
32352,-100,4,1,0,100,0,0
57552,-100,4,1,0,100,0,1
88752,-100,4,1,0,100,0,0

[HitObjects]
136,104,514,6,0,B|200:72|200:136|272:104,1,140
344,104,1114,2,0,P|384:160|328:216,1,140
352,288,1714,2,0,B|288:320|288:256|216:288,1,140
144,288,2314,2,0,L|88:352,2,70,0|0|0,0:0|0:0|0:0,0:0:0:0:
216,200,2914,6,0,L|304:88,1,140
368,272,3714,6,0,P|344:336|320:360,1,70
208,151,4114,2,0,P|203:186|208:221,1,70
304,152,4514,2,0,P|303:220|288:251,1,70
144,272,4914,2,0,P|168:336|192:360,1,70
296,296,5314,6,0,L|376:264,1,70
216,216,5714,2,0,L|136:184,1,70
296,128,6114,2,0,L|376:96,1,70
216,48,6514,2,0,L|136:16,1,70
80,104,6914,6,0,P|64:152|80:208,2,105,0|0|0,0:0|0:0|0:0,0:0:0:0:
224,157,7914,2,0,L|144:157,2,70,0|0|0,0:0|0:0|0:0,0:0:0:0:
297,220,8514,2,0,P|324:157|296:96,2,140,0|0|0,0:0|0:0|0:0,0:0:0:0:
240,280,9514,1,0,0:0:0:0:
168,296,9714,1,0,0:0:0:0:
96,280,9914,1,0,0:0:0:0:
56,216,10114,6,0,L|16:146,1,70
128,160,10514,2,0,L|114:81,1,70
216,160,10914,2,0,L|229:81,1,70
288,216,11314,2,0,L|328:146,1,70
216,296,11714,6,0,P|168:296|136:320,1,70
296,296,12114,2,0,P|344:296|376:320,1,70
256,208,12514,1,0,0:0:0:0:
256,112,12714,1,0,0:0:0:0:
256,94,12814,1,0,0:0:0:0:
256,78,12914,2,0,P|304:46|328:46,1,70
368,120,13314,6,0,P|392:160|392:208,1,70
296,160,13714,2,0,P|312:192|312:240,1,70
216,160,14114,2,0,P|200:192|200:240,1,70
144,120,14514,2,0,P|120:160|120:208,1,70
96,256,14914,5,0,0:0:0:0:
120,328,15114,2,0,L|96:392,2,35,0|0|0,0:0|0:0|0:0,0:0:0:0:
168,272,15514,1,0,0:0:0:0:
192,344,15714,2,0,L|168:408,2,35,0|0|0,0:0|0:0|0:0,0:0:0:0:
240,288,16114,1,0,0:0:0:0:
360,112,16514,6,0,P|416:160|408:232,1,140,0|0,0:0|0:0,0:0:0:0:
336,192,17114,1,0,0:0:0:0:
312,192,17314,1,0,0:0:0:0:
288,192,17514,1,0,0:0:0:0:
264,192,17714,1,0,0:0:0:0:
240,192,17914,2,0,P|160:200|80:240,2,140,0|0|0,0:0|0:0|0:0,0:0:0:0:
256,24,19114,1,0,0:0:0:0:
200,88,19314,1,0,0:0:0:0:
312,88,19514,1,0,0:0:0:0:
152,152,19714,6,0,P|128:200|112:304,1,140
184,312,20314,1,0,0:0:0:0:
256,280,20514,2,0,L|256:192,2,70,0|0|0,0:0|0:0|0:0,0:0:0:0:
328,312,21114,1,0,0:0:0:0:
400,284,21314,2,0,P|389:215|360:152,1,140
256,120,21914,1,0,0:0:0:0:
123,52,22114,2,0,L|200:66,1,70
388,52,22514,2,0,L|311:66,1,70
256,192,22914,6,0,L|256:280,1,70
203,311,23314,1,0,0:0:0:0:
150,220,23514,1,0,0:0:0:0:
203,131,23714,1,0,0:0:0:0:
309,131,23914,1,0,0:0:0:0:
359,220,24114,1,0,0:0:0:0:
309,313,24314,6,0,L|264:240,1,70
377,139,24714,2,0,L|304:184,1,70
203,71,25114,2,0,L|248:144,1,70
135,245,25514,2,0,L|208:200,2,70,0|0|0,0:0|0:0|0:0,0:0:0:0:
96,96,26114,6,0,P|160:48|216:96,1,140
416,96,26914,2,0,P|352:48|296:96,1,140
256,216,27714,1,0,0:0:0:0:
216,280,27914,1,0,0:0:0:0:
296,280,28114,1,0,0:0:0:0:
256,344,28314,1,0,0:0:0:0:
328,344,28514,2,0,L|384:344,4,35,0|0|0|0|0,0:0|0:0|0:0|0:0|0:0,0:0:0:0:
400,192,29314,6,0,P|312:144|224:192,1,210
176,272,30114,5,0,0:0:0:0:
136,288,30314,1,0,0:0:0:0:
96,288,30514,1,0,0:0:0:0:
96,192,30714,2,0,L|144:144,1,52.5000020027161
200,152,31114,2,0,L|224:96,1,52.5000020027161
312,152,31514,2,0,L|288:96,1,52.5000020027161
378,154,31914,2,0,L|416:192,2,52.5000020027161,0|0|0,0:0|0:0|0:0,0:0:0:0:
320,224,32514,6,0,B|272:232|256:299|256:299|240:232|184:224,1,210
256,152,33314,2,0,L|256:64,2,70,0|0|0,0:0|0:0|0:0,0:0:0:0:
352,152,33914,2,0,P|384:176|384:216,1,70
336,264,34314,1,0,0:0:0:0:
256,304,34514,1,0,0:0:0:0:
176,264,34714,1,0,0:0:0:0:
123,203,34914,2,0,L|184:136,1,70
256,104,35314,2,0,L|256:192,1,70
341,151,35714,2,0,L|438:261,1,140,0|0,0:0|0:0,0:0:0:0:
384,312,36314,5,0,0:0:0:0:
304,312,36514,2,0,P|264:328|224:328,1,70
240,256,36914,2,0,P|197:249|162:229,1,70
212,175,37314,2,0,P|178:148|158:113,1,70
232,91,37714,2,0,P|216:51|216:11,1,70
312,56,38114,1,0,0:0:0:0:
392,48,38314,1,0,0:0:0:0:
400,128,38514,1,0,0:0:0:0:
320,136,38714,1,0,0:0:0:0:
208,192,38914,6,0,P|152:208|128:232,1,70
304,192,39314,2,0,P|360:208|384:232,1,70
200,272,39714,2,0,P|167:320|164:354,1,70
312,272,40114,2,0,P|344:320|347:354,1,70
256,352,40514,2,0,B|232:288|280:288|256:216,1,140
256,136,41114,1,0,0:0:0:0:
216,72,41314,2,0,L|152:72,6,35,0|0|0|0|0|0|0,0:0|0:0|0:0|0:0|0:0|0:0|0:0,0:0:0:0:
296,72,42114,6,0,P|352:72|400:112,2,105,0|0|0,0:0|0:0|0:0,0:0:0:0:
256,136,42914,2,0,L|256:216,1,70
336,208,43314,2,0,P|256:304|176:208,1,280
256,206,44314,2,0,L|256:136,1,70
192,88,44714,1,0,0:0:0:0:
256,40,44914,1,0,0:0:0:0:
320,88,45114,1,0,0:0:0:0:
376,144,45314,6,0,P|424:240|408:288,1,140
344,288,45914,2,0,L|272:288,1,70
200,288,46314,1,0,0:0:0:0:
174,282,46414,1,0,0:0:0:0:
153,267,46514,1,0,0:0:0:0:
139,245,46614,1,0,0:0:0:0:
134,220,46714,1,0,0:0:0:0:
208,216,46914,6,0,L|304:168,2,105,0|0|0,0:0|0:0|0:0,0:0:0:0:
146,74,47914,2,0,L|106:34,4,35,0|0|0|0|0,0:0|0:0|0:0|0:0|0:0,0:0:0:0:
202,122,48514,2,0,L|330:122,2,105,0|0|0,0:0|0:0|0:0,0:0:0:0:
128,144,49314,6,0,L|72:200,1,70
152,224,49714,1,0,0:0:0:0:
224,256,49914,2,0,P|256:280|280:328,1,70
320,224,50314,2,0,P|344:192|392:168,1,70
288,128,50714,2,0,P|256:104|232:56,1,70
192,160,51114,2,0,P|168:192|120:216,2,70,0|0|0,0:0|0:0|0:0,0:0:0:0:
288,128,51714,6,0,P|357:165|368:240,1,140
287,213,52314,1,0,0:0:0:0:
287,298,52514,2,0,P|218:261|207:186,1,140
208,120,53114,1,0,0:0:0:0:
151,59,53314,6,0,P|209:37|280:78,1,140
352,88,53914,1,0,0:0:0:0:
440,96,54114,2,0,P|413:152|334:171,1,140
256,168,54714,1,0,0:0:0:0:
208,232,54914,6,0,P|120:264|104:280,2,105,0|0|0,0:0|0:0|0:0,0:0:0:0:
304,232,55714,2,0,P|392:264|408:280,2,105,0|0|0,0:0|0:0|0:0,0:0:0:0:
256,168,56514,2,0,B|232:120|280:120|256:64,2,105,0|0|0,0:0|0:0|0:0,0:0:0:0:
256,248,57314,2,0,L|256:328,1,70
328,304,57714,5,0,0:0:0:0:
353,301,57814,1,0,0:0:0:0:
377,290,57914,1,0,0:0:0:0:
395,271,58014,1,0,0:0:0:0:
406,247,58114,2,0,P|408:200|368:168,1,70
328,152,58514,1,0,0:0:0:0:
256,176,58714,2,0,L|256:88,1,70
184,152,59114,1,0,0:0:0:0:
112,184,59314,2,0,P|72:200|48:224,1,70
112,272,59714,5,0,0:0:0:0:
176,320,59914,1,0,0:0:0:0:
248,288,60114,1,0,0:0:0:0:
320,264,60314,2,0,L|408:232,2,70,0|0|0,0:0|0:0|0:0,0:0:0:0:
328,184,60914,2,0,P|360:136|368:96,1,70
304,80,61314,6,0,L|200:80,2,105,0|0|0,0:0|0:0|0:0,0:0:0:0:
160,144,62314,2,0,L|128:208,1,70
176,312,62714,2,0,L|208:248,1,70
320,144,63114,2,0,L|288:208,1,70
336,312,63514,2,0,L|368:248,1,70
416,192,63914,1,0,0:0:0:0:
472,136,64114,1,0,0:0:0:0:
416,80,64314,1,0,0:0:0:0:
291,80,64514,6,0,L|219:80,1,70
256,152,64914,1,0,0:0:0:0:
224,224,65114,2,0,L|296:224,1,70
336,288,65514,2,0,L|384:368,2,70,0|0|0,0:0|0:0|0:0,0:0:0:0:
360,216,66114,2,0,L|429:176,1,70
296,176,66514,2,0,L|323:100,1,70
216,176,66914,2,0,L|188:100,1,70,0|0,0:0|0:0,0:0:0:0:
152,216,67314,2,0,L|82:176,1,70
192,280,67714,6,0,B|241:286|257:353|257:353|273:286|321:278,1,210
312,176,68514,2,0,B|296:120|256:88|256:88|216:120|200:176,1,210
120,176,69314,2,0,P|72:232|72:280,2,105,0|0|0,0:0|0:0|0:0,0:0:0:0:
152,104,70114,2,0,L|96:104,6,35,0|0|0|0|0|0|0,0:0|0:0|0:0|0:0|0:0|0:0|0:0,0:0:0:0:
232,104,70914,6,0,L|392:104,1,140
376,184,71514,2,0,P|384:224|368:264,1,70
296,264,71914,1,0,0:0:0:0:
256,328,72114,1,0,0:0:0:0:
216,264,72314,1,0,0:0:0:0:
160,208,72514,6,0,P|168:112|216:80,1,140
315,87,73114,2,0,P|358:140|352:208,1,140
256,224,73714,2,0,L|256:136,1,70
256,80,74114,5,0,0:0:0:0:
184,104,74314,1,0,0:0:0:0:
152,176,74514,1,0,0:0:0:0:
164,251,74714,2,0,P|212:299|244:307,1,70
287,296,75114,2,0,L|384:288,1,70
328,216,75514,2,0,L|407:160,1,70
322,126,75914,2,0,L|363:38,1,70
288,24,76314,1,0,0:0:0:0:
208,24,76514,1,0,0:0:0:0:
144,72,76714,6,0,P|120:144|144:208,1,140
216,232,77314,2,0,L|160:288,2,70,0|0|0,0:0|0:0|0:0,0:0:0:0:
296,232,77914,2,0,L|352:288,2,70,0|0|0,0:0|0:0|0:0,0:0:0:0:
256,168,78514,2,0,L|256:80,1,70
320,56,78914,5,0,0:0:0:0:
384,96,79114,1,0,0:0:0:0:
384,176,79314,1,0,0:0:0:0:
320,240,79514,2,0,L|280:328,1,70,0|0,0:0|0:0,0:0:0:0:
220,303,79914,2,0,L|192:240,2,70,0|0|0,0:0|0:0|0:0,0:0:0:0:
216,160,80514,6,0,L|120:192,2,70,0|0|0,0:0|0:0|0:0,0:0:0:0:
296,160,81114,2,0,L|392:192,2,70,0|0|0,0:0|0:0|0:0,0:0:0:0:
256,88,81714,1,0,0:0:0:0:
256,232,81914,1,0,0:0:0:0:
184,248,82114,6,0,P|256:312|328:248,1,210
336,165,82914,2,0,L|309:31,1,70
175,165,83314,2,0,L|202:31,1,70
323,97,83714,6,0,P|355:153|307:233,1,140
256,248,84314,1,0,0:0:0:0:
182,219,84514,2,0,P|156:156|189:97,1,140
256,48,85114,1,0,0:0:0:0:
256,128,85314,5,0,0:0:0:0:
216,240,85514,2,0,L|184:288,2,35,0|0|0,0:0|0:0|0:0,0:0:0:0:
256,128,85914,1,0,0:0:0:0:
296,240,86114,2,0,L|328:288,2,35,0|0|0,0:0|0:0|0:0,0:0:0:0:
168,168,86514,5,0,0:0:0:0:
344,168,86714,1,0,0:0:0:0:
256,192,86914,12,0,88714,0:0:0:0:
