osu file format v13

[General]
AudioFilename: Kuroko no Basuke OST 2 CD1 - 26 The Other Self TV size.mp3
AudioLeadIn: 0
PreviewTime: 58152
Countdown: 1
SampleSet: Normal
StackLeniency: 0.2
Mode: 0
LetterboxInBreaks: 1
WidescreenStoryboard: 1

[Editor]
DistanceSpacing: 1.1
BeatDivisor: 4
GridSize: 8
TimelineZoom: 2.4

[Metadata]
Title:The other self
TitleUnicode:The other self
Artist:GRANRODEO
ArtistUnicode:GRANRODEO
Creator:monstrata
Version:Aomine
Source:
Tags:
BeatmapID:556640
BeatmapSetID:240656

[Difficulty]
HPDrainRate:7
CircleSize:4
OverallDifficulty:7
ApproachRate:9
SliderMultiplier:2.4
SliderTickRate:2

[Events]
//Background and Video events
0,0,"32534.jpg",0,0
//Break Periods
//Storyboard Layer 0 (Background)
//Storyboard Layer 1 (Fail)
//Storyboard Layer 2 (Pass)
//Storyboard Layer 3 (Foreground)
//Storyboard Sound Samples

[TimingPoints]
514,400,4,1,0,100,1,0
17952,-166.666666666667,4,1,0,100,0,0
19152,-100,4,1,0,100,0,0
30752,-133.333333333333,4,1,0,100,0,0
31952,-100,4,1,0,100,0,0
57752,-71.4285714285714,4,1,0,100,0,1
57752,-71.4285714285714,4,1,0,100,0,1
88752,-71.4285714285714,4,1,0,100,0,0

[HitObjects]
361,192,514,5,0,0:0:0:0:
408,186,614,1,0,0:0:0:0:
455,195,714,1,0,0:0:0:0:
503,192,814,1,0,0:0:0:0:
256,80,1114,2,0,B|232:136|280:144|256:200,2,120,0|0|0,0:0|0:0|0:0,0:0:0:0:
150,192,1714,5,0,0:0:0:0:
102,186,1814,1,0,0:0:0:0:
55,195,1914,1,0,0:0:0:0:
7,192,2014,1,0,0:0:0:0:
256,352,2314,2,0,P|208:328|192:296,1,60
256,352,2514,2,0,P|304:328|320:296,1,60
256,80,2714,6,0,B|240:136|240:136|272:184|272:184|256:248,1,180
256,352,3114,1,0,0:0:0:0:
256,80,3314,1,0,0:0:0:0:
480,192,3714,6,0,P|408:192|368:168,1,120
368,120,4014,1,0,0:0:0:0:
368,72,4114,2,0,P|315:44|256:48,1,120
256,96,4414,1,0,0:0:0:0:
256,144,4514,1,0,0:0:0:0:
83,196,4714,1,0,0:0:0:0:
73,248,4814,1,0,0:0:0:0:
97,296,4914,1,0,0:0:0:0:
144,320,5014,1,0,0:0:0:0:
195,311,5114,1,0,0:0:0:0:
344,320,5314,6,0,P|400:328|448:288,1,120
448,240,5614,1,0,0:0:0:0:
448,192,5714,2,0,P|403:155|346:163,1,120
344,104,6014,1,0,0:0:0:0:
344,48,6114,1,0,0:0:0:0:
56,88,6314,1,0,0:0:0:0:
102,54,6414,1,0,0:0:0:0:
155,76,6514,1,0,0:0:0:0:
165,133,6614,1,0,0:0:0:0:
174,188,6714,1,0,0:0:0:0:
227,210,6814,1,0,0:0:0:0:
274,176,6914,6,0,P|320:152|376:184,1,120
429,97,7214,2,0,P|427:149|371:181,1,120
420,271,7514,2,0,P|375:243|375:179,1,120
256,40,7914,1,0,0:0:0:0:
102,109,8114,5,0,0:0:0:0:
88,152,8214,1,0,0:0:0:0:
96,195,8314,1,0,0:0:0:0:
105,239,8414,1,0,0:0:0:0:
93,281,8514,2,0,B|216:336|216:240|352:304,1,240
256,200,9114,1,0,0:0:0:0:
376,16,9314,1,0,0:0:0:0:
144,16,9514,1,0,0:0:0:0:
254,93,9714,5,0,0:0:0:0:
308,105,9814,1,0,0:0:0:0:
333,154,9914,1,0,0:0:0:0:
310,204,10014,1,0,0:0:0:0:
256,216,10114,2,0,L|114:216,1,120
94,236,10414,1,0,0:0:0:0:
62,268,10514,2,0,P|62:332|110:340,1,120
150,340,10814,1,0,0:0:0:0:
198,340,10914,1,0,0:0:0:0:
385,217,11114,1,0,0:0:0:0:
198,109,11314,1,0,0:0:0:0:
174,76,11414,1,0,0:0:0:0:
152,40,11514,1,0,0:0:0:0:
72,136,11714,6,0,P|40:184|72:232,1,120
104,232,12014,1,0,0:0:0:0:
136,232,12114,2,0,P|165:280|134:327,1,120
104,328,12414,1,0,0:0:0:0:
80,328,12514,2,0,P|40:272|56:216,1,120
74,171,12814,1,0,0:0:0:0:
115,127,12914,1,0,0:0:0:0:
168,101,13014,1,0,0:0:0:0:
228,93,13114,1,0,0:0:0:0:
286,106,13214,1,0,0:0:0:0:
337,137,13314,5,0,0:0:0:0:
169,247,13514,1,0,0:0:0:0:
376,165,13714,1,0,0:0:0:0:
135,218,13914,1,0,0:0:0:0:
403,211,14114,1,0,0:0:0:0:
108,172,14314,1,0,0:0:0:0:
402,267,14514,1,0,0:0:0:0:
109,116,14714,1,0,0:0:0:0:
109,268,14914,5,0,0:0:0:0:
207,185,15114,1,0,0:0:0:0:
202,140,15214,1,0,0:0:0:0:
208,97,15314,1,0,0:0:0:0:
403,116,15514,1,0,0:0:0:0:
328,222,15714,1,0,0:0:0:0:
332,267,15814,1,0,0:0:0:0:
328,312,15914,1,0,0:0:0:0:
256,56,16114,2,0,B|280:112|232:112|256:176,1,120
106,314,16514,5,0,0:0:0:0:
404,314,16814,1,0,0:0:0:0:
256,56,17114,1,0,0:0:0:0:
256,112,17314,1,0,0:0:0:0:
256,168,17514,1,0,0:0:0:0:
256,224,17714,1,0,0:0:0:0:
176,120,17914,6,0,P|136:88|88:88,1,71.9999978027344
336,120,18314,2,0,P|376:88|424:88,1,71.9999978027344
256,264,18714,2,0,L|256:336,1,71.9999978027344
410,322,19114,1,0,0:0:0:0:
101,322,19314,1,0,0:0:0:0:
256,128,19514,1,0,0:0:0:0:
334,57,19714,5,0,0:0:0:0:
370,77,19814,1,0,0:0:0:0:
400,104,19914,1,0,0:0:0:0:
424,139,20014,1,0,0:0:0:0:
440,176,20114,1,0,0:0:0:0:
447,217,20214,1,0,0:0:0:0:
448,256,20314,2,0,P|424:310|360:342,1,120
71,133,20714,2,0,P|96:80|160:48,1,120
256,192,21114,1,0,0:0:0:0:
256,64,21314,6,0,P|328:72|352:120,1,120
355,151,21614,1,0,0:0:0:0:
326,183,21714,1,0,0:0:0:0:
283,183,21814,1,0,0:0:0:0:
254,150,21914,1,0,0:0:0:0:
209,111,22014,1,0,0:0:0:0:
150,102,22114,1,0,0:0:0:0:
96,125,22214,1,0,0:0:0:0:
62,174,22314,1,0,0:0:0:0:
59,233,22414,1,0,0:0:0:0:
87,285,22514,1,0,0:0:0:0:
139,314,22614,1,0,0:0:0:0:
198,311,22714,1,0,0:0:0:0:
247,277,22814,1,0,0:0:0:0:
272,216,22914,6,0,P|352:192|376:144,1,120
191,107,23314,1,0,0:0:0:0:
302,260,23514,1,0,0:0:0:0:
302,71,23714,1,0,0:0:0:0:
191,224,23914,1,0,0:0:0:0:
371,166,24114,1,0,0:0:0:0:
191,224,24314,6,0,P|136:256|88:200,1,120
260,119,24714,2,0,P|260:56|333:42,1,120
316,232,25114,2,0,P|371:263|346:333,1,120
192,81,25514,1,0,0:0:0:0:
383,192,25714,1,0,0:0:0:0:
192,302,25914,1,0,0:0:0:0:
424,296,26114,5,0,0:0:0:0:
385,252,26214,1,0,0:0:0:0:
326,245,26314,1,0,0:0:0:0:
81,285,26514,5,0,0:0:0:0:
139,273,26614,1,0,0:0:0:0:
173,226,26714,1,0,0:0:0:0:
262,0,26914,5,0,0:0:0:0:
243,50,27014,1,0,0:0:0:0:
267,103,27114,1,0,0:0:0:0:
290,158,27214,1,0,0:0:0:0:
271,213,27314,1,0,0:0:0:0:
252,268,27414,1,0,0:0:0:0:
276,322,27514,1,0,0:0:0:0:
333,327,27614,1,0,0:0:0:0:
374,277,27714,6,0,P|418:227|416:176,1,120
432,128,28014,1,0,0:0:0:0:
416,80,28114,1,0,0:0:0:0:
256,64,28314,1,0,0:0:0:0:
432,304,28514,1,0,0:0:0:0:
416,240,28614,1,0,0:0:0:0:
360,200,28714,1,0,0:0:0:0:
293,201,28814,1,0,0:0:0:0:
240,240,28914,1,0,0:0:0:0:
208,296,29014,1,0,0:0:0:0:
152,328,29114,1,0,0:0:0:0:
96,304,29214,1,0,0:0:0:0:
85,245,29314,6,0,L|173:133,1,120
295,17,29614,2,0,L|348:149,1,120
387,313,29914,2,0,L|294:300,1,60
165,108,30114,5,0,0:0:0:0:
372,155,30314,1,0,0:0:0:0:
227,311,30514,1,0,0:0:0:0:
112,192,30714,6,0,L|232:240,1,90.0000034332277
400,192,31114,2,0,L|280:240,1,90.0000034332277
256,136,31514,2,0,L|256:32,1,90.0000034332277,0|0,0:0|0:0,0:0:0:0:
256,168,31914,1,0,0:0:0:0:
264,196,32014,1,0,0:0:0:0:
271,225,32114,1,0,0:0:0:0:
257,252,32214,1,0,0:0:0:0:
244,279,32314,1,0,0:0:0:0:
246,307,32414,1,0,0:0:0:0:
256,336,32514,6,0,P|368:320|384:288,1,120
368,280,32814,1,0,0:0:0:0:
365,236,32914,2,0,P|312:209|256:224,1,120
208,224,33214,1,0,0:0:0:0:
160,224,33314,1,0,0:0:0:0:
256,136,33514,1,0,0:0:0:0:
352,224,33714,1,0,0:0:0:0:
256,64,33914,6,0,P|160:64|96:104,1,120
146,234,34314,1,0,0:0:0:0:
236,101,34514,1,0,0:0:0:0:
85,156,34714,1,0,0:0:0:0:
240,200,34914,1,0,0:0:0:0:
265,215,35014,1,0,0:0:0:0:
294,222,35114,1,0,0:0:0:0:
323,216,35214,1,0,0:0:0:0:
349,201,35314,1,0,0:0:0:0:
375,186,35414,1,0,0:0:0:0:
404,181,35514,1,0,0:0:0:0:
433,189,35614,1,0,0:0:0:0:
458,205,35714,6,0,P|464:312|344:320,1,240
392,256,36314,1,0,0:0:0:0:
112,120,36514,2,0,P|160:88|224:88,1,120
400,120,36914,2,0,P|352:88|288:88,1,120
194,162,37314,5,0,0:0:0:0:
160,176,37414,1,0,0:0:0:0:
140,207,37514,1,0,0:0:0:0:
304,216,37714,5,0,0:0:0:0:
338,202,37814,1,0,0:0:0:0:
358,171,37914,1,0,0:0:0:0:
280,296,38114,5,0,0:0:0:0:
246,310,38214,1,0,0:0:0:0:
226,341,38314,1,0,0:0:0:0:
390,350,38514,5,0,0:0:0:0:
424,336,38614,1,0,0:0:0:0:
444,305,38714,1,0,0:0:0:0:
494,359,38914,6,0,P|454:278|472:200,1,120
256,192,39314,1,0,0:0:0:0:
18,25,39514,2,0,P|57:105|40:184,1,120
384,245,39914,1,0,0:0:0:0:
127,138,40114,1,0,0:0:0:0:
256,352,40314,1,0,0:0:0:0:
256,128,40514,2,0,P|232:256|152:256,2,180,0|0|0,0:0|0:0|0:0,0:0:0:0:
286,62,41314,5,0,0:0:0:0:
318,66,41414,1,0,0:0:0:0:
348,75,41514,1,0,0:0:0:0:
376,88,41614,1,0,0:0:0:0:
401,106,41714,1,0,0:0:0:0:
423,128,41814,1,0,0:0:0:0:
442,155,41914,1,0,0:0:0:0:
455,182,42014,1,0,0:0:0:0:
465,211,42114,2,0,P|454:294|391:357,1,120
248,280,42414,2,0,L|88:280,2,120,0|0|0,0:0|0:0|0:0,0:0:0:0:
248,184,42914,6,0,L|248:48,1,120
208,64,43214,1,0,0:0:0:0:
168,64,43314,1,0,0:0:0:0:
128,64,43414,1,0,0:0:0:0:
88,64,43514,1,0,0:0:0:0:
56,96,43614,1,0,0:0:0:0:
32,128,43714,2,0,B|16:184|16:184|40:248,1,120
133,241,44014,2,0,B|112:184|112:184|128:128,1,120
224,128,44314,2,0,B|208:184|208:184|232:248,1,120
322,318,44714,5,0,0:0:0:0:
368,320,44814,1,0,0:0:0:0:
409,303,44914,1,0,0:0:0:0:
439,270,45014,1,0,0:0:0:0:
451,227,45114,1,0,0:0:0:0:
444,184,45214,1,0,0:0:0:0:
421,146,45314,2,0,P|335:118|319:150,1,120
265,196,45614,2,0,P|332:135|312:105,1,120
301,35,45914,2,0,P|319:123|355:121,1,120
213,128,46314,5,0,0:0:0:0:
172,111,46414,1,0,0:0:0:0:
130,112,46514,1,0,0:0:0:0:
91,133,46614,1,0,0:0:0:0:
66,166,46714,1,0,0:0:0:0:
57,208,46814,1,0,0:0:0:0:
66,250,46914,2,0,P|190:290|213:243,2,180,0|0|0,0:0|0:0|0:0,0:0:0:0:
140,230,47714,5,0,0:0:0:0:
154,195,47814,1,0,0:0:0:0:
180,168,47914,1,0,0:0:0:0:
213,150,48014,1,0,0:0:0:0:
249,144,48114,1,0,0:0:0:0:
286,151,48214,1,0,0:0:0:0:
319,170,48314,1,0,0:0:0:0:
343,198,48414,1,0,0:0:0:0:
357,232,48514,2,0,L|275:281,1,60
154,232,48714,2,0,L|237:281,1,60
256,216,48914,2,0,L|256:80,1,120
328,96,49314,5,0,0:0:0:0:
152,168,49514,1,0,0:0:0:0:
400,272,49714,1,0,0:0:0:0:
112,336,49914,2,0,P|48:288|48:216,1,120
128,256,50314,2,0,P|116:176|167:125,1,120
200,208,50714,2,0,P|248:144|320:144,1,120
352,159,51114,1,0,0:0:0:0:
374,189,51214,1,0,0:0:0:0:
382,225,51314,1,0,0:0:0:0:
375,261,51414,1,0,0:0:0:0:
353,292,51514,1,0,0:0:0:0:
321,311,51614,1,0,0:0:0:0:
284,316,51714,6,0,P|216:288|200:224,1,120
288,224,52114,1,0,0:0:0:0:
136,328,52314,1,0,0:0:0:0:
227,67,52514,2,0,P|296:96|312:160,1,120
224,160,52914,1,0,0:0:0:0:
376,56,53114,1,0,0:0:0:0:
344,136,53314,6,0,P|368:192|344:248,1,120
320,264,53614,1,0,0:0:0:0:
280,272,53714,1,0,0:0:0:0:
440,264,53914,1,0,0:0:0:0:
168,248,54114,2,0,P|144:192|168:136,1,120
192,120,54414,1,0,0:0:0:0:
232,112,54514,1,0,0:0:0:0:
72,120,54714,1,0,0:0:0:0:
256,344,54914,5,0,0:0:0:0:
129,280,55114,1,0,0:0:0:0:
164,237,55214,1,0,0:0:0:0:
220,228,55314,1,0,0:0:0:0:
352,224,55514,1,0,0:0:0:0:
256,40,55714,1,0,0:0:0:0:
382,103,55914,1,0,0:0:0:0:
347,147,56014,1,0,0:0:0:0:
292,156,56114,1,0,0:0:0:0:
160,160,56314,1,0,0:0:0:0:
408,192,56514,6,0,L|280:192,1,120
104,192,56814,2,0,L|232:192,1,120
408,264,57114,1,0,0:0:0:0:
104,120,57314,1,0,0:0:0:0:
251,42,57714,5,0,0:0:0:0:
315,57,57814,1,0,0:0:0:0:
368,97,57914,1,0,0:0:0:0:
399,156,58014,1,0,0:0:0:0:
387,218,58114,2,0,P|328:312|264:328,1,167.999994873047
48,328,58514,1,0,0:0:0:0:
125,166,58714,2,0,P|184:72|248:56,1,167.999994873047
292,62,59014,1,0,0:0:0:0:
328,111,59114,1,0,0:0:0:0:
314,171,59214,1,0,0:0:0:0:
261,200,59314,1,0,0:0:0:0:
208,230,59414,1,0,0:0:0:0:
194,290,59514,1,0,0:0:0:0:
230,339,59614,1,0,0:0:0:0:
291,346,59714,6,0,P|350:294|283:216,1,167.999994873047
261,200,60014,1,0,0:0:0:0:
122,250,60114,1,0,0:0:0:0:
70,76,60314,2,0,P|154:44|241:57,1,167.999994873047
339,78,60714,1,0,0:0:0:0:
406,89,60814,1,0,0:0:0:0:
449,142,60914,1,0,0:0:0:0:
447,210,61014,1,0,0:0:0:0:
399,259,61114,1,0,0:0:0:0:
331,265,61214,1,0,0:0:0:0:
276,224,61314,6,0,P|208:272|184:368,1,167.999994873047
217,193,61614,2,0,P|210:110|139:41,1,167.999994873047
273,157,61914,2,0,P|349:193|444:166,1,167.999994873047
432,120,62214,1,0,0:0:0:0:
432,64,62314,1,0,0:0:0:0:
256,32,62514,1,0,0:0:0:0:
80,64,62714,1,0,0:0:0:0:
72,192,62914,5,0,0:0:0:0:
86,259,63014,1,0,0:0:0:0:
133,309,63114,1,0,0:0:0:0:
200,328,63214,1,0,0:0:0:0:
266,308,63314,1,0,0:0:0:0:
313,257,63414,1,0,0:0:0:0:
326,189,63514,1,0,0:0:0:0:
316,126,63614,1,0,0:0:0:0:
256,93,63714,1,0,0:0:0:0:
198,124,63814,1,0,0:0:0:0:
186,189,63914,1,0,0:0:0:0:
198,257,64014,1,0,0:0:0:0:
245,308,64114,1,0,0:0:0:0:
311,328,64214,1,0,0:0:0:0:
378,309,64314,1,0,0:0:0:0:
425,259,64414,1,0,0:0:0:0:
439,191,64514,5,0,0:0:0:0:
336,64,64714,1,0,0:0:0:0:
256,192,64914,1,0,0:0:0:0:
72,192,65114,1,0,0:0:0:0:
176,64,65314,1,0,0:0:0:0:
256,192,65514,1,0,0:0:0:0:
256,104,65714,2,0,P|256:56|296:24,1,83.9999974365235
256,280,65914,2,0,P|256:328|216:360,1,83.9999974365235
256,192,66114,6,0,L|424:192,1,167.999994873047
424,136,66414,1,0,0:0:0:0:
424,80,66514,1,0,0:0:0:0:
88,320,66714,1,0,0:0:0:0:
384,312,66914,1,0,0:0:0:0:
128,168,67114,1,0,0:0:0:0:
360,112,67314,1,0,0:0:0:0:
176,8,67514,1,0,0:0:0:0:
256,256,67714,6,0,L|280:344,1,83.9999974365235
200,336,67914,2,0,P|136:272|32:280,1,167.999994873047
56,208,68214,1,0,0:0:0:0:
48,144,68314,1,0,0:0:0:0:
256,128,68514,2,0,L|232:40,1,83.9999974365235
312,48,68714,2,0,P|376:112|480:104,1,167.999994873047
456,176,69014,1,0,0:0:0:0:
464,240,69114,1,0,0:0:0:0:
256,264,69314,6,0,P|176:232|88:280,1,167.999994873047
193,156,69614,2,0,P|261:102|263:2,1,167.999994873047
320,168,69914,1,0,0:0:0:0:
386,285,70114,1,0,0:0:0:0:
445,265,70214,1,0,0:0:0:0:
484,217,70314,1,0,0:0:0:0:
492,155,70414,1,0,0:0:0:0:
466,99,70514,2,0,P|448:64|320:40,1,167.999994873047
88,248,70914,6,0,P|120:328|200:344,1,167.999994873047
176,256,71314,1,0,0:0:0:0:
264,264,71514,2,0,P|232:184|152:168,1,167.999994873047
186,117,71814,1,0,0:0:0:0:
220,80,71914,1,0,0:0:0:0:
276,80,72014,1,0,0:0:0:0:
332,80,72114,1,0,0:0:0:0:
388,80,72214,1,0,0:0:0:0:
444,80,72314,1,0,0:0:0:0:
424,136,72514,6,0,P|392:56|312:40,1,167.999994873047
336,128,72914,1,0,0:0:0:0:
248,120,73114,2,0,P|280:200|360:216,1,167.999994873047
325,266,73414,1,0,0:0:0:0:
291,304,73514,1,0,0:0:0:0:
235,304,73614,1,0,0:0:0:0:
179,304,73714,1,0,0:0:0:0:
123,304,73814,1,0,0:0:0:0:
67,304,73914,1,0,0:0:0:0:
49,62,74114,5,0,0:0:0:0:
107,41,74214,1,0,0:0:0:0:
167,56,74314,1,0,0:0:0:0:
208,104,74414,1,0,0:0:0:0:
214,165,74514,1,0,0:0:0:0:
241,215,74614,1,0,0:0:0:0:
291,253,74714,1,0,0:0:0:0:
353,265,74814,1,0,0:0:0:0:
414,249,74914,1,0,0:0:0:0:
463,209,75014,1,0,0:0:0:0:
489,151,75114,2,0,P|416:64|344:152,1,251.999992309571
330,262,75514,2,0,P|253:342|184:256,1,251.999992309571
168,144,75914,5,0,0:0:0:0:
147,86,76014,1,0,0:0:0:0:
90,64,76114,1,0,0:0:0:0:
36,92,76214,1,0,0:0:0:0:
22,151,76314,1,0,0:0:0:0:
37,219,76414,1,0,0:0:0:0:
80,273,76514,1,0,0:0:0:0:
143,303,76614,1,0,0:0:0:0:
212,303,76714,2,0,P|296:320|408:288,2,167.999994873047,0|0|0,0:0|0:0|0:0,0:0:0:0:
344,192,77314,5,0,0:0:0:0:
256,105,77514,1,0,0:0:0:0:
254,48,77614,1,0,0:0:0:0:
227,0,77714,1,0,0:0:0:0:
288,240,77914,1,0,0:0:0:0:
169,192,78114,1,0,0:0:0:0:
112,192,78214,1,0,0:0:0:0:
64,219,78314,1,0,0:0:0:0:
416,136,78514,1,0,0:0:0:0:
96,248,78714,1,0,0:0:0:0:
370,274,78914,5,0,0:0:0:0:
129,108,79114,1,0,0:0:0:0:
160,56,79214,1,0,0:0:0:0:
212,26,79314,1,0,0:0:0:0:
141,274,79514,1,0,0:0:0:0:
382,108,79714,1,0,0:0:0:0:
352,56,79814,1,0,0:0:0:0:
299,26,79914,1,0,0:0:0:0:
256,288,80114,1,0,0:0:0:0:
212,27,80314,1,0,0:0:0:0:
335,97,80514,5,0,0:0:0:0:
367,149,80614,1,0,0:0:0:0:
368,211,80714,1,0,0:0:0:0:
338,265,80814,1,0,0:0:0:0:
284,296,80914,1,0,0:0:0:0:
223,296,81014,1,0,0:0:0:0:
170,265,81114,1,0,0:0:0:0:
140,211,81214,1,0,0:0:0:0:
142,150,81314,1,0,0:0:0:0:
174,97,81414,1,0,0:0:0:0:
228,69,81514,1,0,0:0:0:0:
290,73,81614,1,0,0:0:0:0:
341,108,81714,1,0,0:0:0:0:
368,163,81814,1,0,0:0:0:0:
362,225,81914,1,0,0:0:0:0:
327,275,82014,1,0,0:0:0:0:
270,298,82114,6,0,P|187:275|141:192,1,167.999994873047
229,48,82414,2,0,P|327:75|390:174,1,167.999994873047
168,360,82714,1,0,0:0:0:0:
112,152,82914,2,0,P|152:80|256:72,1,167.999994873047
400,232,83314,2,0,P|360:304|256:312,1,167.999994873047
54,340,83714,6,0,P|56:264|136:227,1,167.999994873047
200,192,84014,2,0,P|197:267|117:304,1,167.999994873047
256,88,84314,1,0,0:0:0:0:
458,44,84514,2,0,P|455:119|375:156,1,167.999994873047
312,192,84814,2,0,P|314:116|394:79,1,167.999994873047
256,296,85114,1,0,0:0:0:0:
96,192,85314,5,0,0:0:0:0:
85,52,85514,1,0,0:0:0:0:
148,48,85614,1,0,0:0:0:0:
192,96,85714,1,0,0:0:0:0:
416,192,85914,5,0,0:0:0:0:
427,52,86114,1,0,0:0:0:0:
364,48,86214,1,0,0:0:0:0:
320,96,86314,1,0,0:0:0:0:
256,360,86514,5,0,0:0:0:0:
256,24,86714,1,0,0:0:0:0:
256,192,86814,12,0,88714,0:0:0:0:
