osu file format v13

[General]
AudioFilename: Kuroko no Basuke OST 2 CD1 - 26 The Other Self TV size.mp3
AudioLeadIn: 0
PreviewTime: 58152
Countdown: 1
SampleSet: Normal
StackLeniency: 0.2
Mode: 0
LetterboxInBreaks: 1
WidescreenStoryboard: 1

[Editor]
DistanceSpacing: 1.1
BeatDivisor: 8
GridSize: 8
TimelineZoom: 2.4

[Metadata]
Title:The other self
TitleUnicode:The other self
Artist:GRANRODEO
ArtistUnicode:GRANRODEO
Creator:monstrata
Version:Akashi
Source:
Tags:
BeatmapID:556103
BeatmapSetID:240656

[Difficulty]
HPDrainRate:8
CircleSize:4
OverallDifficulty:8
ApproachRate:9
SliderMultiplier:2
SliderTickRate:2

[Events]
//Background and Video events
0,0,"knb_267__seijuro_akashi_by_ar_ua-d7o5qmd.jpg",0,0
//Break Periods
//Storyboard Layer 0 (Background)
//Storyboard Layer 1 (Fail)
//Storyboard Layer 2 (Pass)
//Storyboard Layer 3 (Foreground)
//Storyboard Sound Samples

[TimingPoints]
514,400,4,1,0,100,1,0
57752,-71.4285714285714,4,1,0,100,0,1
88752,-71.4285714285714,4,1,0,100,0,0

[HitObjects]
208,216,514,6,0,L|142:174,1,50
304,216,714,2,0,L|370:174,1,50
256,32,1114,2,0,B|248:64|248:64|264:96|264:96|254:125|254:125|267:115,2,100,0|0|0,0:0|0:0|0:0,0:0:0:0:
347,190,1714,6,0,L|413:232,1,50
165,190,1914,2,0,L|99:232,1,50
328,305,2314,2,0,B|328:320|328:320|256:344|184:320|184:320|184:296,1,175
256,264,2914,2,0,B|248:232|248:232|264:192|264:192|256:144|256:144|256:152,2,125,0|0|0,0:0|0:0|0:0,0:0:0:0:
352,192,3714,6,0,B|416:144|416:144|416:144|400:120,1,100
256,256,4114,1,0,0:0:0:0:
93,168,4314,2,0,B|80:152|80:152|64:129|64:129|68:135,2,50,0|0|0,0:0|0:0|0:0,0:0:0:0:
120,360,4714,1,0,0:0:0:0:
256,288,4914,2,0,L|311:256,1,50
424,192,5114,2,0,L|479:224,1,50
408,320,5314,6,0,B|416:328|416:328|352:336|312:320,1,100
48,344,5714,1,0,0:0:0:0:
256,272,5914,1,0,0:0:0:0:
464,192,6114,1,0,0:0:0:0:
256,112,6314,1,0,0:0:0:0:
48,40,6514,2,0,L|72:128,1,50
192,192,6714,2,0,L|168:112,1,50
80,224,6914,6,0,B|64:216|64:216|104:312,1,100
128,296,7214,1,0,0:0:0:0:
168,288,7314,2,0,L|240:264,1,50
400,208,7514,2,0,B|424:216|424:216|352:264|352:264|296:264,1,150
181,219,7914,1,0,0:0:0:0:
256,48,8114,1,0,0:0:0:0:
448,160,8314,1,0,0:0:0:0:
208,200,8514,6,0,B|160:113|160:113|169:122,2,100,0|0|0,0:0|0:0|0:0,0:0:0:0:
408,328,9114,1,0,0:0:0:0:
104,328,9314,1,0,0:0:0:0:
336,280,9514,1,0,0:0:0:0:
448,80,9714,1,0,0:0:0:0:
256,304,9914,1,0,0:0:0:0:
120,192,10114,6,0,B|72:136|72:136|96:128,1,100
352,224,10514,1,0,0:0:0:0:
290,48,10714,2,0,B|276:49|276:49|241:50|241:50|255:58,2,50,0|0|0,0:0|0:0|0:0,0:0:0:0:
392,184,11114,2,0,B|424:184|424:184|456:224|448:256,1,100
96,264,11514,1,0,0:0:0:0:
160,112,11714,6,0,B|184:96|184:96|216:88|216:88|240:64|264:56,1,100
432,48,12114,1,0,0:0:0:0:
248,288,12314,1,0,0:0:0:0:
440,224,12514,2,0,L|440:168,1,50
420,156,12714,1,0,0:0:0:0:
394,138,12814,1,0,0:0:0:0:
369,120,12914,1,0,0:0:0:0:
338,120,13014,1,0,0:0:0:0:
306,120,13114,1,0,0:0:0:0:
275,120,13214,1,0,0:0:0:0:
244,120,13314,6,0,B|208:120|208:120|208:144|208:144|160:168,1,100
296,304,13714,2,0,L|352:248,1,50
332,101,13914,2,0,L|256:80,1,50
139,170,14114,2,0,L|159:247,1,50
400,218,14314,2,0,L|375:123,1,50
206,53,14514,2,0,L|137:122,1,50
160,304,14714,2,0,L|255:329,1,50
408,328,14914,5,0,0:0:0:0:
328,240,15114,1,0,0:0:0:0:
306,227,15214,1,0,0:0:0:0:
284,215,15314,1,0,0:0:0:0:
104,56,15514,1,0,0:0:0:0:
184,144,15714,1,0,0:0:0:0:
205,156,15814,1,0,0:0:0:0:
227,168,15914,1,0,0:0:0:0:
320,120,16114,2,0,B|336:128|336:128|392:80|392:80|392:56,1,100
176,264,16514,2,0,B|128:272|128:272|104:304|144:336,1,100
80,208,16814,2,0,B|88:160|88:160|72:136|80:112,1,100
176,152,17114,5,0,0:0:0:0:
400,296,17314,1,0,0:0:0:0:
144,48,17514,1,0,0:0:0:0:
448,48,17714,1,0,0:0:0:0:
248,248,17914,2,0,B|232:232|232:232|208:288|168:296|168:296|160:312|136:328,1,150
96,240,18314,2,0,B|72:200|72:200|64:160|64:160|32:152|24:104,1,150
224,96,18714,2,0,B|256:120|264:160|264:160|288:176,1,100
352,288,19114,2,0,L|280:296,1,50
160,288,19314,1,0,0:0:0:0:
160,96,19514,1,0,0:0:0:0:
352,168,19714,6,0,L|384:232,1,50
352,288,19914,2,0,B|344:304|344:304|256:304,1,100
32,240,20314,1,0,0:0:0:0:
136,328,20514,2,0,L|216:312,1,50
288,264,20714,2,0,L|192:248,1,50
96,192,20914,2,0,L|176:176,1,50
328,112,21114,2,0,L|232:96,1,50
104,40,21314,6,0,B|64:72|64:72|56:120|56:120|64:88,2,100,0|0|0,0:0|0:0|0:0,0:0:0:0:
160,280,21914,2,0,L|200:344,1,50
360,272,22114,2,0,L|333:229,1,50
200,152,22314,2,0,L|240:216,1,50
400,144,22514,2,0,L|373:101,1,50
240,24,22714,1,0,0:0:0:0:
256,192,22914,1,0,0:0:0:0:
272,360,23114,1,0,0:0:0:0:
152,248,23314,6,0,B|112:216|112:216|144:168,1,100
296,104,23714,1,0,0:0:0:0:
256,288,23914,1,0,0:0:0:0:
424,240,24114,1,0,0:0:0:0:
256,184,24314,2,0,B|264:200|264:200|200:176|176:152,1,100
360,304,24714,1,0,0:0:0:0:
152,80,24914,1,0,0:0:0:0:
440,40,25114,2,0,B|416:48|400:72|376:80|376:80|352:120,1,100
256,144,25514,2,0,L|176:160,1,50
264,240,25714,2,0,L|232:312,1,50
64,288,25914,1,0,0:0:0:0:
365,353,26114,5,0,0:0:0:0:
399,264,26314,1,0,0:0:0:0:
328,48,26514,1,0,0:0:0:0:
417,82,26714,1,0,0:0:0:0:
192,176,26914,2,0,L|112:208,1,50
240,256,27114,2,0,L|272:336,1,50
320,208,27314,2,0,L|400:176,1,50
272,128,27514,2,0,L|240:48,1,50
432,80,27714,6,0,B|416:80|416:80|336:56|336:56|347:59,2,100,0|0|0,0:0|0:0|0:0,0:0:0:0:
456,208,28314,1,0,0:0:0:0:
208,264,28514,2,0,L|120:232,1,50
56,88,28714,1,0,0:0:0:0:
304,264,28914,2,0,L|376:232,1,50
256,72,29114,1,0,0:0:0:0:
256,264,29314,6,0,B|208:248|192:272|192:272|176:344,1,100
193,156,29614,2,0,B|168:144|168:144|160:88|208:80,1,100
318,156,29914,2,0,L|388:215,1,50
192,312,30114,1,0,0:0:0:0:
392,248,30314,1,0,0:0:0:0:
160,184,30514,1,0,0:0:0:0:
296,152,30714,6,0,B|328:160|328:160|368:296,1,150
296,152,31114,2,0,B|273:175|273:175|135:142,1,150
296,152,31514,2,0,B|286:120|286:120|384:17,1,150
456,96,31914,2,0,L|456:160,1,50,0|0,0:0|0:0,0:0:0:0:
384,240,32114,2,0,L|336:288,1,50
128,280,32314,1,0,0:0:0:0:
80,96,32514,2,0,B|128:112|128:112|136:136|160:160,1,100
256,184,32914,1,0,0:0:0:0:
360,304,33114,1,0,0:0:0:0:
256,112,33314,1,0,0:0:0:0:
152,304,33514,1,0,0:0:0:0:
256,40,33714,1,0,0:0:0:0:
360,304,33914,6,0,B|392:312|392:312|408:328|408:328|432:336|432:336|448:352,1,100
256,112,34314,1,0,0:0:0:0:
424,64,34514,1,0,0:0:0:0:
384,224,34714,1,0,0:0:0:0:
152,304,34914,2,0,B|120:312|120:312|96:304|72:304|72:288|72:288|72:272,1,100
80,192,35314,2,0,B|112:168|112:168|112:128|112:128|120:96,1,100
319,52,35714,1,0,0:0:0:0:
161,114,35914,1,0,0:0:0:0:
224,272,36114,1,0,0:0:0:0:
384,208,36314,6,0,L|336:224,1,50
256,232,36514,2,0,B|209:227|209:227|169:219|169:219|153:195|161:187,1,100
144,104,36814,2,0,B|184:56|184:56|216:48|232:88,1,100,0|0,0:0|0:0,0:0:0:0:
256,192,37114,1,0,0:0:0:0:
296,312,37314,5,0,0:0:0:0:
424,352,37514,1,0,0:0:0:0:
136,232,37714,1,0,0:0:0:0:
96,360,37914,1,0,0:0:0:0:
216,72,38114,1,0,0:0:0:0:
88,32,38314,1,0,0:0:0:0:
376,152,38514,1,0,0:0:0:0:
416,24,38714,1,0,0:0:0:0:
336,176,38914,6,0,B|368:200|368:200|376:232|416:248,1,100
328,336,39314,1,0,0:0:0:0:
240,112,39514,2,0,B|288:96|288:96|304:64|280:40,1,100
176,208,39914,2,0,B|160:200|160:200|120:232|104:280,1,100
296,272,40314,1,0,0:0:0:0:
384,136,40514,2,0,B|456:96|456:96|480:120,1,100
384,136,40814,2,0,B|384:216|384:216|408:224,1,100
384,136,41114,6,0,L|294:76,1,100
269,80,41414,1,0,0:0:0:0:
238,81,41514,1,0,0:0:0:0:
215,102,41614,1,0,0:0:0:0:
192,123,41714,1,0,0:0:0:0:
169,144,41814,1,0,0:0:0:0:
146,166,41914,1,0,0:0:0:0:
119,176,42014,1,0,0:0:0:0:
88,176,42114,6,0,L|24:176,1,50
272,176,42314,2,0,B|312:160|312:160|368:152|368:152|360:144,2,100,0|0|0,0:0|0:0|0:0,0:0:0:0:
304,312,42914,2,0,B|264:344|264:344|176:320,1,100
208,72,43314,2,0,L|280:104,1,50
440,192,43514,2,0,B|344:224|344:224|288:208,1,150
72,192,43914,2,0,B|168:160|168:160|224:176,1,150
344,248,44314,2,0,B|304:264|286:259|286:259|248:224,1,100
104,208,44714,6,0,L|176:176,1,50
318,52,44914,2,0,L|309:130,1,50
345,315,45114,2,0,L|282:269,1,50
104,296,45314,6,0,B|136:288|136:288|184:216,1,100
440,56,45714,1,0,0:0:0:0:
288,312,45914,2,0,B|248:344|248:344|160:344,1,100
198,312,46214,1,0,0:0:0:0:
198,274,46314,1,0,0:0:0:0:
199,237,46414,1,0,0:0:0:0:
200,200,46514,2,0,L|112:200,1,50
312,184,46714,2,0,L|400:184,1,50
112,80,46914,6,0,B|176:120|176:120|192:152,1,100
424,123,47214,2,0,B|358:158|358:158|322:156,1,100
231,372,47514,2,0,B|233:297|233:297|253:267,1,100
432,296,47914,1,0,0:0:0:0:
424,272,48014,1,0,0:0:0:0:
417,248,48114,1,0,0:0:0:0:
409,224,48214,1,0,0:0:0:0:
400,200,48314,6,0,L|304:224,1,50
136,256,48514,2,0,L|88:320,1,50
120,120,48714,2,0,B|112:72|87:27|87:27|89:43,2,100,0|0|0,0:0|0:0|0:0,0:0:0:0:
400,200,49314,1,0,0:0:0:0:
256,56,49514,1,0,0:0:0:0:
112,200,49714,1,0,0:0:0:0:
376,256,49914,2,0,B|392:304|392:304|376:360|376:360|416:368,1,150
376,256,50314,2,0,B|409:218|409:218|466:204|466:204|452:165,1,150
376,256,50714,2,0,B|326:245|326:245|285:203|285:203|259:234,1,150
200,56,51114,1,0,0:0:0:0:
208,304,51314,1,0,0:0:0:0:
0,192,51514,1,0,0:0:0:0:
400,184,51714,6,0,B|488:160|448:128|448:128|456:120,1,100
296,80,52014,2,0,B|280:72|280:72|248:112|256:160,1,100
232,336,52314,1,0,0:0:0:0:
388,135,52514,2,0,B|463:82|414:66|414:66|419:55,1,100
255,73,52814,2,0,B|237:71|237:71|221:119|245:161,1,100
284,383,53114,1,0,0:0:0:0:
104,192,53314,6,0,B|88:144|88:144|40:152,1,100
232,56,53614,2,0,B|216:64|216:64|264:112|256:152,1,100
280,336,53914,1,0,0:0:0:0:
113,140,54114,2,0,B|114:89|114:89|66:80,1,100
279,55,54414,2,0,B|262:58|262:58|290:119|269:154,1,100
228,383,54714,1,0,0:0:0:0:
192,192,54914,6,0,B|160:144|160:144|160:88,1,100
128,240,55214,2,0,L|168:296,1,50
256,40,55514,1,0,0:0:0:0:
320,192,55714,2,0,B|352:144|352:144|352:88,1,100
384,240,56014,2,0,L|344:296,1,50
256,344,56314,1,0,0:0:0:0:
160,192,56514,6,0,B|136:208|136:208|96:176|96:176|80:176|56:160,1,100
352,192,56814,2,0,B|376:208|376:208|416:176|416:176|432:176|456:160,1,100
63,59,57114,1,0,0:0:0:0:
441,59,57314,1,0,0:0:0:0:
256,192,57714,6,0,L|224:224,1,34.9999989318848
256,200,57814,2,0,L|288:232,1,34.9999989318848,0|0,0:0|0:0,0:0:0:0:
256,208,57914,2,0,L|224:240,1,34.9999989318848
256,216,58014,2,0,L|288:248,1,34.9999989318848
256,232,58114,2,0,B|256:328|256:328|284:336|284:336|326:328,1,139.999995727539
392,280,58514,2,0,L|456:240,1,69.9999978637696
256,336,58714,1,0,0:0:0:0:
72,240,58914,1,0,0:0:0:0:
256,296,59114,1,0,0:0:0:0:
504,144,59314,1,0,0:0:0:0:
256,256,59514,1,0,0:0:0:0:
37,122,59714,6,0,B|64:127|64:127|85:125|85:125|101:59|35:36,1,139.999995727539
256,40,60114,1,0,0:0:0:0:
456,128,60314,2,0,B|416:112|416:112|416:64|328:80,1,139.999995727539
72,200,60714,2,0,L|136:160,1,69.9999978637696
400,200,60914,2,0,L|320:144,1,69.9999978637696
144,296,61114,2,0,L|184:216,1,69.9999978637696
320,304,61314,6,0,B|288:272|288:272|296:232|296:232|272:184,1,139.999995727539
256,72,61714,1,0,0:0:0:0:
192,184,61914,2,0,B|184:208|184:208|88:232|64:160,1,139.999995727539
360,152,62314,1,0,0:0:0:0:
160,320,62514,1,0,0:0:0:0:
168,88,62714,1,0,0:0:0:0:
328,304,62914,2,0,B|351:353|454:337|454:337|424:326,2,139.999995727539,0|0|0,0:0|0:0|0:0,0:0:0:0:
104,240,63514,1,0,0:0:0:0:
440,104,63714,1,0,0:0:0:0:
88,128,63914,1,0,0:0:0:0:
440,216,64114,1,0,0:0:0:0:
72,16,64314,1,0,0:0:0:0:
256,32,64514,6,0,B|216:48|216:48|160:32|176:136,1,139.999995727539
464,40,64914,1,0,0:0:0:0:
464,288,65114,2,0,B|408:344|408:344|384:320|384:320|336:328,1,139.999995727539
80,192,65514,1,0,0:0:0:0:
256,328,65714,1,0,0:0:0:0:
424,192,65914,1,0,0:0:0:0:
256,24,66114,2,0,B|272:64|272:64|272:64|240:136|240:136|256:168,1,139.999995727539
256,360,66414,2,0,B|272:320|272:320|272:320|240:248|240:248|256:216,1,139.999995727539
152,112,66714,2,0,B|98:70|98:70|115:83,2,69.9999978637696,0|0|0,0:0|0:0|0:0,0:0:0:0:
440,192,67114,1,0,0:0:0:0:
256,360,67314,1,0,0:0:0:0:
72,192,67514,1,0,0:0:0:0:
184,32,67714,5,0,0:0:0:0:
384,96,67914,2,0,B|456:104|456:104|480:168|440:184,1,139.999995727539
256,360,68314,1,0,0:0:0:0:
113,89,68514,1,0,0:0:0:0:
320,48,68714,2,0,B|328:80|328:80|376:32|440:64,1,139.999995727539
256,360,69114,1,0,0:0:0:0:
48,336,69314,2,0,B|48:304|48:304|72:240|136:232,1,139.999995727539
160,304,69614,2,0,B|184:312|184:312|248:288|208:208,1,139.999995727539
112,160,69914,2,0,L|128:56,1,69.9999978637696
192,96,70114,2,0,L|272:56,1,69.9999978637696
272,64,70314,6,0,L|272:16,1,34.9999989318848
288,64,70414,2,0,L|288:128,1,34.9999989318848
312,64,70514,2,0,L|312:8,1,34.9999989318848
328,64,70614,2,0,L|328:120,1,34.9999989318848
352,64,70714,2,0,L|352:16,1,34.9999989318848
368,64,70814,2,0,L|368:128,1,34.9999989318848
392,64,70914,2,0,B|464:64|464:64|464:136,1,139.999995727539
448,320,71314,1,0,0:0:0:0:
200,264,71514,2,0,B|144:208|144:208|216:184,1,139.999995727539
446,128,71914,1,0,0:0:0:0:
136,144,72114,1,0,0:0:0:0:
376,320,72314,1,0,0:0:0:0:
16,336,72514,6,0,B|96:320|96:320|96:272|56:256,1,139.999995727539
112,80,72914,1,0,0:0:0:0:
456,256,73114,2,0,B|400:288|400:288|343:239|343:239|355:233|355:233,2,139.999995727539,0|0|0,0:0|0:0|0:0,0:0:0:0:
96,224,73714,1,0,0:0:0:0:
464,112,73914,1,0,0:0:0:0:
256,0,74114,6,0,B|200:48|200:48|256:112,1,139.999995727539
256,192,74514,1,0,0:0:0:0:
256,384,74714,2,0,B|312:336|312:336|256:272,1,139.999995727539
136,104,75114,2,0,B|104:72|104:72|72:64|72:64|64:32|16:48,1,139.999995727539
376,104,75514,2,0,B|408:72|408:72|440:64|440:64|448:32|496:48,1,139.999995727539
256,240,75914,2,0,B|248:272|248:272|264:304|264:304|248:344|248:344|256:384,1,139.999995727539
256,32,76314,1,0,0:0:0:0:
256,240,76514,1,0,0:0:0:0:
32,96,76714,5,0,0:0:0:0:
256,312,76914,1,0,0:0:0:0:
480,96,77114,1,0,0:0:0:0:
48,232,77314,2,0,L|88:168,1,69.9999978637696
144,224,77514,2,0,L|184:296,1,69.9999978637696
104,312,77714,2,0,L|32:312,1,69.9999978637696
464,152,77914,2,0,L|424:216,1,69.9999978637696
368,160,78114,2,0,L|328:96,1,69.9999978637696
408,72,78314,2,0,L|488:72,1,69.9999978637696
256,320,78514,1,0,0:0:0:0:
256,64,78714,1,0,0:0:0:0:
464,336,78914,6,0,B|408:280|416:240|416:240|472:248,1,139.999995727539
48,336,79314,1,0,0:0:0:0:
360,336,79514,2,0,B|320:296|320:296|272:288|240:336,1,139.999995727539
256,0,79914,1,0,0:0:0:0:
135,192,80114,1,0,0:0:0:0:
376,192,80314,1,0,0:0:0:0:
165,270,80514,6,0,L|93:286,1,69.9999978637696
75,351,80714,2,0,L|99:279,1,69.9999978637696
47,236,80914,2,0,L|103:292,1,69.9999978637696
347,270,81114,2,0,L|419:286,1,69.9999978637696
437,351,81314,2,0,L|413:279,1,69.9999978637696
465,236,81514,2,0,L|409:292,1,69.9999978637696
256,352,81714,1,0,0:0:0:0:
256,32,81914,1,0,0:0:0:0:
416,128,82114,6,0,B|384:184|384:184|352:192|336:184|336:184|304:216,1,139.999995727539
96,256,82414,2,0,B|128:200|128:200|160:192|176:200|176:200|208:168,1,139.999995727539
256,272,82714,1,0,0:0:0:0:
96,48,82914,2,0,B|176:88|176:88|152:136,1,139.999995727539
416,336,83314,2,0,B|336:296|336:296|360:248,1,139.999995727539
288,96,83714,6,0,B|296:80|296:80|240:64|240:64|176:96|176:128,1,139.999995727539
224,288,84014,2,0,B|216:304|216:304|272:320|272:320|336:288|336:256,1,139.999995727539
256,8,84314,2,0,L|184:-8,1,69.9999978637696
120,160,84514,6,0,B|104:152|104:152|88:208|88:208|120:272|152:272,1,139.999995727539
392,224,84814,2,0,B|408:232|408:232|424:176|424:176|392:112|360:112,1,139.999995727539
16,136,85114,2,0,L|0:208,1,69.9999978637696
440,64,85314,5,0,0:0:0:0:
296,144,85514,1,0,0:0:0:0:
252,119,85614,1,0,0:0:0:0:
209,93,85714,1,0,0:0:0:0:
72,320,85914,5,0,0:0:0:0:
216,240,86114,1,0,0:0:0:0:
260,265,86214,1,0,0:0:0:0:
303,291,86314,1,0,0:0:0:0:
462,192,86514,5,0,0:0:0:0:
49,192,86714,1,0,0:0:0:0:
256,192,86914,12,0,88714,0:0:0:0:
