osu file format v12

[General]
AudioFilename: Henai no Rondo.mp3
AudioLeadIn: 0
PreviewTime: 56087
Countdown: 0
SampleSet: Soft
StackLeniency: 0.7
Mode: 3
LetterboxInBreaks: 0
SpecialStyle: 0
WidescreenStoryboard: 1

[Editor]
DistanceSpacing: 1
BeatDivisor: 4
GridSize: 4
TimelineZoom: 1.4

[Metadata]
Title:Henai no Rondo (TV Size)
TitleUnicode:Henai no Rondo (TV Size)
Artist:GRANRODEO
ArtistUnicode:GRANRODEO
Creator:Uchiha_Shinichi
Version:7K HD
Source:Karneval
Tags:op gareki yuutosan
BeatmapID:404730
BeatmapSetID:166069

[Difficulty]
HPDrainRate:7
CircleSize:7
OverallDifficulty:8
ApproachRate:5
SliderMultiplier:1.1
SliderTickRate:1

[Events]
//Background and Video events
0,0,"guyv3.png",0,0
Video,0,"henai no rondo.flv"
//Break Periods
//Storyboard Layer 0 (Background)
//Storyboard Layer 1 (Fail)
//Storyboard Layer 2 (Pass)
//Storyboard Layer 3 (Foreground)
//Storyboard Sound Samples
//Background Colour Transformations
3,100,163,162,255

[TimingPoints]
1175,300,4,2,1,70,1,0
4775,297.397769516729,4,2,1,70,1,0
5963,300,4,2,1,70,1,0
10768,300,4,2,1,70,1,0
19168,301.507537688442,4,2,1,70,1,0
20374,300,4,2,1,70,1,0
27574,298.804780876494,4,2,1,70,1,0
29964,300,4,2,1,70,1,0
34764,300.751879699248,4,2,1,70,1,0
39566,300,3,2,1,70,1,0
47366,300,4,2,1,70,1,0
56966,300.751879699248,4,2,1,70,1,1
60575,299.25187032419,4,2,1,70,1,1
62969,300,4,2,1,70,1,1
76162,-111.111111111111,4,2,1,70,0,1
77362,-125,4,2,1,70,0,1
78562,-142.857142857143,4,2,1,70,0,1
79763,-166.666666666667,4,2,1,70,0,1
79769,295.566502463054,4,2,1,70,1,1
81559,-100,4,2,1,70,0,1
82133,300,4,2,1,70,1,1
82733,307.692307692308,4,2,1,70,1,0

[HitObjects]
256,192,575,5,0,0:0:0:0:
329,192,650,1,0,0:0:0:0:
402,192,725,1,0,0:0:0:0:
475,192,800,1,0,0:0:0:0:
36,192,875,1,0,0:0:0:0:
109,192,950,1,0,0:0:0:0:
182,192,1025,1,0,0:0:0:0:
256,192,1100,1,0,0:0:0:0:
36,192,1175,1,0,0:0:0:0:
329,192,1175,128,0,2375:0:0:0:0:
109,192,1475,1,0,0:0:0:0:
36,192,1775,1,8,0:0:0:0:
256,192,1775,1,0,0:0:0:0:
402,192,2075,1,0,0:0:0:0:
475,192,2375,1,0,0:0:0:0:
36,192,2375,1,0,0:0:0:0:
109,192,2675,1,0,0:0:0:0:
402,192,2675,1,8,0:0:0:0:
182,192,2975,1,0,0:0:0:0:
329,192,2975,1,0,0:0:0:0:
109,192,3275,1,0,0:0:0:0:
402,192,3275,1,0,0:0:0:0:
36,192,3575,128,0,4775:0:0:0:0:
182,192,3575,1,0,0:0:0:0:
475,192,3575,1,0,0:0:0:0:
256,192,3875,1,0,0:0:0:0:
329,192,4175,1,0,0:0:0:0:
475,192,4175,1,8,0:0:0:0:
109,192,4475,1,0,0:0:0:0:
475,192,4775,1,0,0:0:0:0:
256,192,5072,1,0,0:0:0:0:
475,192,5072,1,8,0:0:0:0:
36,192,5369,1,0,0:0:0:0:
475,192,5369,1,0,0:0:0:0:
109,192,5444,1,0,0:0:0:0:
182,192,5518,1,0,0:0:0:0:
256,192,5592,1,0,0:0:0:0:
329,192,5667,1,0,0:0:0:0:
475,192,5667,1,0,0:0:0:0:
109,192,5741,1,0,0:0:0:0:
182,192,5815,1,0,0:0:0:0:
256,192,5890,1,0,0:0:0:0:
329,192,5963,1,0,0:0:0:0:
402,192,5963,128,0,8363:0:0:0:0:
36,192,5963,1,4,0:0:0:0:
182,192,6113,1,0,0:0:0:0:
36,192,6263,1,0,0:0:0:0:
256,192,6263,1,0,0:0:0:0:
109,192,6413,1,0,0:0:0:0:
36,192,6563,1,2,0:0:0:0:
475,192,6563,1,0,0:0:0:0:
182,192,6713,1,0,0:0:0:0:
36,192,6863,1,0,0:0:0:0:
329,192,6863,1,0,0:0:0:0:
109,192,7013,1,0,0:0:0:0:
36,192,7163,1,0,0:0:0:0:
256,192,7163,1,0,0:0:0:0:
109,192,7313,1,0,0:0:0:0:
36,192,7463,1,0,0:0:0:0:
329,192,7463,1,0,0:0:0:0:
182,192,7613,1,0,0:0:0:0:
36,192,7763,1,0,0:0:0:0:
475,192,7763,1,2,0:0:0:0:
109,192,7913,1,0,0:0:0:0:
36,192,8063,1,0,0:0:0:0:
256,192,8063,1,0,0:0:0:0:
182,192,8213,1,0,0:0:0:0:
36,192,8363,1,4,0:0:0:0:
329,192,8363,1,0,0:0:0:0:
109,192,8363,128,0,9563:0:0:0:0:
475,192,8363,1,0,0:0:0:0:
256,192,8513,1,0,0:0:0:0:
182,192,8663,1,0,0:0:0:0:
475,192,8663,1,0,0:0:0:0:
36,192,8813,1,0,0:0:0:0:
256,192,8963,1,0,0:0:0:0:
475,192,8963,1,2,0:0:0:0:
329,192,9113,1,0,0:0:0:0:
36,192,9263,1,0,0:0:0:0:
475,192,9263,1,0,0:0:0:0:
402,192,9413,1,0,0:0:0:0:
36,192,9563,1,0,0:0:0:0:
475,192,9563,1,0,0:0:0:0:
329,192,9713,1,0,0:0:0:0:
182,192,9713,1,0,0:0:0:0:
36,192,9863,1,0,0:0:0:0:
475,192,9863,1,0,0:0:0:0:
329,192,10013,1,0,0:0:0:0:
182,192,10013,1,0,0:0:0:0:
109,192,10463,1,0,0:0:0:0:
256,192,10613,1,0,0:0:0:0:
475,192,10613,1,4,0:0:0:0:
329,192,10763,1,0,0:0:0:0:
402,192,10918,1,0,0:0:0:0:
182,192,11068,1,8,0:0:0:0:
475,192,11068,1,0,0:0:0:0:
109,192,11068,1,0,0:0:0:0:
402,192,11218,1,0,0:0:0:0:
329,192,11368,1,0,0:0:0:0:
36,192,11368,1,0,0:0:0:0:
256,192,11518,1,0,0:0:0:0:
109,192,11668,1,0,0:0:0:0:
329,192,11668,1,0,0:0:0:0:
475,192,11668,1,8,0:0:0:0:
402,192,11818,1,0,0:0:0:0:
182,192,11968,1,0,0:0:0:0:
475,192,11968,1,0,0:0:0:0:
402,192,12118,1,0,0:0:0:0:
109,192,12268,1,0,0:0:0:0:
475,192,12268,1,0,0:0:0:0:
256,192,12268,1,8,0:0:0:0:
402,192,12418,1,0,0:0:0:0:
36,192,12568,1,0,0:0:0:0:
329,192,12568,1,0,0:0:0:0:
256,192,12718,1,0,0:0:0:0:
182,192,12868,1,0,0:0:0:0:
475,192,12868,1,8,0:0:0:0:
109,192,13018,1,0,0:0:0:0:
402,192,13018,1,0,0:0:0:0:
256,192,13018,1,4,0:0:0:0:
36,192,13168,1,0,0:0:0:0:
109,192,13318,1,0,0:0:0:0:
402,192,13468,1,8,0:0:0:0:
182,192,13468,1,0,0:0:0:0:
36,192,13468,1,0,0:0:0:0:
256,192,13618,1,0,0:0:0:0:
475,192,13768,1,0,0:0:0:0:
329,192,13768,1,0,0:0:0:0:
256,192,13918,1,0,0:0:0:0:
402,192,14068,1,8,0:0:0:0:
109,192,14068,1,0,0:0:0:0:
182,192,14068,1,0,0:0:0:0:
256,192,14218,1,0,0:0:0:0:
475,192,14368,1,0,0:0:0:0:
182,192,14368,1,0,0:0:0:0:
402,192,14368,1,0,0:0:0:0:
256,192,14518,1,0,0:0:0:0:
402,192,14668,1,8,0:0:0:0:
36,192,14668,1,0,0:0:0:0:
182,192,14668,1,0,0:0:0:0:
109,192,14818,1,0,0:0:0:0:
475,192,14968,1,0,0:0:0:0:
36,192,14968,1,0,0:0:0:0:
256,192,14968,1,0,0:0:0:0:
109,192,15118,1,0,0:0:0:0:
402,192,15268,1,8,0:0:0:0:
329,192,15418,1,0,0:0:0:0:
182,192,15418,1,4,0:0:0:0:
109,192,15418,1,0,0:0:0:0:
402,192,15568,1,0,0:0:0:0:
182,192,15718,1,0,0:0:0:0:
109,192,15868,1,0,0:0:0:0:
329,192,15868,1,0,0:0:0:0:
475,192,15868,1,8,0:0:0:0:
402,192,16018,1,0,0:0:0:0:
36,192,16168,1,0,0:0:0:0:
475,192,16168,1,0,0:0:0:0:
402,192,16318,1,0,0:0:0:0:
182,192,16468,1,0,0:0:0:0:
329,192,16468,1,8,0:0:0:0:
109,192,16468,1,0,0:0:0:0:
256,192,16618,1,0,0:0:0:0:
36,192,16768,1,0,0:0:0:0:
329,192,16768,1,0,0:0:0:0:
402,192,16918,1,0,0:0:0:0:
182,192,17068,1,0,0:0:0:0:
475,192,17068,1,8,0:0:0:0:
329,192,17068,1,0,0:0:0:0:
402,192,17218,1,0,0:0:0:0:
36,192,17368,1,0,0:0:0:0:
329,192,17368,1,0,0:0:0:0:
256,192,17518,1,0,0:0:0:0:
182,192,17668,1,8,0:0:0:0:
256,192,17818,1,0,0:0:0:0:
36,192,17818,1,0,0:0:0:0:
329,192,17818,1,4,0:0:0:0:
475,192,17968,1,0,0:0:0:0:
36,192,18118,1,0,0:0:0:0:
402,192,18268,1,8,0:0:0:0:
182,192,18268,1,0,0:0:0:0:
109,192,18268,1,0,0:0:0:0:
256,192,18418,1,0,0:0:0:0:
475,192,18568,1,0,0:0:0:0:
182,192,18568,1,0,0:0:0:0:
109,192,18718,1,0,0:0:0:0:
256,192,18868,1,8,0:0:0:0:
402,192,18868,1,0,0:0:0:0:
182,192,18868,1,0,0:0:0:0:
329,192,19018,1,0,0:0:0:0:
475,192,19168,1,0,0:0:0:0:
402,192,19318,1,0,0:0:0:0:
182,192,19469,1,0,0:0:0:0:
109,192,19469,1,0,0:0:0:0:
329,192,19469,1,8,0:0:0:0:
475,192,19771,1,0,0:0:0:0:
256,192,19771,1,0,0:0:0:0:
109,192,19921,1,0,0:0:0:0:
36,192,19997,1,0,0:0:0:0:
109,192,20072,1,0,0:0:0:0:
329,192,20072,1,0,0:0:0:0:
182,192,20147,1,0,0:0:0:0:
256,192,20223,1,0,0:0:0:0:
329,192,20298,1,0,0:0:0:0:
402,192,20374,1,0,0:0:0:0:
36,192,20374,1,0,0:0:0:0:
329,192,20449,1,0,0:0:0:0:
402,192,20524,1,0,0:0:0:0:
329,192,20599,1,0,0:0:0:0:
36,192,20674,1,0,0:0:0:0:
475,192,20674,1,0,0:0:0:0:
109,192,20974,1,0,0:0:0:0:
109,192,21124,1,0,0:0:0:0:
36,192,21274,1,0,0:0:0:0:
475,192,21274,1,0,0:0:0:0:
109,192,21724,1,0,0:0:0:0:
475,192,21874,1,0,0:0:0:0:
36,192,21874,1,0,0:0:0:0:
109,192,22174,1,0,0:0:0:0:
109,192,22324,1,0,0:0:0:0:
475,192,22474,1,0,0:0:0:0:
36,192,22474,1,0,0:0:0:0:
109,192,22774,1,0,0:0:0:0:
475,192,23074,1,0,0:0:0:0:
36,192,23074,1,0,0:0:0:0:
109,192,23524,1,0,0:0:0:0:
36,192,23674,1,0,0:0:0:0:
475,192,23674,1,0,0:0:0:0:
109,192,24124,1,0,0:0:0:0:
475,192,24274,1,0,0:0:0:0:
36,192,24274,1,0,0:0:0:0:
109,192,24574,1,0,0:0:0:0:
109,192,24724,1,0,0:0:0:0:
36,192,24874,1,0,0:0:0:0:
475,192,24874,1,0,0:0:0:0:
109,192,25174,1,0,0:0:0:0:
402,192,25249,1,0,0:0:0:0:
109,192,25324,1,0,0:0:0:0:
402,192,25399,1,0,0:0:0:0:
109,192,25474,1,0,0:0:0:0:
402,192,25924,1,0,0:0:0:0:
36,192,26074,1,0,0:0:0:0:
475,192,26074,1,0,0:0:0:0:
402,192,26524,1,0,0:0:0:0:
475,192,26674,1,0,0:0:0:0:
36,192,26674,1,0,0:0:0:0:
402,192,26974,1,0,0:0:0:0:
402,192,27124,1,0,0:0:0:0:
36,192,27274,1,0,0:0:0:0:
475,192,27274,1,0,0:0:0:0:
109,192,27574,1,0,0:0:0:0:
256,192,27574,1,0,0:0:0:0:
402,192,27574,1,0,0:0:0:0:
36,192,29217,1,0,0:0:0:0:
109,192,29292,1,0,0:0:0:0:
182,192,29366,1,0,0:0:0:0:
329,192,29366,1,0,0:0:0:0:
182,192,29516,1,0,0:0:0:0:
329,192,29516,1,0,0:0:0:0:
36,192,29964,128,0,31164:0:0:0:0:
182,192,29964,1,0,0:0:0:0:
475,192,29964,1,4,0:0:0:0:
329,192,30114,1,0,0:0:0:0:
475,192,30264,1,8,0:0:0:0:
182,192,30264,1,0,0:0:0:0:
256,192,30414,1,0,0:0:0:0:
329,192,30564,1,0,0:0:0:0:
109,192,30564,1,0,0:0:0:0:
182,192,30714,1,0,0:0:0:0:
256,192,30864,1,0,0:0:0:0:
402,192,30864,1,8,0:0:0:0:
329,192,31014,1,0,0:0:0:0:
109,192,31164,128,0,31464:0:0:0:0:
256,192,31164,1,0,0:0:0:0:
475,192,31164,1,0,0:0:0:0:
36,192,31464,1,0,0:0:0:0:
182,192,31464,128,0,32064:0:0:0:0:
402,192,31464,1,8,0:0:0:0:
475,192,31614,1,0,0:0:0:0:
329,192,31764,1,0,0:0:0:0:
36,192,31914,1,8,0:0:0:0:
475,192,32064,1,8,0:0:0:0:
109,192,32064,1,0,0:0:0:0:
256,192,32364,128,8,33564:0:0:0:0:
36,192,32364,1,0,0:0:0:0:
402,192,32364,1,0,0:0:0:0:
109,192,32514,1,0,0:0:0:0:
475,192,32664,1,8,0:0:0:0:
182,192,32664,1,0,0:0:0:0:
402,192,32814,1,0,0:0:0:0:
36,192,32964,1,0,0:0:0:0:
182,192,32964,1,0,0:0:0:0:
402,192,33114,1,0,0:0:0:0:
329,192,33264,1,8,0:0:0:0:
36,192,33264,1,0,0:0:0:0:
182,192,33414,1,0,0:0:0:0:
329,192,33564,128,0,33864:0:0:0:0:
109,192,33564,1,0,0:0:0:0:
475,192,33564,1,0,0:0:0:0:
402,192,33864,128,0,34464:0:0:0:0:
36,192,33864,1,8,0:0:0:0:
475,192,33864,1,0,0:0:0:0:
329,192,34164,1,0,0:0:0:0:
256,192,34314,1,8,0:0:0:0:
182,192,34464,1,8,0:0:0:0:
36,192,34464,1,0,0:0:0:0:
109,192,34764,1,4,0:0:0:0:
402,192,34764,1,0,0:0:0:0:
109,192,34914,1,0,0:0:0:0:
36,192,35064,1,0,0:0:0:0:
475,192,35064,1,0,0:0:0:0:
402,192,35215,1,0,0:0:0:0:
402,192,35365,1,0,0:0:0:0:
402,192,35515,1,0,0:0:0:0:
36,192,35666,1,0,0:0:0:0:
475,192,35666,1,0,0:0:0:0:
109,192,35816,1,0,0:0:0:0:
402,192,35816,1,0,0:0:0:0:
109,192,35967,1,0,0:0:0:0:
402,192,35967,1,0,0:0:0:0:
109,192,36117,1,0,0:0:0:0:
402,192,36117,1,0,0:0:0:0:
36,192,36267,1,0,0:0:0:0:
475,192,36267,1,0,0:0:0:0:
182,192,36418,1,0,0:0:0:0:
329,192,36418,1,0,0:0:0:0:
109,192,36568,1,0,0:0:0:0:
402,192,36568,1,0,0:0:0:0:
256,192,36718,1,0,0:0:0:0:
36,192,36869,1,0,0:0:0:0:
475,192,36869,1,0,0:0:0:0:
402,192,37019,1,0,0:0:0:0:
109,192,37019,1,0,0:0:0:0:
36,192,37170,1,0,0:0:0:0:
256,192,37170,1,4,0:0:0:0:
475,192,37170,1,0,0:0:0:0:
109,192,37771,1,0,0:0:0:0:
402,192,37771,1,8,0:0:0:0:
256,192,38072,1,4,0:0:0:0:
36,192,38072,1,0,0:0:0:0:
475,192,38072,1,0,0:0:0:0:
475,192,38373,1,0,0:0:0:0:
402,192,38448,1,0,0:0:0:0:
329,192,38598,1,0,0:0:0:0:
256,192,38673,1,0,0:0:0:0:
329,192,38748,1,0,0:0:0:0:
256,192,38899,1,0,0:0:0:0:
182,192,38974,1,0,0:0:0:0:
109,192,39049,1,0,0:0:0:0:
36,192,39200,1,0,0:0:0:0:
109,192,39275,1,0,0:0:0:0:
402,192,39275,1,0,0:0:0:0:
256,192,39275,1,10,0:0:0:0:
36,192,39566,128,0,41366:0:0:0:0:
182,192,39566,1,4,0:0:0:0:
475,192,39566,128,0,40016:0:0:0:0:
256,192,39866,1,0,0:0:0:0:
402,192,40016,1,0,0:0:0:0:
329,192,40166,1,0,0:0:0:0:
182,192,40166,128,0,41366:0:0:0:0:
475,192,40316,1,0,0:0:0:0:
109,192,40466,1,0,0:0:0:0:
256,192,40466,1,8,0:0:0:0:
402,192,40466,128,0,41366:0:0:0:0:
329,192,40766,1,0,0:0:0:0:
475,192,40766,1,8,0:0:0:0:
475,192,41066,1,8,0:0:0:0:
256,192,41366,128,0,43166:0:0:0:0:
109,192,41366,1,0,0:0:0:0:
329,192,41366,1,0,0:0:0:0:
329,192,41666,1,0,0:0:0:0:
182,192,41816,1,0,0:0:0:0:
475,192,41966,128,0,43166:0:0:0:0:
402,192,41966,1,0,0:0:0:0:
36,192,42116,1,0,0:0:0:0:
109,192,42266,128,0,43166:0:0:0:0:
182,192,42266,1,8,0:0:0:0:
402,192,42266,1,0,0:0:0:0:
36,192,42566,1,8,0:0:0:0:
329,192,42566,1,0,0:0:0:0:
182,192,42866,1,0,0:0:0:0:
402,192,42866,1,8,0:0:0:0:
182,192,43166,1,0,0:0:0:0:
36,192,43166,128,0,45566:0:0:0:0:
329,192,43166,1,0,0:0:0:0:
109,192,43466,1,0,0:0:0:0:
256,192,43616,1,0,0:0:0:0:
402,192,43766,1,0,0:0:0:0:
475,192,43916,1,0,0:0:0:0:
182,192,44066,1,8,0:0:0:0:
329,192,44066,1,0,0:0:0:0:
109,192,44066,128,0,45566:0:0:0:0:
182,192,44366,128,0,45566:0:0:0:0:
256,192,44366,1,8,0:0:0:0:
475,192,44666,128,0,45566:0:0:0:0:
402,192,44666,1,8,0:0:0:0:
402,192,44966,128,0,45566:0:0:0:0:
256,192,44966,1,4,0:0:0:0:
329,192,45266,1,0,0:0:0:0:
256,192,45566,1,0,0:0:0:0:
36,192,45866,1,0,0:0:0:0:
256,192,45866,1,0,0:0:0:0:
475,192,45866,1,4,0:0:0:0:
109,192,46166,1,0,0:0:0:0:
402,192,46166,1,8,0:0:0:0:
36,192,46466,1,0,0:0:0:0:
182,192,46466,1,0,0:0:0:0:
329,192,46466,1,0,0:0:0:0:
475,192,46466,1,4,0:0:0:0:
36,192,46766,1,0,0:0:0:0:
329,192,46841,1,0,0:0:0:0:
182,192,46916,1,0,0:0:0:0:
475,192,46991,1,0,0:0:0:0:
329,192,47066,1,0,0:0:0:0:
109,192,47066,1,0,0:0:0:0:
36,192,47366,1,0,0:0:0:0:
256,192,47366,1,0,0:0:0:0:
475,192,47366,1,4,0:0:0:0:
109,192,47516,1,0,0:0:0:0:
182,192,47666,1,0,0:0:0:0:
329,192,47666,1,8,0:0:0:0:
36,192,47666,1,0,0:0:0:0:
402,192,47816,1,0,0:0:0:0:
256,192,47966,1,0,0:0:0:0:
182,192,48116,1,0,0:0:0:0:
329,192,48266,1,8,0:0:0:0:
402,192,48266,1,0,0:0:0:0:
109,192,48266,1,0,0:0:0:0:
256,192,48416,1,0,0:0:0:0:
36,192,48566,1,0,0:0:0:0:
329,192,48716,1,0,0:0:0:0:
256,192,48866,1,0,0:0:0:0:
475,192,48866,1,8,0:0:0:0:
182,192,49016,1,0,0:0:0:0:
329,192,49166,128,0,49766:0:0:0:0:
36,192,49166,1,0,0:0:0:0:
109,192,49166,1,0,0:0:0:0:
182,192,49466,1,0,0:0:0:0:
256,192,49466,1,8,0:0:0:0:
475,192,49766,1,4,0:0:0:0:
36,192,49766,1,0,0:0:0:0:
109,192,49766,1,0,0:0:0:0:
109,192,50066,1,0,0:0:0:0:
256,192,50066,1,8,0:0:0:0:
182,192,50216,1,0,0:0:0:0:
36,192,50366,1,0,0:0:0:0:
256,192,50516,1,0,0:0:0:0:
402,192,50666,1,0,0:0:0:0:
329,192,50666,1,8,0:0:0:0:
182,192,50816,1,0,0:0:0:0:
36,192,50966,1,0,0:0:0:0:
475,192,50966,1,0,0:0:0:0:
402,192,50966,128,0,51566:0:0:0:0:
109,192,51116,1,0,0:0:0:0:
182,192,51116,1,0,0:0:0:0:
475,192,51266,1,0,0:0:0:0:
256,192,51266,1,8,0:0:0:0:
36,192,51416,1,0,0:0:0:0:
329,192,51416,1,0,0:0:0:0:
256,192,51566,1,0,0:0:0:0:
182,192,51641,1,0,0:0:0:0:
109,192,51716,1,0,0:0:0:0:
36,192,51791,1,0,0:0:0:0:
182,192,51866,1,0,0:0:0:0:
475,192,51866,1,0,0:0:0:0:
109,192,52166,1,0,0:0:0:0:
402,192,52166,1,4,0:0:0:0:
36,192,52166,128,0,54566:0:0:0:0:
182,192,52316,1,0,0:0:0:0:
256,192,52466,1,8,0:0:0:0:
475,192,52466,1,0,0:0:0:0:
402,192,52616,1,0,0:0:0:0:
329,192,52766,1,0,0:0:0:0:
182,192,52916,1,0,0:0:0:0:
475,192,53066,1,8,0:0:0:0:
109,192,53066,1,0,0:0:0:0:
256,192,53216,1,0,0:0:0:0:
402,192,53366,1,0,0:0:0:0:
475,192,53516,1,0,0:0:0:0:
329,192,53666,1,0,0:0:0:0:
256,192,53666,1,8,0:0:0:0:
182,192,53816,1,0,0:0:0:0:
329,192,53966,1,0,0:0:0:0:
182,192,54116,1,0,0:0:0:0:
109,192,54266,1,0,0:0:0:0:
402,192,54266,1,8,0:0:0:0:
182,192,54566,1,8,0:0:0:0:
329,192,54566,1,2,0:0:0:0:
402,192,54716,1,0,0:0:0:0:
402,192,54866,1,0,0:0:0:0:
329,192,55016,1,0,0:0:0:0:
182,192,55016,1,0,0:0:0:0:
109,192,55166,1,0,0:0:0:0:
109,192,55316,1,0,0:0:0:0:
182,192,55466,1,0,0:0:0:0:
329,192,55466,1,8,0:0:0:0:
475,192,55616,1,8,0:0:0:0:
36,192,55616,1,0,0:0:0:0:
36,192,55991,1,0,0:0:0:0:
475,192,55991,1,0,0:0:0:0:
402,192,56141,1,0,0:0:0:0:
109,192,56141,1,0,0:0:0:0:
182,192,56291,1,0,0:0:0:0:
329,192,56291,1,0,0:0:0:0:
256,192,56441,1,0,0:0:0:0:
329,192,56591,1,0,0:0:0:0:
182,192,56591,1,0,0:0:0:0:
256,192,56816,128,0,58770:0:0:0:0:
36,192,56816,1,0,0:0:0:0:
475,192,56816,1,4,0:0:0:0:
402,192,56966,1,0,0:0:0:0:
329,192,57116,1,0,0:0:0:0:
36,192,57266,1,0,0:0:0:0:
182,192,57266,1,8,0:0:0:0:
109,192,57417,1,0,0:0:0:0:
182,192,57567,1,0,0:0:0:0:
402,192,57717,1,0,0:0:0:0:
182,192,57868,1,8,0:0:0:0:
475,192,57868,1,0,0:0:0:0:
109,192,58018,1,0,0:0:0:0:
329,192,58169,1,0,0:0:0:0:
36,192,58169,128,0,58770:0:0:0:0:
109,192,58319,1,0,0:0:0:0:
182,192,58469,1,8,0:0:0:0:
402,192,58469,1,0,0:0:0:0:
329,192,58620,1,0,0:0:0:0:
475,192,58770,1,0,0:0:0:0:
109,192,58770,1,0,0:0:0:0:
329,192,58920,1,0,0:0:0:0:
402,192,58920,1,0,0:0:0:0:
109,192,59071,1,0,0:0:0:0:
256,192,59071,1,0,0:0:0:0:
36,192,59221,128,0,61173:0:0:0:0:
182,192,59221,1,0,0:0:0:0:
475,192,59221,1,4,0:0:0:0:
329,192,59372,1,0,0:0:0:0:
475,192,59522,1,0,0:0:0:0:
182,192,59672,1,8,0:0:0:0:
402,192,59672,1,0,0:0:0:0:
256,192,59823,1,0,0:0:0:0:
475,192,59973,1,0,0:0:0:0:
402,192,60123,1,0,0:0:0:0:
182,192,60274,1,8,0:0:0:0:
329,192,60274,1,0,0:0:0:0:
475,192,60424,1,0,0:0:0:0:
256,192,60575,128,0,61173:0:0:0:0:
329,192,60575,1,0,0:0:0:0:
475,192,60724,1,0,0:0:0:0:
109,192,60874,1,8,0:0:0:0:
329,192,60874,1,0,0:0:0:0:
402,192,61023,1,0,0:0:0:0:
475,192,61173,1,0,0:0:0:0:
182,192,61173,1,0,0:0:0:0:
109,192,61323,1,0,0:0:0:0:
402,192,61323,1,0,0:0:0:0:
256,192,61472,1,0,0:0:0:0:
475,192,61472,1,8,0:0:0:0:
109,192,61622,1,0,0:0:0:0:
36,192,61772,128,0,64169:0:0:0:0:
256,192,61772,1,0,0:0:0:0:
402,192,61772,1,4,0:0:0:0:
182,192,61921,1,0,0:0:0:0:
109,192,62071,1,8,0:0:0:0:
182,192,62220,1,0,0:0:0:0:
256,192,62370,1,0,0:0:0:0:
402,192,62520,1,0,0:0:0:0:
329,192,62669,1,8,0:0:0:0:
402,192,62819,1,4,0:0:0:0:
475,192,62819,128,0,65369:0:0:0:0:
182,192,62819,1,0,0:0:0:0:
182,192,63119,1,0,0:0:0:0:
329,192,63269,1,8,0:0:0:0:
182,192,63419,1,0,0:0:0:0:
402,192,63569,1,0,0:0:0:0:
256,192,63719,1,0,0:0:0:0:
182,192,63869,1,8,0:0:0:0:
329,192,64019,1,0,0:0:0:0:
109,192,64169,128,0,65669:0:0:0:0:
256,192,64169,1,4,0:0:0:0:
402,192,64169,1,0,0:0:0:0:
329,192,64319,1,0,0:0:0:0:
256,192,64469,1,8,0:0:0:0:
182,192,64619,1,0,0:0:0:0:
36,192,64769,1,0,0:0:0:0:
182,192,64919,1,0,0:0:0:0:
256,192,65069,1,8,0:0:0:0:
329,192,65219,1,0,0:0:0:0:
36,192,65369,1,0,0:0:0:0:
402,192,65369,128,0,65669:0:0:0:0:
329,192,65669,1,8,0:0:0:0:
182,192,65669,1,0,0:0:0:0:
182,192,65819,1,0,0:0:0:0:
256,192,65894,1,0,0:0:0:0:
36,192,65969,1,0,0:0:0:0:
475,192,65969,1,0,0:0:0:0:
256,192,66119,1,0,0:0:0:0:
182,192,66269,1,0,0:0:0:0:
329,192,66269,1,0,0:0:0:0:
36,192,66419,128,0,67169:0:0:0:0:
475,192,66419,1,4,0:0:0:0:
256,192,66419,1,0,0:0:0:0:
402,192,66569,1,0,0:0:0:0:
109,192,66719,1,8,0:0:0:0:
256,192,66719,1,0,0:0:0:0:
109,192,66869,1,0,0:0:0:0:
256,192,66869,1,8,0:0:0:0:
329,192,67019,1,0,0:0:0:0:
475,192,67019,1,8,0:0:0:0:
475,192,67169,1,0,0:0:0:0:
329,192,67169,1,8,0:0:0:0:
182,192,67319,1,0,0:0:0:0:
256,192,67469,1,0,0:0:0:0:
475,192,67619,128,0,68369:0:0:0:0:
329,192,67619,1,4,0:0:0:0:
36,192,67619,1,0,0:0:0:0:
109,192,67769,1,0,0:0:0:0:
256,192,67919,1,0,0:0:0:0:
402,192,67919,1,8,0:0:0:0:
402,192,68069,1,0,0:0:0:0:
256,192,68069,1,8,0:0:0:0:
36,192,68219,1,8,0:0:0:0:
182,192,68219,1,0,0:0:0:0:
36,192,68369,1,0,0:0:0:0:
182,192,68369,1,8,0:0:0:0:
402,192,68519,1,0,0:0:0:0:
329,192,68669,1,0,0:0:0:0:
256,192,68819,128,0,69569:0:0:0:0:
36,192,68819,1,0,0:0:0:0:
475,192,68819,1,4,0:0:0:0:
329,192,69119,1,0,0:0:0:0:
475,192,69119,1,8,0:0:0:0:
329,192,69269,1,8,0:0:0:0:
475,192,69269,1,0,0:0:0:0:
36,192,69419,1,8,0:0:0:0:
182,192,69419,1,0,0:0:0:0:
36,192,69569,1,0,0:0:0:0:
182,192,69569,1,8,0:0:0:0:
329,192,69719,1,0,0:0:0:0:
402,192,69869,1,0,0:0:0:0:
109,192,70019,128,0,70769:0:0:0:0:
475,192,70019,1,4,0:0:0:0:
256,192,70019,1,0,0:0:0:0:
329,192,70169,1,0,0:0:0:0:
256,192,70319,1,0,0:0:0:0:
182,192,70319,1,8,0:0:0:0:
182,192,70469,1,0,0:0:0:0:
256,192,70469,1,8,0:0:0:0:
402,192,70619,1,0,0:0:0:0:
475,192,70619,1,8,0:0:0:0:
402,192,70769,1,8,0:0:0:0:
475,192,70769,1,0,0:0:0:0:
36,192,70919,1,0,0:0:0:0:
109,192,70994,1,0,0:0:0:0:
182,192,71069,1,0,0:0:0:0:
475,192,71144,1,0,0:0:0:0:
402,192,71219,1,0,0:0:0:0:
329,192,71294,1,0,0:0:0:0:
256,192,71369,1,0,0:0:0:0:
36,192,71369,128,0,72569:0:0:0:0:
475,192,71369,1,4,0:0:0:0:
109,192,71519,1,0,0:0:0:0:
329,192,71669,1,8,0:0:0:0:
475,192,71669,1,0,0:0:0:0:
256,192,71819,1,0,0:0:0:0:
109,192,71969,1,0,0:0:0:0:
256,192,72119,1,0,0:0:0:0:
329,192,72269,1,8,0:0:0:0:
475,192,72269,1,0,0:0:0:0:
109,192,72419,1,0,0:0:0:0:
256,192,72569,128,0,73769:0:0:0:0:
182,192,72569,1,0,0:0:0:0:
475,192,72569,1,0,0:0:0:0:
402,192,72719,1,0,0:0:0:0:
36,192,72869,1,0,0:0:0:0:
182,192,72869,1,8,0:0:0:0:
109,192,73019,1,0,0:0:0:0:
475,192,73169,1,0,0:0:0:0:
329,192,73319,1,0,0:0:0:0:
36,192,73469,1,0,0:0:0:0:
182,192,73469,1,8,0:0:0:0:
109,192,73619,1,0,0:0:0:0:
36,192,73769,1,0,0:0:0:0:
475,192,73769,128,0,75569:0:0:0:0:
329,192,73769,1,4,0:0:0:0:
182,192,73919,1,0,0:0:0:0:
402,192,74069,1,0,0:0:0:0:
109,192,74069,1,8,0:0:0:0:
256,192,74219,1,0,0:0:0:0:
36,192,74369,1,0,0:0:0:0:
329,192,74369,1,0,0:0:0:0:
182,192,74519,1,0,0:0:0:0:
109,192,74669,1,8,0:0:0:0:
402,192,74669,1,0,0:0:0:0:
256,192,74819,1,0,0:0:0:0:
329,192,74969,1,0,0:0:0:0:
402,192,75119,1,0,0:0:0:0:
182,192,75269,1,8,0:0:0:0:
256,192,75419,1,0,0:0:0:0:
182,192,75494,1,0,0:0:0:0:
109,192,75569,1,0,0:0:0:0:
36,192,75719,1,0,0:0:0:0:
182,192,75719,1,0,0:0:0:0:
402,192,75869,1,0,0:0:0:0:
329,192,76019,1,0,0:0:0:0:
475,192,76019,1,0,0:0:0:0:
182,192,76169,1,0,0:0:0:0:
36,192,76169,128,0,77369:0:0:0:0:
329,192,76169,1,4,0:0:0:0:
256,192,76319,1,0,0:0:0:0:
329,192,76469,1,0,0:0:0:0:
402,192,76619,1,8,0:0:0:0:
329,192,76769,1,0,0:0:0:0:
256,192,76919,1,0,0:0:0:0:
329,192,77069,1,8,0:0:0:0:
402,192,77219,1,0,0:0:0:0:
109,192,77369,1,8,0:0:0:0:
256,192,77369,128,0,78569:0:0:0:0:
475,192,77369,1,0,0:0:0:0:
182,192,77519,1,0,0:0:0:0:
402,192,77669,1,0,0:0:0:0:
109,192,77819,1,8,0:0:0:0:
475,192,77969,1,0,0:0:0:0:
329,192,78119,1,0,0:0:0:0:
182,192,78269,1,8,0:0:0:0:
36,192,78419,1,0,0:0:0:0:
329,192,78569,128,0,79769:0:0:0:0:
109,192,78569,1,8,0:0:0:0:
402,192,78569,1,4,0:0:0:0:
475,192,78719,1,0,0:0:0:0:
182,192,78869,1,0,0:0:0:0:
36,192,78944,1,8,0:0:0:0:
256,192,79094,1,0,0:0:0:0:
402,192,79244,1,0,0:0:0:0:
256,192,79469,1,8,0:0:0:0:
109,192,79619,1,0,0:0:0:0:
475,192,79769,128,0,81542:0:0:0:0:
36,192,79769,1,4,0:0:0:0:
256,192,79769,1,0,0:0:0:0:
182,192,80360,1,0,0:0:0:0:
402,192,80507,1,0,0:0:0:0:
329,192,80581,1,0,0:0:0:0:
256,192,80655,1,0,0:0:0:0:
109,192,80803,1,0,0:0:0:0:
182,192,80877,1,0,0:0:0:0:
256,192,80951,1,0,0:0:0:0:
36,192,81099,1,0,0:0:0:0:
109,192,81172,1,0,0:0:0:0:
182,192,81246,1,0,0:0:0:0:
402,192,81394,1,0,0:0:0:0:
329,192,81468,1,0,0:0:0:0:
36,192,81542,1,0,0:0:0:0:
256,192,81542,1,0,0:0:0:0:
475,192,81985,1,0,0:0:0:0:
36,192,81985,1,0,0:0:0:0:
256,192,82433,1,8,0:0:0:0:
475,192,82583,1,0,0:0:0:0:
36,192,82583,1,12,0:0:0:0:
475,192,83040,128,0,83348:0:0:0:0:
329,192,83040,1,8,0:0:0:0:
256,192,83348,128,0,83656:0:0:0:0:
182,192,83348,1,8,0:0:0:0:
36,192,83656,128,0,83963:0:0:0:0:
475,192,83656,1,8,0:0:0:0:
402,192,83963,128,0,84271:0:0:0:0:
182,192,83963,1,8,0:0:0:0:
182,192,84271,128,0,84579:0:0:0:0:
475,192,84271,1,8,0:0:0:0:
475,192,84579,128,0,84886:0:0:0:0:
36,192,84579,1,8,0:0:0:0:
109,192,84886,1,0,0:0:0:0:
402,192,84886,1,8,0:0:0:0:
182,192,85040,1,0,0:0:0:0:
329,192,85040,1,4,0:0:0:0:
36,192,85040,128,0,86117:0:0:0:0:
