osu file format v9

[General]
AudioFilename: GRANRODEO - Can Do.mp3
AudioLeadIn: 0
PreviewTime: -1
Countdown: 1
SampleSet: Normal
StackLeniency: 0.7
Mode: 0
LetterboxInBreaks: 1

[Editor]
DistanceSpacing: 1.5
BeatDivisor: 4
GridSize: 8

[Metadata]
Title:Can Do
Artist:GRANRODEO
Creator:ibavnoci
Version:Kuroko
Source:
Tags:Kuroko's Basketbal Kuroko no Basket

[Difficulty]
HPDrainRate:8
CircleSize:5
OverallDifficulty:9
ApproachRate:8
SliderMultiplier:1.5
SliderTickRate:1

[Events]
//Background and Video events
0,0,"BG.jpg"
//Break Periods
2,73238,79788
//Storyboard Layer 0 (Background)
//Storyboard Layer 1 (Fail)
//Storyboard Layer 2 (Pass)
//Storyboard Layer 3 (Foreground)
//Storyboard Sound Samples
//Background Colour Transformations
3,100,163,162,255

[TimingPoints]
6138,300,4,1,0,100,1,0
41236,-200,4,1,0,100,0,0
56536,-133.333333333333,4,1,0,100,0,0
63663,-100,4,1,0,100,0,0

[Colours]
Combo1 : 255,128,0
Combo2 : 5,240,5
Combo3 : 5,5,240
Combo4 : 240,5,5

[HitObjects]
256,248,1338,1,0
192,192,1638,1,0
256,136,1938,1,0
312,192,2238,1,0
384,256,2538,5,0
384,344,2838,1,0
384,256,3138,1,0
472,256,3438,1,0
432,176,3738,5,0
384,104,4038,1,0
296,104,4338,1,0
384,104,4638,1,0
296,104,4938,5,0
248,176,5238,1,0
160,176,5538,1,0
80,216,5838,1,0
160,248,6140,5,0
200,104,6440,1,0
248,248,6740,1,0
296,104,7040,1,0
344,248,7340,1,0
192,248,7640,1,0
360,168,7940,1,0
168,168,8240,1,0
392,72,8540,5,0
352,104,8840,1,0
312,72,9140,1,0
256,72,9440,1,0
216,72,9665,2,0,B|224:136|264:104|304:152,1,112.5
296,160,10040,1,0
296,184,10190,1,0
280,192,10340,1,0
256,192,10490,1,0
88,288,10940,6,0,B|120:320|160:288,1,75
256,240,11240,1,0
256,240,11315,1,0
256,240,11390,1,0
352,144,11538,2,0,B|387:115|419:147,1,75
256,72,11840,1,0
256,72,11915,1,0
256,72,11990,1,0
352,144,12140,6,0,B|352:200|296:208,1,75
208,192,12440,2,0,B|256:152,2,37.5
416,144,12738,2,0,B|416:200|360:208,1,75
208,192,13040,1,0
208,192,13115,1,0
208,192,13190,1,0
64,192,13340,6,0,B|104:232|136:184,1,75
256,192,13640,2,0,B|272:152,2,37.5
432,168,13940,2,0,B|472:208|432:240,1,75
360,336,14240,1,0
360,336,14315,1,0
360,336,14390,1,0
208,320,14540,6,0,B|160:304|160:256,1,75
312,248,14840,2,0,B|360:232|359:195,1,75
136,192,15140,2,0,B|88:176|88:128,1,75
360,136,15440,2,0,B|408:120|407:83,1,75
440,192,15740,6,0,B|365:192,1,75
256,192,16040,1,0
256,192,16115,1,0
256,192,16190,1,0
69,192,16340,2,0,B|144:192,1,75
256,192,16640,2,0,B|224:160,2,37.5
208,296,16940,6,0,B|152:288|152:248,1,75
192,128,17240,1,0
192,128,17315,1,0
192,128,17390,1,0
304,296,17538,2,0,B|360:288|360:248,1,75
320,128,17838,1,0
320,128,17913,1,0
320,128,17988,1,0
320,128,18140,6,0,B|400:192,1,75
440,256,18440,2,0,B|477:256,2,37.5
368,320,18740,2,0,B|320:312|312:272,1,75
216,280,19040,1,0
256,192,19265,12,0,20240
144,136,20540,6,0,B|192:192,1,75
192,192,20840,2,0,B|296:192,1,75
267,192,21140,2,0,B|328:136,1,75
322,141,21440,2,0,B|384:200,1,75
376,192,21740,1,0
448,192,21890,1,0
424,224,21965,1,0
400,248,22040,1,0
368,264,22115,1,0
328,272,22190,1,0
288,272,22265,1,0
256,96,22940,5,0
184,96,23090,1,0
112,96,23240,1,0
48,136,23390,1,0
112,176,23540,1,0
184,176,23690,1,0
256,176,23840,2,0,B|336:176,2,75
256,328,24440,6,0,B|312:328|336:296,1,75
400,296,24740,1,0
440,232,24890,1,0
448,160,25040,1,0
376,176,25190,2,0,B|361:154|305:154,1,75
216,32,25640,2,0,B|200:80|152:88,1,75
104,120,25940,1,0
104,192,26090,1,0
320,144,26390,5,0
320,144,26540,2,0,B|384:160|424:208|400:280|352:320,1,225
208,296,27290,1,0
144,264,27440,1,0
144,264,27513,1,0
144,264,27590,2,0,B|48:168|144:64,1,225
288,88,28340,1,0
192,200,28640,1,0
336,176,28940,6,0,B|384:192|416:128,1,75
368,88,29240,1,0
296,72,29390,1,0
224,64,29540,1,0
448,64,30140,5,0
448,320,30590,1,0
128,320,31040,1,0
56,64,31490,1,0
256,192,31940,1,0
256,192,32240,1,0
160,80,32540,5,0
88,72,32690,1,0
112,144,32840,1,0
160,304,33140,5,0
88,312,33290,1,0
112,240,33440,1,0
184,232,33590,1,0
184,232,33663,1,0
184,232,33740,2,0,B|200:168|288:224|304:128,1,150
336,88,34190,1,0
184,88,34490,1,0
72,192,34790,6,0,B|104:232|152:176,1,75
184,248,35090,1,0
120,280,35240,1,0
184,312,35390,2,0,B|216:352|264:296,1,75
248,312,35690,1,0
312,272,35838,1,0
368,216,35990,2,0,B|432:160|432:160|392:88,1,150
328,88,36440,1,0
256,88,36590,2,0,B|248:128|192:144,1,75
136,168,36890,1,0
152,304,37190,6,0,B|256:376|368:304,1,225
362,76,37940,2,0,B|320:32|264:32|232:80,1,150
160,96,38390,1,0
160,168,38540,2,0,B|112:168|56:104|56:72,1,150
32,296,39140,1,0
256,296,39440,1,0
256,72,39740,1,0
424,72,40040,6,0,B|472:88|472:136,1,75
400,144,40340,1,0
400,144,40415,1,0
400,144,40490,1,0
448,200,40640,1,0
448,200,40790,1,0
288,320,41240,6,0,B|368:320,2,75
136,320,42140,2,0,B|64:280|72:184,1,150
256,192,43040,1,0
376,320,43340,2,0,B|448:280|440:184,1,150
256,192,44240,1,0
328,56,44540,2,0,B|248:16|176:64,1,150
256,192,45440,1,0
256,40,45740,5,0
408,192,46040,1,0
256,344,46340,1,0
104,192,46640,1,0
208,88,46940,2,0,B|280:128|352:88,1,150
464,184,47840,1,0
352,288,48140,2,0,B|280:248|208:288,1,150
96,192,49040,1,0
184,72,49340,2,0,B|224:72,1,37.5
296,72,49640,2,0,B|320:104,1,37.5
392,104,49940,2,0,B|392:144,1,37.5
344,200,50240,1,0
200,192,50540,6,0,B|216:144|272:152,2,75
48,192,51440,1,0
144,72,51740,2,0,B|192:40|240:32|288:32,1,150
288,32,52640,1,0
448,32,52940,1,0
64,344,53540,1,0
368,344,54140,2,0,B|408:336|456:264|456:224,1,150
456,232,55040,1,0
472,64,55340,1,0
40,320,55940,1,0
48,168,56540,5,0
96,112,56690,1,0
168,96,56840,1,0
232,136,56990,1,0
288,192,57140,2,0,B|344:224|408:192,1,112.499996647239
396,197,57588,1,0
464,264,57888,2,0,B|432:264|384:264,1,56.2499983236194
224,264,58338,1,0
48,128,58938,5,0
56,56,59088,1,0
120,96,59238,1,0
464,128,60138,5,0
456,56,60288,1,0
392,96,60438,1,0
40,344,61338,1,0
472,344,61788,1,0
40,344,62238,1,0
40,40,62538,1,0
304,192,63738,6,0,B|392:192,1,75
256,240,64038,2,0,B|256:320,1,75
208,192,64338,2,0,B|112:192,1,75
256,144,64638,2,0,B|256:56,1,75
379,192,64938,6,0,B|304:192,1,75
256,315,65238,2,0,B|256:240,1,75
133,192,65538,2,0,B|208:192,1,75
256,69,65838,2,0,B|256:144,1,75
136,80,66138,6,0,B|200:144,1,75
112,128,66438,2,0,B|176:192,1,75
376,80,66738,2,0,B|312:144,1,75
400,128,67038,2,0,B|336:192,1,75
256,144,67338,6,0,B|304:80,1,75
256,240,67638,2,0,B|208:304,1,75
312,112,67938,2,0,B|360:48,1,75
200,272,68238,1,0
177,292,68313,1,0
146,309,68388,1,0
109,316,68463,1,0
68,311,68538,1,0
80,184,68838,5,0
80,184,68988,1,0
80,184,69138,1,0
184,80,69438,2,0,B|256:40|328:80,1,150
432,184,70038,1,0
432,184,70188,1,0
432,184,70338,1,0
328,80,70638,6,0,B|256:40|184:80,1,150,0|0
128,128,71088,1,0
168,184,71238,1,0
232,224,71388,1,0
168,256,71538,1,0
168,256,71838,1,0
256,192,72138,12,0,73038
256,32,80538,5,0
168,96,80688,1,0
280,104,80838,1,0
168,176,80988,1,0
312,176,81138,1,0
168,256,81288,1,0
336,248,81438,1,0
168,328,81588,1,0
360,312,81738,1,0
