osu file format v13

[General]
AudioFilename: Can do.mp3
AudioLeadIn: 0
PreviewTime: 62570
Countdown: 1
SampleSet: Soft
StackLeniency: 0.4
Mode: 0
LetterboxInBreaks: 1
WidescreenStoryboard: 1

[Editor]
DistanceSpacing: 1
BeatDivisor: 4
GridSize: 4
TimelineZoom: 1.3

[Metadata]
Title:Can Do (TV Size)
TitleUnicode:Can Do (TV Size)
Artist:GRANRODEO
ArtistUnicode:GRANRODEO
Creator:atsuro0
Version:Normal
Source:Kuroko no Basket
Tags:Opening 1 Ball Sports
BeatmapID:512870
BeatmapSetID:217196

[Difficulty]
HPDrainRate:4
CircleSize:3
OverallDifficulty:4
ApproachRate:6
SliderMultiplier:1.1
SliderTickRate:1

[Events]
//Background and Video events
0,0,"bg.jpg",0,0
Video,0,"vid.avi"
//Break Periods
//Storyboard Layer 0 (Background)
//Storyboard Layer 1 (Fail)
//Storyboard Layer 2 (Pass)
//Storyboard Layer 3 (Foreground)
//Storyboard Sound Samples
//Background Colour Transformations
3,100,163,162,255

[TimingPoints]
619,300,4,2,0,50,1,0
619,-117.647058823529,4,2,0,50,0,0
920,300,4,2,0,50,1,0
5720,-100,4,2,2,60,0,0
9170,-100,4,2,2,70,0,0
10520,-100,4,2,1,70,0,0
20120,-117.647058823529,4,2,0,55,0,0
21920,-100,4,2,1,70,0,0
22520,-117.647058823529,4,2,2,60,0,0
29420,-100,4,2,1,70,0,0
32120,-100,4,2,1,70,0,0
41720,-117.647058823529,4,2,1,70,0,0
45320,-117.647058823529,4,2,2,70,0,0
46520,-117.647058823529,4,2,1,70,0,0
51020,-117.647058823529,4,2,2,70,0,0
51320,-142.857142857143,4,2,1,60,0,0
56120,-100,4,2,1,70,0,0
58220,-100,4,2,2,70,0,0
59120,-100,4,2,1,80,0,0
59720,-100,4,2,2,70,0,0
60320,-100,4,2,1,80,0,0
62420,-142.857142857143,4,2,1,80,0,0
63320,-90.9090909090909,4,2,1,80,0,1
68120,-100,4,2,1,70,0,1
72920,-90.9090909090909,4,2,1,80,0,1
77720,-90.9090909090909,4,2,1,70,0,1
80120,-90.9090909090909,4,2,2,50,0,1
80420,-90.9090909090909,4,2,2,60,0,1
80720,-90.9090909090909,4,2,2,70,0,1
81020,-90.9090909090909,4,2,2,80,0,1
81320,-90.9090909090909,4,2,1,50,0,1
82520,-90.9090909090909,4,2,1,80,0,1
86120,-90.9090909090909,4,2,1,55,0,1
87320,-100,4,2,0,75,0,0

[HitObjects]
116,112,619,6,0,P|100:160|96:224,1,93.500001783371
176,280,1220,1,0,0:0:0:0:
256,356,1520,1,0,0:0:0:0:
336,280,1820,1,0,0:0:0:0:
309,173,2120,2,0,P|254:164|200:173,2,110,0|0|0,0:0|0:0|0:0,0:0:0:0:
256,76,3020,1,0,0:0:0:0:
152,112,3320,6,0,P|103:152|83:198,1,110,0|0,0:0|0:0,0:0:0:0:
190,210,3920,2,0,P|184:272|202:319,1,110,0|0,0:0|0:0,0:0:0:0:
312,316,4520,2,0,P|329:264|322:210,1,110,0|0,0:0|0:0,0:0:0:0:
427,194,5120,2,0,P|403:145|360:112,1,110,0|0,0:0|0:0,0:0:0:0:
256,80,5720,6,0,P|220:76|128:104,1,110,4|8,0:0|0:0,0:0:0:0:
100,116,6170,1,0,0:0:0:0:
116,168,6320,2,0,P|130:201|200:266,1,110,0|8,0:0|0:0,0:0:0:0:
280,300,6920,1,0,0:0:0:0:
356,220,7220,2,0,L|392:160,1,55,8|0,0:0|0:0,0:0:0:0:
376,120,7520,2,0,P|352:80|292:48,2,110,0|8|0,0:0|0:0|0:0,0:0:0:0:
272,156,8420,6,0,P|228:184|156:192,1,110,8|0,0:0|0:0,0:0:0:0:
112,100,9020,1,8,0:0:0:0:
64,128,9170,2,0,P|43:209|97:295,1,165,4|8,0:0|0:0,0:0:0:0:
173,333,9920,2,0,L|238:363,1,55,8|4,0:0|0:0,0:0:0:0:
366,275,10520,6,0,P|437:220|457:192,1,110,4|8,0:0|0:0,0:0:0:0:
466,152,10970,1,0,0:0:0:0:
432,108,11120,2,0,P|348:74|314:70,1,110,0|8,0:0|0:0,0:0:0:0:
225,107,11720,2,0,L|153:87,1,55
116,90,12020,2,0,P|87:115|57:200,2,110,8|0|8,0:0|0:0|0:0,0:0:0:0:
167,187,12920,6,0,L|232:223,1,55
255,251,13220,2,0,P|257:289|287:361,2,110,8|0|8,0:0|0:0|0:0,0:0:0:0:
340,181,14120,1,0,0:0:0:0:
312,74,14420,1,8,0:0:0:0:
202,74,14720,2,0,P|131:91|91:133,1,110,0|8,0:0|0:0,0:0:0:0:
172,204,15320,6,0,P|176:268|212:312,1,110,4|8,0:0|0:0,0:0:0:0:
256,316,15770,1,0,0:0:0:0:
312,304,15920,2,0,P|341:258|341:203,1,110,0|8,0:0|0:0,0:0:0:0:
256,136,16520,2,0,L|256:12,2,110,0|8|0,0:0|0:0|0:0,0:0:0:0:
256,248,17420,1,8,0:0:0:0:
332,328,17720,6,0,P|412:320|452:304,1,110,0|8,0:0|0:0,0:0:0:0:
392,212,18320,2,0,P|418:136|420:93,1,110,0|8,0:0|0:0,0:0:0:0:
372,80,18770,2,0,P|324:108|204:128,1,165,4|8,0:0|0:0,0:0:0:0:
133,199,19520,2,0,P|153:216|178:229,1,55,0|4,2:0|2:0,0:0:0:0:
256,192,20120,12,8,21920,0:0:0:0:
116,92,22520,6,0,L|220:104,1,93.500001783371,12|8,0:0|0:0,0:0:0:0:
164,184,23120,2,0,L|60:172,1,93.500001783371,8|8,0:0|0:0,0:0:0:0:
80,268,23720,2,0,P|96:304|156:328,1,93.500001783371,8|8,0:0|0:0,0:0:0:0:
212,264,24320,1,8,0:0:0:0:
256,180,24620,1,8,0:0:0:0:
300,264,24920,6,0,P|324:308|384:312,1,93.500001783371,8|8,0:0|0:0,0:0:0:0:
452,284,25520,2,0,P|428:240|368:236,1,93.500001783371,8|8,0:0|0:0,0:0:0:0:
320,168,26120,2,0,L|396:100,1,93.500001783371,8|8,0:0|0:0,0:0:0:0:
344,24,26720,2,0,L|198:154,1,187.000003566742,8|8,0:0|0:0,0:0:0:0:
136,212,27620,5,8,0:0:0:0:
180,296,27920,1,8,0:0:0:0:
256,352,28220,1,8,0:0:0:0:
332,296,28520,2,0,P|376:248|412:176,2,140.250002675056,8|0|8,0:0|0:0|0:0,0:0:0:0:
256,352,29720,6,0,P|204:328|164:288,1,110,12|0,0:0|0:0,0:0:0:0:
112,292,30170,2,0,P|83:242|64:132,2,165,12|12|12,0:0|0:0|2:0,2:0:0:0:
256,212,31520,1,8,0:0:0:0:
256,232,31820,1,8,0:0:0:0:
256,252,32120,6,0,P|272:312|320:352,1,110,4|8,0:0|0:0,0:0:0:0:
368,256,32720,2,0,L|428:216,1,55
456,192,33020,2,0,P|472:132|460:72,1,110,8|0,0:0|0:0,0:0:0:0:
364,132,33620,2,0,P|332:78|281:44,1,110,8|0,0:0|0:0,0:0:0:0:
244,28,34070,1,0,0:0:0:0:
196,52,34220,2,0,P|153:85|127:133,1,110,8|0,0:0|0:0,0:0:0:0:
32,192,34820,5,8,0:0:0:0:
80,292,35120,2,0,L|16:292,2,55,0|0|8,0:0|0:0|0:0,0:0:0:0:
164,364,35720,2,0,P|188:300|176:240,1,110,0|8,0:0|0:0,0:0:0:0:
292,256,36320,2,0,P|289:310|311:360,1,110,0|8,0:0|0:0,0:0:0:0:
397,291,36920,6,0,P|440:259|464:189,1,110,4|8,0:0|0:0,0:0:0:0:
354,189,37520,1,0,0:0:0:0:
256,140,37820,1,8,0:0:0:0:
158,189,38120,2,0,P|116:232|56:248,1,110,0|8,0:0|0:0,0:0:0:0:
60,136,38720,1,0,0:0:0:0:
161,93,39020,2,0,P|219:107|263:151,1,110,8|4,0:0|0:0,0:0:0:0:
320,232,39620,5,8,0:0:0:0:
320,340,39920,2,0,L|264:340,2,55,0|0|8,0:0|0:0|0:0,0:0:0:0:
376,340,40370,1,4,0:0:0:0:
460,200,40820,2,0,P|476:144|476:84,1,110,8|0,0:0|0:0,0:0:0:0:
376,48,41420,1,8,0:0:0:0:
352,140,41720,6,0,P|336:192|316:232,1,93.500001783371,4|0,0:0|0:0,0:0:0:0:
276,248,42170,2,0,P|232:216|168:136,1,140.250002675056,8|0,0:0|0:0,0:0:0:0:
108,212,42920,2,0,P|84:256|52:348,2,140.250002675056,0|8|0,0:0|0:0|0:0,0:0:0:0:
164,288,44120,6,0,P|208:312|300:344,1,140.250002675056,4|8,0:0|0:0,0:0:0:0:
404,256,45020,1,8,0:0:0:0:
350,179,45320,2,0,P|253:123|156:179,1,233.750004458427,0|4,0:0|0:0,0:0:0:0:
256,276,46520,6,0,P|280:304|336:336,1,93.500001783371,4|0,0:0|0:0,0:0:0:0:
372,312,46970,2,0,P|414:285|488:222,1,140.250002675056,8|0,0:0|0:0,0:0:0:0:
412,168,47720,2,0,P|353:130|300:83,2,140.250002675056,0|8|0,0:0|0:0|0:0,0:0:0:0:
340,228,48920,6,0,P|300:248|248:256,1,93.500001783371,4|0,0:0|0:0,0:0:0:0:
216,288,49370,2,0,P|138:282|64:256,1,140.250002675056,8|0,0:0|0:0,0:0:0:0:
18,191,50120,1,12,0:0:0:0:
13,97,50420,1,12,0:0:0:0:
67,20,50720,1,12,0:0:0:0:
178,126,51320,6,0,P|222:166|314:210,1,153.999995300293,4|8,0:0|0:0,0:0:0:0:
366,254,52220,1,0,0:0:0:0:
306,298,52520,2,0,P|236:329|177:379,2,153.999995300293,0|8|4,0:0|0:0|0:0,0:0:0:0:
366,254,54020,1,0,0:0:0:0:
430,212,54320,2,0,P|455:183|471:148,1,76.9999976501466,8|0,0:0|0:0,0:0:0:0:
465,70,54920,2,0,P|405:86|301:86,1,153.999995300293,0|8,0:0|0:0,0:0:0:0:
97,84,56120,6,0,P|66:107|36:188,1,110,4|0,0:0|0:0,0:0:0:0:
138,185,56720,2,0,P|170:216|244:249,1,110,8|0,0:0|0:0,0:0:0:0:
283,245,57170,2,0,P|334:226|377:192,1,110,4|0,0:0|0:0,0:0:0:0:
417,153,57620,1,0,0:0:0:0:
474,59,57920,1,8,0:0:0:0:
364,62,58220,1,0,0:0:0:0:
271,121,58520,6,0,L|199:152,2,55,12|8|8,0:0|0:0|0:0,0:0:0:0:
367,174,59120,2,0,L|439:143,2,55,8|8|8,0:0|0:0|0:0,0:0:0:0:
269,225,59720,2,0,L|218:246,2,55,12|8|8,0:0|0:0|0:0,0:0:0:0:
365,278,60320,2,0,L|415:256,2,55,8|8|8,0:0|0:0|0:0,0:0:0:0:
267,328,60920,6,0,P|202:331|126:265,2,165,12|8|12,0:0|0:0|0:0,0:0:0:0:
227,225,62120,1,4,0:0:0:0:
181,77,62720,2,0,P|125:49|28:66,1,153.999995300293,0|8,0:0|0:0,0:0:0:0:
100,164,63620,5,8,0:0:0:0:
171,261,63920,2,0,P|206:296|291:327,1,121.000003692627,8|8,0:0|0:0,0:0:0:0:
384,283,64520,2,0,P|396:235|381:146,1,121.000003692627,8|8,0:0|0:0,0:0:0:0:
295,101,65120,2,0,P|247:113|177:171,1,121.000003692627,8|8,0:0|0:0,2:0:0:0:
188,276,65720,6,0,L|300:352,1,121.000003692627,8|8,0:0|0:0,0:0:0:0:
408,316,66320,2,0,L|296:240,1,121.000003692627,8|8,0:0|0:0,0:0:0:0:
376,148,66920,1,8,0:0:0:0:
316,44,67220,1,8,0:0:0:0:
196,44,67520,1,8,0:0:0:0:
136,148,67820,2,0,P|90:156|-2:147,1,121.000003692627,8|4,0:0|0:0,0:0:0:0:
20,260,68420,5,8,0:0:0:0:
104,332,68720,1,0,0:0:0:0:
210,302,69020,1,8,0:0:0:0:
313,337,69320,2,0,P|353:328|412:269,1,110,0|8,0:0|0:0,0:0:0:0:
310,225,69920,1,0,0:0:0:0:
256,128,70220,1,8,0:0:0:0:
202,225,70520,6,0,P|164:264|100:280,1,110,0|8,0:0|0:0,0:0:0:0:
109,170,71120,1,0,0:0:0:0:
152,68,71420,1,8,0:0:0:0:
256,40,71720,2,0,P|366:80|403:180,1,220,0|0,0:0|0:0,0:0:0:0:
308,228,72620,2,0,P|256:240|192:224,1,110,8|4,0:0|0:0,0:0:0:0:
256,120,73220,5,0,0:0:0:0:
144,76,73520,2,0,P|64:120|12:196,1,181.500005538941,8|4,0:0|0:0,0:0:0:0:
124,244,74270,2,0,P|160:288|224:304,1,121.000003692627
280,304,74720,2,0,P|338:289|377:244,2,121.000003692627,8|0|4,0:0|0:0|0:0,0:0:0:0:
276,184,75620,5,0,0:0:0:0:
340,80,75920,2,0,P|288:60|164:64,1,181.500005538941,8|4,0:0|0:0,0:0:0:0:
64,216,76820,1,0,0:0:0:0:
136,312,77120,1,8,0:0:0:0:
256,320,77420,1,0,0:0:0:0:
376,312,77720,6,4,P|430:281|468:214,1,121.000003692627,4|8,0:0|0:0,0:0:0:0:
480,176,78170,1,0,0:0:0:0:
462,117,78320,2,0,P|428:68|376:40,1,121.000003692627,0|8,0:0|0:0,0:0:0:0:
348,156,78920,2,0,L|228:180,1,121.000003692627,0|8,0:0|0:0,0:0:0:0:
124,120,79520,2,0,L|244:96,1,121.000003692627,0|8,0:0|0:0,0:0:0:0:
136,36,80120,6,0,L|76:48,2,60.5000018463135,8|8|8,0:0|0:0|0:0,0:0:0:0:
196,24,80570,2,0,L|256:12,2,60.5000018463135,8|8|8,0:0|0:0|0:0,0:0:0:0:
176,80,81020,2,0,L|188:140,2,60.5000018463135,8|8|8,0:0|0:0|0:0,0:0:0:0:
92,284,82520,6,8,P|144:328|196:344,1,121.000003692627,12|8,0:0|0:0,0:0:0:0:
316,344,83120,2,0,P|372:324|417:284,1,121.000003692627,8|8,0:0|0:0,0:0:0:0:
316,216,83720,2,0,L|180:216,1,121.000003692627,8|8,0:0|0:0,0:0:0:0:
152,104,84320,1,8,0:0:0:0:
256,40,84620,1,8,0:0:0:0:
360,104,84920,6,8,P|416:148|436:208,1,121.000003692627,8|8,0:0|0:0,0:0:0:0:
316,216,85520,2,8,L|180:216,1,121.000003692627
72,224,86120,2,8,P|254:356|440:220,1,484.000014770508,8|4,0:0|0:0,0:0:0:0:
256,192,87395,12,0,89420,0:0:0:0:
