osu file format v13

[General]
AudioFilename: Can do.mp3
AudioLeadIn: 0
PreviewTime: 62570
Countdown: 1
SampleSet: Soft
StackLeniency: 0.4
Mode: 0
LetterboxInBreaks: 1
WidescreenStoryboard: 1

[Editor]
Bookmarks: 15620
DistanceSpacing: 1.3
BeatDivisor: 4
GridSize: 4
TimelineZoom: 1.5

[Metadata]
Title:Can Do (TV Size)
TitleUnicode:Can Do (TV Size)
Artist:GRANRODEO
ArtistUnicode:GRANRODEO
Creator:atsuro0
Version:Hard
Source:Kuroko no Basket
Tags:Opening 1 Ball Sports
BeatmapID:511437
BeatmapSetID:217196

[Difficulty]
HPDrainRate:6
CircleSize:3.5
OverallDifficulty:5
ApproachRate:8
SliderMultiplier:1.5
SliderTickRate:1

[Events]
//Background and Video events
0,0,"bg.jpg",0,0
Video,0,"vid.avi"
//Break Periods
//Storyboard Layer 0 (Background)
//Storyboard Layer 1 (Fail)
//Storyboard Layer 2 (Pass)
//Storyboard Layer 3 (Foreground)
//Storyboard Sound Samples
//Background Colour Transformations
3,100,163,162,255

[TimingPoints]
619,300,4,2,0,50,1,0
619,-142.857142857143,4,2,0,50,0,0
920,300,4,2,0,50,1,0
5720,-100,4,2,2,60,0,0
9170,-100,4,2,2,70,0,0
10520,-100,4,2,1,70,0,0
20120,-142.857142857143,4,2,0,55,0,0
21920,-100,4,2,1,70,0,0
22520,-117.647058823529,4,2,2,60,0,0
29420,-90.9090909090909,4,2,1,70,0,0
32120,-100,4,2,1,70,0,0
41720,-117.647058823529,4,2,1,70,0,0
45320,-117.647058823529,4,2,2,70,0,0
46520,-117.647058823529,4,2,1,70,0,0
51020,-117.647058823529,4,2,2,70,0,0
51320,-142.857142857143,4,2,1,60,0,0
56120,-100,4,2,1,70,0,0
58220,-100,4,2,2,70,0,0
59120,-100,4,2,1,80,0,0
59720,-100,4,2,2,70,0,0
60320,-100,4,2,1,80,0,0
62420,-142.857142857143,4,2,1,80,0,0
63320,-90.9090909090909,4,2,1,80,0,1
68120,-100,4,2,1,70,0,1
72920,-90.9090909090909,4,2,1,80,0,1
77720,-90.9090909090909,4,2,1,70,0,1
80120,-90.9090909090909,4,2,2,50,0,1
80420,-90.9090909090909,4,2,2,60,0,1
80720,-90.9090909090909,4,2,2,70,0,1
81020,-90.9090909090909,4,2,2,80,0,1
81320,-90.9090909090909,4,2,1,50,0,1
82520,-90.9090909090909,4,2,1,80,0,1
86120,-90.9090909090909,4,2,1,55,0,1
87320,-100,4,2,0,75,0,0

[HitObjects]
67,160,619,6,0,P|96:224|128:244,1,104.999996795654
168,152,1070,1,0,0:0:0:0:
252,92,1220,2,0,P|295:56|325:13,1,75
368,128,1520,2,0,P|404:171|447:201,1,75
324,232,1820,2,0,P|293:254|268:281,1,75
180,340,2120,5,0,0:0:0:0:
84,296,2270,1,0,0:0:0:0:
167,231,2420,2,0,P|196:206|221:178,1,75
179,84,2720,2,0,P|151:108|126:136,1,75
221,179,3020,2,0,P|257:139|285:92,1,75
340,48,3320,5,0,0:0:0:0:
404,132,3470,1,0,0:0:0:0:
336,212,3620,2,0,L|264:292,1,75
172,236,3920,2,0,L|222:180,1,75
180,68,4220,2,0,L|108:148,1,75
80,216,4520,5,0,0:0:0:0:
116,316,4670,1,0,0:0:0:0:
220,316,4820,1,0,0:0:0:0:
260,220,4970,2,0,P|296:156|312:48,1,150
220,132,5420,2,0,P|184:184|160:208,1,75
101,266,5720,6,0,P|133:290|181:298,1,75,4|0,0:0|0:0,0:0:0:0:
272,300,6020,2,0,P|308:290|337:267,1,75,8|0,0:0|0:0,0:0:0:0:
304,182,6320,2,0,L|213:182,1,75
167,97,6620,2,0,L|258:97,1,75,8|0,0:0|0:0,0:0:0:0:
344,72,6920,5,0,0:0:0:0:
411,152,7070,1,0,0:0:0:0:
379,252,7220,2,0,P|336:304|299:324,1,75,8|0,0:0|0:0,0:0:0:0:
225,312,7520,2,0,L|130:312,1,75
93,223,7820,2,0,L|168:223,1,75,8|0,0:0|0:0,0:0:0:0:
134,123,8120,6,0,L|209:123,1,75,4|0,0:0|0:0,0:0:0:0:
291,58,8420,1,8,0:0:0:0:
372,123,8570,1,0,0:0:0:0:
291,190,8720,2,0,L|290:146,4,37.5,0|0|0|0|8,0:0|0:0|0:0|0:0|0:0,0:0:0:0:
234,279,9170,6,0,P|188:326|83:313,1,150,12|0,0:0|0:0,0:0:0:0:
48,240,9620,2,0,P|32:168|34:143,2,75,8|0|8,0:0|0:0|0:0,0:0:0:0:
152,249,10070,1,4,0:0:0:0:
382,68,10520,6,0,P|369:125|347:157,1,75,4|0,0:0|0:0,0:0:0:0:
457,155,10820,2,0,P|424:223|372:276,1,150,8|0,0:0|0:0,0:0:0:0:
294,336,11270,1,0,0:0:0:0:
215,277,11420,2,0,P|162:223|150:202,1,75,8|0,0:0|0:0,0:0:0:0:
154,70,11720,6,0,P|206:123|219:145,1,75
268,48,12020,2,0,P|306:98|342:202,1,150,8|0,0:0|0:0,0:0:0:0:
336,276,12470,1,0,0:0:0:0:
257,333,12620,2,0,P|203:355|169:354,1,75,8|0,0:0|0:0,0:0:0:0:
108,284,12920,2,0,P|115:226|133:197,1,75,0|0,0:0|0:0,0:0:0:0:
176,124,13220,2,0,P|218:73|314:28,1,150,8|0,0:0|0:0,0:0:0:0:
388,24,13670,1,0,0:0:0:0:
456,96,13820,2,0,P|472:134|466:182,1,75,8|0,0:0|0:0,0:0:0:0:
477,264,14120,6,0,P|439:261|407:242,1,75
318,203,14420,2,0,P|342:170|387:151,2,75,8|0|0,0:0|0:0|0:0,0:0:0:0:
256,280,14870,1,0,0:0:0:0:
190,211,15020,2,0,P|168:180|48:144,1,150,8|4,0:0|0:0,0:0:0:0:
60,232,15470,5,0,0:0:0:0:
104,312,15620,2,0,P|136:330|261:312,1,150,8|0,0:0|0:0,0:3:0:0:
320,272,16070,1,0,0:0:0:0:
384,208,16220,2,0,P|424:164|440:124,2,75,8|0|0,0:0|0:0|0:0,0:0:0:0:
320,272,16670,5,0,0:0:0:0:
256,208,16820,2,0,P|208:150|185:80,1,150,8|0,0:0|0:0,0:0:0:0:
268,44,17270,1,0,0:0:0:0:
352,80,17420,2,0,P|400:104|448:104,2,75,8|0|0,0:0|0:0|0:0,0:0:0:0:
268,44,17870,5,0,0:0:0:0:
185,80,18020,2,0,P|137:104|16:116,1,150,8|0,0:0|0:0,0:0:0:0:
12,204,18470,1,0,0:0:0:0:
40,288,18620,1,8,0:0:0:0:
128,332,18770,6,0,P|204:336|284:288,1,150,4|0,0:0|0:0,0:0:0:0:
223,208,19220,2,0,P|275:176|291:160,1,75,8|0,0:0|0:0,0:0:0:0:
299,24,19520,2,0,P|247:56|231:72,1,75,8|4,0:0|0:0,0:0:0:0:
80,224,20120,6,0,L|132:224,1,52.4999983978272,2|0,0:0|0:0,0:0:0:0:
164,300,20420,2,0,L|240:300,1,52.4999983978272,2|0,0:0|0:0,0:0:0:0:
252,224,20720,2,0,L|304:224,1,52.4999983978272,2|0,0:0|0:0,0:0:0:0:
336,300,21020,2,0,L|412:300,1,52.4999983978272,2|0,0:0|0:0,0:0:0:0:
440,232,21320,5,2,0:0:0:0:
472,136,21470,2,0,L|512:120,2,26.2499991989136,0|0|2,0:0|0:0|0:0,0:0:0:0:
380,100,21770,1,0,0:0:0:0:
280,68,21920,2,0,L|192:40,1,75,8|4,0:0|0:0,0:0:0:0:
56,160,22520,6,0,P|76:212|144:272,1,127.50000243187,8|8,0:0|0:0,0:0:0:0:
184,196,22970,1,0,0:0:0:0:
256,248,23120,2,0,P|316:272|340:268,1,63.7500012159348,8|0,0:0|0:0,0:0:0:0:
380,332,23420,2,0,P|404:272|400:248,1,63.7500012159348,8|0,0:0|0:0,0:0:0:0:
492,260,23720,6,0,P|476:192|440:132,1,127.50000243187,8|8,0:0|0:0,0:0:0:0:
360,140,24170,1,0,0:0:0:0:
284,184,24320,2,0,L|212:220,1,63.7500012159348,8|0,0:0|0:0,0:0:0:0:
152,160,24620,2,0,L|209:131,1,63.7500012159348,8|0,0:0|0:0,0:0:0:0:
200,44,24920,6,0,L|65:110,1,127.50000243187,8|8,0:0|0:0,0:0:0:0:
55,190,25370,1,0,0:0:0:0:
101,266,25520,2,0,P|132:313|154:323,1,63.7500012159348,8|0,0:0|0:0,0:0:0:0:
226,317,25820,2,0,P|249:295|262:266,1,63.7500012159348,8|0,0:0|0:0,0:0:0:0:
289,181,26120,6,0,P|317:134|395:113,1,127.50000243187,8|8,0:0|0:0,0:0:0:0:
374,200,26570,1,0,0:0:0:0:
400,285,26720,2,0,L|436:312,7,31.8750006079674,8|0|0|0|8|0|0|0,0:0|0:0|0:0|0:0|0:0|0:0|0:0|0:0,0:0:0:0:
354,272,27320,6,0,P|297:258|216:281,1,127.50000243187,8|8,0:0|0:0,0:0:0:0:
149,309,27770,1,0,0:0:0:0:
91,240,27920,2,0,P|53:195|42:162,1,63.7500012159348,8|0,0:0|0:0,0:0:0:0:
82,107,28220,2,0,P|139:96|174:103,1,63.7500012159348,8|0,0:0|0:0,0:0:0:0:
159,184,28520,6,0,P|211:201|292:194,1,127.50000243187,8|8,0:0|0:0,0:0:0:0:
366,94,29120,1,8,0:0:0:0:
471,178,29420,2,0,L|512:147,2,41.2500012588501,8|0|0,0:0|0:0|0:0,0:0:0:0:
452,267,29720,6,0,P|363:290|281:298,1,165.000005035401,12|0,0:0|0:0,0:0:0:0:
315,209,30170,2,0,P|223:208|141:194,1,165.000005035401,12|0,0:0|0:0,0:0:0:0:
201,121,30620,2,0,P|112:96|37:62,1,165.000005035401,12|0,0:0|0:0,0:0:0:0:
121,15,31070,5,8,0:0:0:0:
194,37,31520,5,8,0:0:0:0:
220,46,31820,5,8,0:0:0:0:
249,58,32120,6,0,P|318:87|383:126,1,150,4|8,0:0|0:0,0:0:0:0:
434,217,32570,1,0,0:0:0:0:
383,309,32720,2,0,P|316:353|289:362,1,75
230,290,33020,2,0,P|193:272|165:251,1,75,8|0,0:0|0:0,0:0:0:0:
61,262,33320,6,0,P|77:194|150:147,1,150,0|8,0:0|0:0,0:0:0:0:
220,92,33770,1,0,0:0:0:0:
220,188,33920,2,0,P|252:216|288:224,1,75
336,140,34220,2,0,P|378:137|409:117,1,75,8|0,0:0|0:0,0:0:0:0:
476,56,34520,6,0,P|501:131|446:209,1,150,0|8,0:0|0:0,0:0:0:0:
397,256,34970,1,0,0:0:0:0:
307,316,35120,2,0,P|251:341|221:345,1,75
161,257,35420,2,0,P|218:231|247:228,1,75,8|0,0:0|0:0,0:0:0:0:
160,348,35720,6,0,P|87:319|72:238,1,150,0|8,0:0|0:0,0:0:0:0:
89,161,36170,1,0,0:0:0:0:
150,85,36320,2,0,P|188:49|222:29,1,75
305,36,36620,2,0,P|335:57|361:84,1,75,8|0,0:0|0:0,0:0:0:0:
326,175,36920,6,0,P|257:200|187:175,1,150,4|8,0:0|0:0,0:0:0:0:
98,135,37370,1,0,0:0:0:0:
73,229,37520,2,0,P|91:302|108:313,1,75
178,335,37820,1,8,0:0:0:0:
256,276,37970,1,0,0:0:0:0:
334,335,38120,6,0,P|392:320|460:248,1,150,0|8,0:0|0:0,0:0:0:0:
413,169,38570,1,0,0:0:0:0:
315,168,38720,2,0,L|235:168,1,75
183,88,39020,2,0,L|279:88,1,75,8|0,0:0|0:0,0:0:0:0:
355,88,39320,6,0,P|405:157|372:239,1,150,4|8,0:0|0:0,0:0:0:0:
364,309,39770,1,0,0:0:0:0:
266,310,39920,2,0,P|217:304|184:291,2,75,0|0|8,0:0|0:0|0:0,0:0:0:0:
364,309,40370,6,0,P|432:286|495:212,1,150,4|0,0:0|0:0,0:0:0:0:
450,140,40820,2,0,P|425:107|389:85,1,75,8|0,0:0|0:0,0:0:0:0:
360,179,41120,2,0,L|308:154,7,37.5,0|0|0|0|8|0|0|0,0:0|0:0|0:0|0:0|0:0|0:0|0:0|0:0,0:0:0:0:
296,128,41720,6,0,P|252:144|208:146,1,63.7500012159348,4|0,0:0|0:0,0:0:0:0:
147,164,42020,1,0,0:0:0:0:
174,248,42170,2,0,P|99:261|30:263,1,127.50000243187,8|0,0:0|0:0,0:0:0:0:
90,342,42620,2,0,P|133:338|163:333,1,63.7500012159348
242,321,42920,5,0,0:0:0:0:
326,349,43070,1,0,0:0:0:0:
401,300,43220,1,0,0:0:0:0:
451,226,43370,2,0,P|490:182|479:97,1,127.50000243187,8|0,0:0|0:0,0:0:0:0:
409,149,43820,2,0,L|347:173,1,63.7500012159348
321,86,44120,6,0,L|259:62,1,63.7500012159348,4|0,0:0|0:0,0:0:0:0:
178,29,44420,1,0,0:0:0:0:
93,59,44570,2,0,P|43:98|40:180,1,127.50000243187,8|0,0:0|0:0,0:0:0:0:
121,145,45020,2,0,P|165:175|184:195,1,63.7500012159348,8|0,0:0|0:0,0:0:0:0:
234,246,45320,5,8,0:0:0:0:
189,323,45470,2,0,L|165:344,2,31.8750006079674,8|8|8,0:0|0:0|0:0,0:0:0:0:
278,323,45770,2,0,L|301:344,2,31.8750006079674,8|8|8,0:0|0:0|0:0,0:0:0:0:
234,246,46070,1,4,0:0:0:0:
364,123,46370,5,0,0:0:0:0:
290,72,46520,2,0,P|243:51|205:46,1,63.7500012159348,4|0,0:0|0:0,0:0:0:0:
142,63,46820,1,0,0:0:0:0:
168,148,46970,2,0,P|189:202|202:296,1,127.50000243187,8|0,0:0|0:0,0:0:0:0:
310,270,47420,2,0,P|321:207|332:182,1,63.7500012159348
418,150,47720,6,0,P|410:180|407:212,1,63.7500012159348
414,301,48020,1,0,0:0:0:0:
343,355,48170,2,0,P|277:356|226:298,1,127.50000243187,8|0,0:0|0:0,0:0:0:0:
167,256,48620,1,0,0:0:0:0:
252,231,48770,1,0,0:0:0:0:
186,170,48920,6,0,L|161:102,1,63.7500012159348,4|0,0:0|0:0,0:0:0:0:
195,25,49220,1,0,0:0:0:0:
258,88,49370,2,0,P|310:129|376:149,1,127.50000243187,8|0,0:0|0:0,0:0:0:0:
367,236,49820,2,0,P|307:256|286:272,1,63.7500012159348
256,328,50120,5,12,0:0:0:0:
140,192,50420,1,8,0:0:0:0:
256,56,50720,1,8,0:0:0:0:
256,144,50870,2,0,L|256:192,2,31.8750006079674,0|0|8,0:0|0:0|0:0,0:0:0:0:
139,52,51320,6,0,P|93:76|54:111,1,104.999996795654,4|0,0:0|0:0,0:0:0:0:
16,180,51770,1,0,0:0:0:0:
55,248,51920,2,0,P|93:283|140:307,1,104.999996795654,8|0,0:0|0:0,0:0:0:0:
204,253,52370,1,0,0:0:0:0:
270,304,52520,6,0,P|322:280|338:268,2,52.4999983978272,0|8|0,0:0|0:0|0:0,0:0:0:0:
204,253,52970,1,0,0:0:0:0:
274,206,53120,2,0,P|325:163|361:118,1,104.999996795654,8|0,0:0|0:0,0:0:0:0:
181,122,53720,6,0,P|130:164|94:210,1,104.999996795654,4|0,0:0|0:0,0:0:0:0:
75,272,54170,1,0,0:0:0:0:
146,315,54320,2,0,P|208:337|265:346,1,104.999996795654,8|0,0:0|0:0,0:0:0:0:
328,326,54770,1,0,0:0:0:0:
280,256,54920,6,0,P|254:228|232:209,2,52.4999983978272,0|8|0,0:0|0:0|0:0,0:0:0:0:
328,326,55370,1,0,0:0:0:0:
373,255,55520,2,0,P|406:217|472:191,1,104.999996795654,8|0,0:0|0:0,0:0:0:0:
327,66,56120,6,0,P|324:110|320:147,1,75,4|0,0:0|0:0,0:0:0:0:
238,179,56420,2,0,L|227:98,1,75
137,97,56720,2,0,P|128:144|85:249,1,150,8|0,0:0|0:0,0:0:0:0:
53,320,57170,6,0,P|131:348|212:329,1,150,4|0,0:0|0:0,0:0:0:0:
233,226,57620,2,0,P|200:250|164:263,2,75,8|0|8,0:0|0:0|0:0,0:0:0:0:
360,97,58220,1,8,0:0:0:0:
418,267,58520,6,0,L|351:327,1,75,12|8,0:0|0:0,0:0:0:0:
306,246,58820,1,8,0:0:0:0:
94,267,59120,2,0,L|161:327,1,75,8|8,0:0|0:0,0:0:0:0:
206,246,59420,1,8,0:0:0:0:
91,106,59720,6,0,P|133:70|183:66,1,75,12|8,0:0|0:0,0:0:0:0:
169,153,60020,1,0,0:0:0:0:
421,106,60320,2,0,P|379:70|329:66,1,75,8|8,0:0|0:0,0:0:0:0:
343,153,60620,1,8,0:0:0:0:
233,295,60920,6,0,P|202:333|170:348,2,75,8|0|0,0:0|0:0|0:0,0:0:0:0:
224,205,61370,2,0,P|272:212|301:233,2,75,8|0|0,0:0|0:0|0:0,0:0:0:0:
152,268,61820,2,0,P|134:222|137:186,1,75,12|0,0:0|0:0,0:0:0:0:
157,109,62120,1,4,0:0:0:0:
390,36,62720,6,0,P|462:107|425:215,1,209.999993591309,0|12,0:0|0:0,0:0:0:0:
366,134,63470,5,0,0:0:0:0:
286,75,63620,2,0,P|237:44|195:34,1,82.5000025177003,8|0,0:0|0:0,0:0:0:0:
128,86,63920,2,0,P|125:143|137:185,1,82.5000025177003,8|0,0:0|0:0,0:0:0:0:
216,216,64220,2,0,P|267:189|297:157,1,82.5000025177003,8|0,0:0|0:0,0:0:0:0:
209,126,64520,5,8,0:0:0:0:
130,168,64670,1,0,0:0:0:0:
131,265,64820,2,0,P|168:305|206:311,1,82.5000025177003,8|0,0:0|0:0,0:0:0:0:
252,228,65120,1,8,0:0:0:0:
308,312,65270,1,0,0:0:0:0:
368,232,65420,2,0,P|400:192|416:152,1,82.5000025177003,8|0,0:0|0:0,0:0:0:0:
356,32,65720,6,0,P|324:72|308:112,1,82.5000025177003,8|0,0:0|0:0,0:0:0:0:
284,196,66020,1,8,0:0:0:0:
192,232,66170,1,0,0:0:0:0:
100,196,66320,2,0,P|100:140|136:92,1,82.5000025177003,8|0,0:0|0:0,0:0:0:0:
192,60,66620,2,0,L|192:156,1,82.5000025177003,8|0,0:0|0:0,0:0:0:0:
284,196,66920,6,0,P|284:140|248:92,1,82.5000025177003,8|0,0:0|0:0,0:0:0:0:
192,232,67220,2,0,L|192:328,1,82.5000025177003,8|0,0:0|0:0,0:0:0:0:
284,236,67520,2,0,L|284:180,7,41.2500012588501,8|0|0|0|8|0|0|0,0:0|0:0|0:0|0:0|0:0|0:0|0:0|0:0,0:0:0:0:
284,148,68120,6,0,P|271:95|180:24,1,150,4|8,0:0|0:0,0:0:0:0:
112,72,68570,1,0,0:0:0:0:
104,172,68720,2,0,P|116:232|136:248,1,75
204,176,69020,2,0,P|192:116|172:100,1,75,8|0,0:0|0:0,0:0:0:0:
40,116,69320,6,0,P|24:210|56:286,1,150,0|8,0:0|0:0,0:0:0:0:
106,321,69770,1,0,0:0:0:0:
193,301,69920,2,0,P|248:272|273:233,1,75
280,134,70220,2,0,P|225:163|200:202,1,75,8|0,0:0|0:0,0:0:0:0:
330,226,70520,6,0,P|368:188|373:80,1,150,0|8,0:0|0:0,0:0:0:0:
310,36,70970,1,0,0:0:0:0:
224,64,71120,2,0,L|125:97,1,75
108,168,71420,2,0,L|192:168,1,75,8|0,0:0|0:0,0:0:0:0:
224,272,71720,6,0,L|152:248,1,75,0|8,0:0|0:0,0:0:0:0:
136,328,72020,2,0,L|64:304,1,75,0|8,0:0|0:0,0:0:0:0:
24,224,72320,2,0,L|16:180,7,37.5,0|0|0|0|8|0|0|0,0:0|0:0|0:0|0:0|0:0|0:0|0:0|0:0,0:0:0:0:
36,140,72920,6,0,P|72:92|124:72,2,82.5000025177003,4|0|0,0:0|0:0|0:0,0:0:0:0:
132,168,73370,1,0,0:0:0:0:
228,148,73520,2,0,P|302:109|325:80,1,82.5000025177003,8|0,0:0|0:0,0:0:0:0:
364,36,73820,1,0,0:0:0:0:
436,104,73970,6,0,P|460:164|460:272,1,165.000005035401,4|0,0:0|0:0,0:0:0:0:
372,312,74420,2,0,P|378:271|381:230,1,82.5000025177003
300,172,74720,2,8,P|293:212|290:253,1,82.5000025177003,8|0,0:0|0:0,0:0:0:0:
224,328,75020,1,0,0:0:0:0:
88,184,75320,6,0,P|100:116|128:80,2,82.5000025177003,4|0|0,0:0|0:0|0:0,0:0:0:0:
144,264,75770,1,0,0:0:0:0:
180,172,75920,2,0,P|208:128|244:104,1,82.5000025177003,8|0,0:0|0:0,0:0:0:0:
324,72,76220,1,0,0:0:0:0:
396,136,76370,6,0,P|420:188|416:312,1,165.000005035401,4|0,0:0|0:0,0:0:0:0:
336,244,76820,2,0,P|304:300|264:324,1,82.5000025177003
191,312,77120,2,0,P|162:282|145:245,1,82.5000025177003,8|0,0:0|0:0,0:0:0:0:
241,219,77420,2,0,L|240:160,3,41.2500012588501,8|0|0|0,0:0|0:0|0:0|0:0,0:0:0:0:
248,128,77720,6,0,P|280:82|396:58,1,165.000005035401,4|8,0:0|0:0,0:0:0:0:
476,83,78170,1,0,0:0:0:0:
461,182,78320,2,0,P|427:244|396:265,1,82.5000025177003
335,178,78620,2,0,P|362:147|398:127,1,82.5000025177003,8|0,0:0|0:0,0:0:0:0:
337,259,78920,6,0,L|268:330,1,82.5000025177003
252,222,79220,2,0,L|183:293,1,82.5000025177003,8|0,0:0|0:0,0:0:0:0:
163,186,79520,2,0,L|220:126,1,82.5000025177003
78,149,79820,2,0,L|135:89,1,82.5000025177003,8|0,0:0|0:0,0:0:0:0:
222,42,80120,6,0,L|307:42,1,82.5000025177003,8|8,0:0|0:0,0:0:0:0:
384,127,80420,2,0,L|296:127,1,82.5000025177003,8|8,0:0|0:0,0:0:0:0:
182,216,80720,2,0,L|284:216,1,82.5000025177003,8|8,0:0|0:0,0:0:0:0:
385,303,81020,1,8,0:0:0:0:
261,303,81170,2,0,L|328:303,2,41.2500012588501,8|8|8,0:0|0:0|0:0,0:0:0:0:
66,278,81620,5,0,0:0:0:0:
20,192,81920,1,0,0:0:0:0:
66,105,82220,1,0,0:0:0:0:
115,191,82520,6,0,P|135:228|162:258,1,82.5000025177003,12|0,0:0|0:0,0:0:0:0:
287,259,82820,2,0,P|314:228|333:192,1,82.5000025177003,8|0,0:0|0:0,0:0:0:0:
350,68,83120,2,0,P|322:37|287:15,1,82.5000025177003,8|0,0:0|0:0,0:0:0:0:
163,16,83420,2,0,P|128:38|100:68,1,82.5000025177003,8|0,0:0|0:0,0:0:0:0:
185,159,83720,6,0,P|225:167|284:151,1,82.5000025177003,8|0,0:0|0:0,0:0:0:0:
350,107,84020,2,0,P|362:179|272:260,1,165.000005035401,8|8,0:0|0:0,0:0:0:0:
211,263,84470,1,0,0:0:0:0:
113,248,84620,2,0,P|74:217|47:176,1,82.5000025177003,8|0,0:0|0:0,0:0:0:0:
139,81,84920,6,0,P|191:35|227:28,1,82.5000025177003,8|0,0:0|0:0,0:0:0:0:
221,193,85220,2,0,P|155:170|131:143,1,82.5000025177003,8|0,0:0|0:0,0:0:0:0:
280,52,85520,2,0,P|293:120|281:154,1,82.5000025177003,8|0,0:0|0:0,0:0:0:0:
320,244,85820,2,0,P|368:276|401:282,1,82.5000025177003,8|0,0:0|0:0,0:0:0:0:
426,171,86120,6,0,L|493:175,5,55.0000016784668,8|8|8|8|8|8,0:0|0:0|0:0|0:0|0:0|0:0,0:0:0:0:
393,98,86720,2,0,L|329:100,5,55.0000016784668,8|8|8|8|8|8,0:0|0:0|0:0|0:0|0:0|0:0,0:0:0:0:
456,40,87320,1,4,0:0:0:0:
256,192,87395,12,0,89420,0:0:0:0:
