osu file format v12

[General]
AudioFilename: Granrodeo - Can Do Tv Size.mp3
AudioLeadIn: 1500
PreviewTime: 62900
Countdown: 0
SampleSet: Soft
StackLeniency: 0.7
Mode: 0
LetterboxInBreaks: 1
SkinPreference:Kagami Taiga Skin Beatmap Version
WidescreenStoryboard: 1

[Editor]
Bookmarks: 11206,16730,88355
DistanceSpacing: 0.7
BeatDivisor: 4
GridSize: 4

[Metadata]
Title:Can Do (TV Size)
TitleUnicode:Can Do (TV Size)
Artist:GRANRODEO
ArtistUnicode:グランロデオ
Creator:Bonch0
Version:Easy
Source:Kuroko no Basuke
Tags:Anime Bonch0
BeatmapID:291899
BeatmapSetID:110546

[Difficulty]
HPDrainRate:2
CircleSize:2
OverallDifficulty:3
ApproachRate:2
SliderMultiplier:0.8
SliderTickRate:1

[Events]
//Background and Video events
Video,-423,"KNB OP1.avi"
0,0,"270432.jpg",0,0
//Break Periods
//Storyboard Layer 0 (Background)
//Storyboard Layer 1 (Fail)
//Storyboard Layer 2 (Pass)
//Storyboard Layer 3 (Foreground)
//Storyboard Sound Samples
//Background Colour Transformations
3,100,163,162,255

[TimingPoints]
530,300,4,2,1,100,1,0
62930,-100,4,2,1,100,0,1
80930,-100,4,2,1,100,0,0

[Colours]
Combo1 : 247,153,26
Combo2 : 5,240,5
Combo3 : 5,5,240
Combo4 : 240,5,5

[HitObjects]
108,152,530,2,0,P|188:68|244:64,1,160
332,96,1730,1,0,0:0:0:0:
388,192,2330,1,0,0:0:0:0:
336,292,2930,6,0,P|256:312|176:284,1,160
112,204,4130,1,0,0:0:0:0:
152,100,4730,1,0,0:0:0:0:
264,100,5330,6,4,B|264:164|264:164|324:164|324:240,1,160
220,252,6530,2,0,B|156:250|156:250|154:310|78:309,1,160
60,200,7730,2,4,P|128:108|184:100,1,160
172,212,8930,2,6,P|272:212|348:140,1,200
380,224,10130,5,0,0:0:0:0:
432,124,10730,1,0,0:0:0:0:
352,48,11330,2,2,B|276:94|249:187,1,160
244,284,12530,5,0,0:0:0:0:
148,224,13130,1,0,0:0:0:0:
80,136,13730,2,2,B|136:67|232:53,1,160
292,136,14930,6,0,L|376:100,2,80
320,244,16130,2,0,L|404:208,2,80,0|0|0,0:0|0:0|0:0,0:0:0:0:
212,280,17330,1,0,0:0:0:0:
144,192,17930,1,0,0:0:0:0:
144,80,18530,2,4,P|244:116|296:208,1,200
384,280,19730,5,0,0:0:0:0:
448,188,20330,1,0,0:0:0:0:
412,80,20930,2,0,P|320:96|260:196,1,200
212,248,22130,5,0,0:0:0:0:
100,244,22730,2,0,B|48:160|120:96,1,160
212,44,23930,2,0,P|272:92|288:176,1,160
348,268,25130,2,0,L|408:332,2,80
240,296,26330,1,0,0:0:0:0:
244,184,26930,2,0,P|320:153|365:76,1,160
244,72,28130,2,0,P|167:103|123:180,1,160
184,260,29330,6,4,P|232:300|296:304,3,120
364,268,31130,1,0,0:0:0:0:
444,188,31730,6,4,P|352:140|292:156,1,160
228,236,32930,1,0,0:0:0:0:
140,168,33530,2,0,P|104:104|148:36,1,160
256,36,34730,5,0,0:0:0:0:
368,36,35330,2,0,P|409:99|373:167,1,160
260,172,36530,1,4,0:0:0:0:
168,236,37130,1,0,0:0:0:0:
240,320,37730,2,0,B|340:276|352:200,1,160
304,108,38930,1,0,0:0:0:0:
196,76,39530,1,0,0:0:0:0:
240,180,40130,2,0,P|300:232|392:228,1,160
384,124,41330,6,0,P|308:68|228:76,1,160
136,84,42530,2,0,P|135:178|188:238,1,160
240,316,43730,6,0,P|316:260|396:268,1,160
352,152,44930,1,0,0:0:0:0:
256,92,45530,1,0,0:0:0:0:
144,92,46130,6,0,B|112:148|112:148|140:168|140:212|120:232,1,160
224,276,47330,2,0,B|226:247|260:219|293:228|293:228|315:167,1,160
296,56,48530,2,0,P|368:48|416:120,1,160
340,196,49730,1,4,0:0:0:0:
304,240,50030,1,4,0:0:0:0:
268,284,50330,1,4,0:0:0:0:
172,224,50930,6,2,P|92:172|96:104,1,160
192,64,52130,1,0,0:0:0:0:
276,140,52730,1,0,0:0:0:0:
372,80,53330,6,2,P|391:173|340:218,1,160
256,156,54530,2,0,P|236:249|287:294,1,160
164,300,55730,5,4,0:0:0:0:
92,212,56330,2,0,P|156:132|156:68,1,160
264,44,57530,1,4,0:0:0:0:
308,148,58130,6,0,L|308:308,1,160
204,272,59330,6,0,L|204:112,1,160
312,140,60530,6,0,P|368:188|360:268,1,160
256,232,61730,2,0,P|188:255|116:208,1,160
204,140,62930,2,0,B|231:134|256:98|244:65|244:65|302:37,1,160
384,116,64130,1,0,0:0:0:0:
316,204,64730,1,0,0:0:0:0:
220,264,65330,6,0,B|193:254|174:214|191:184|191:184|139:147,1,160
212,64,66530,2,0,P|308:52|356:92,1,160
344,200,67730,6,0,P|296:264|216:320,1,160
148,236,68930,2,0,P|196:172|276:116,1,160,0|0,0:0|0:0,0:0:0:0:
368,148,70130,1,0,0:0:0:0:
272,204,70730,2,6,P|193:164|145:101,2,160
304,312,72530,2,0,B|314:285|354:267|383:285|383:285|422:233,1,160
358,138,73730,1,0,0:0:0:0:
256,92,74330,1,0,0:0:0:0:
172,168,74930,6,4,B|197:226|197:226|252:203|281:273,1,160
372,204,76130,2,0,P|320:121|259:109,2,160
260,204,77930,5,0,0:0:0:0:
148,220,78530,2,0,P|200:303|261:315,1,160
368,316,79730,6,2,P|404:216|320:120,1,240
456,240,82130,6,4,P|376:324|320:328,1,160,4|0,0:0|0:0,0:0:0:0:
232,296,83330,1,0,0:0:0:0:
176,200,83930,1,0,0:0:0:0:
64,184,84530,2,4,P|114:118|195:91,1,160,4|4,0:0|0:0,0:0:0:0:
292,124,85730,1,0,0:0:0:0:
256,228,86330,1,0,0:0:0:0:
256,192,86930,12,4,89030,0:0:0:0:
