osu file format v13

[General]
AudioFilename: Can do.mp3
AudioLeadIn: 0
PreviewTime: 62570
Countdown: 1
SampleSet: None
StackLeniency: 0.4
Mode: 0
LetterboxInBreaks: 1
WidescreenStoryboard: 0

[Editor]
Bookmarks: 15620,80420
DistanceSpacing: 1.5
BeatDivisor: 4
GridSize: 4
TimelineZoom: 1.5

[Metadata]
Title:Can Do (TV Size)
TitleUnicode:Can Do (TV Size)
Artist:GRANRODEO
ArtistUnicode:GRANRODEO
Creator:Atsuro
Version:Extra
Source:Kuroko no Basket
Tags:Opening 1 Ball Sports
BeatmapID:509479
BeatmapSetID:217196

[Difficulty]
HPDrainRate:7
CircleSize:4
OverallDifficulty:7
ApproachRate:9.3
SliderMultiplier:1.8
SliderTickRate:1

[Events]
//Background and Video events
0,0,"bg.jpg",0,0
Video,0,"vid.avi"
//Break Periods
//Storyboard Layer 0 (Background)
//Storyboard Layer 1 (Fail)
//Storyboard Layer 2 (Pass)
//Storyboard Layer 3 (Foreground)
//Storyboard Sound Samples

[TimingPoints]
619,300,4,2,0,50,1,0
619,-142.857142857143,4,2,0,50,0,0
920,300,4,2,0,50,1,0
5720,-100,4,2,2,60,0,0
9170,-100,4,2,2,70,0,0
9470,-100,4,2,1,70,0,0
9770,-100,4,2,2,70,0,0
10520,-100,4,2,1,70,0,0
20120,-142.857142857143,4,2,0,55,0,0
21920,-100,4,2,1,70,0,0
22520,-117.647058823529,4,2,2,60,0,0
29420,-83.3333333333333,4,2,1,70,0,0
32120,-100,4,2,1,70,0,0
32720,-100,4,2,2,70,0,0
33020,-100,4,2,1,70,0,0
35120,-100,4,2,2,70,0,0
35420,-100,4,2,1,70,0,0
37520,-100,4,2,2,70,0,0
37820,-100,4,2,1,70,0,0
39920,-100,4,2,2,70,0,0
40220,-100,4,2,1,70,0,0
41720,-117.647058823529,4,2,1,70,0,0
42620,-117.647058823529,4,2,2,70,0,0
43370,-117.647058823529,4,2,1,70,0,0
45320,-117.647058823529,4,2,2,70,0,0
46520,-117.647058823529,4,2,1,70,0,0
51020,-117.647058823529,4,2,2,70,0,0
51320,-142.857142857143,4,2,1,60,0,0
56120,-100,4,2,1,70,0,0
57620,-76.9230769230769,4,2,1,80,0,0
58220,-100,4,2,2,70,0,0
59120,-100,4,2,1,80,0,0
59720,-100,4,2,2,70,0,0
60320,-100,4,2,1,80,0,0
62720,-133.333333333333,4,2,1,80,0,0
63320,-83.3333333333333,4,2,1,80,0,1
68120,-100,4,2,1,70,0,1
71720,-100,4,2,2,70,0,1
71870,-100,4,2,1,70,0,1
72020,-100,4,2,2,70,0,1
72170,-100,4,2,1,70,0,1
72920,-83.3333333333333,4,2,1,80,0,1
77720,-83.3333333333333,4,2,1,70,0,1
80120,-83.3333333333333,4,2,2,50,0,1
80420,-83.3333333333333,4,2,2,60,0,1
80720,-83.3333333333333,4,2,2,70,0,1
81020,-83.3333333333333,4,2,2,80,0,1
81320,-133.333333333333,4,2,1,50,0,1
82520,-83.3333333333333,4,2,1,80,0,1
86120,-83.3333333333333,4,2,1,55,0,1
87320,-100,4,2,0,75,0,0

[HitObjects]
112,76,619,6,0,P|75:110|62:190,1,125.999996154785,0|2,0:0|0:0,0:0:0:0:
180,176,1070,1,0,0:0:0:0:
298,140,1220,2,0,P|322:96|318:52,1,90,2|0,0:0|0:0,0:0:0:0:
271,259,1520,2,0,P|297:302|337:320,1,90,2|0,0:0|0:0,0:0:0:0:
180,176,1820,2,0,P|130:177|94:203,1,90,2|0,0:0|0:0,0:0:0:0:
298,140,2120,5,2,0:0:0:0:
195,66,2270,1,0,0:0:0:0:
321,66,2420,1,2,0:0:0:0:
219,140,2570,1,0,0:0:0:0:
309,232,2720,5,2,0:0:0:0:
176,329,2870,1,0,0:0:0:0:
339,329,3020,1,2,0:0:0:0:
207,232,3170,1,0,0:0:0:0:
296,105,3320,6,0,P|340:114|379:135,1,90,2|0,0:0|0:0,0:0:0:0:
132,135,3620,2,0,P|171:114|215:105,1,90,2|0,0:0|0:0,0:0:0:0:
414,271,3920,2,0,P|387:234|351:208,1,90,2|0,0:0|0:0,0:0:0:0:
160,208,4220,2,0,P|124:234|98:271,1,90,2|0,0:0|0:0,0:0:0:0:
216,356,4520,5,2,0:0:0:0:
296,236,4670,1,0,0:0:0:0:
216,116,4820,1,2,0:0:0:0:
336,40,4970,2,0,P|400:64|430:192,1,180
266,201,5420,2,0,P|289:164|332:151,1,90,2|0,0:0|0:0,0:0:0:0:
238,281,5720,6,0,P|214:318|172:331,1,90,4|0,0:0|0:0,0:0:0:0:
111,179,6020,2,0,L|166:254,1,90,8|0,0:0|0:0,0:0:0:0:
36,154,6320,2,0,P|59:116|101:103,1,90,2|0,0:0|0:0,2:0:0:0:
164,251,6620,1,8,0:0:0:0:
23,190,6770,1,0,0:0:0:0:
143,96,6920,6,0,P|212:82|234:87,1,90,2|0,0:0|0:0,0:0:0:0:
368,180,7220,2,0,P|299:194|277:189,1,90,8|0,0:0|0:0,0:0:0:0:
346,36,7520,1,2,0:0:0:0:
447,139,7670,1,0,0:0:0:0:
304,116,7820,1,8,0:0:0:0:
433,50,7970,1,0,0:0:0:0:
368,180,8120,6,0,P|329:238|310:250,1,90,4|0,0:0|0:0,0:0:0:0:
162,182,8420,2,0,P|232:186|252:196,1,90,8|0,0:0|0:0,0:0:0:0:
94,235,8720,1,2,0:0:0:0:
70,197,8795,1,0,0:0:0:0:
60,153,8870,1,0,0:0:0:0:
67,109,8945,1,0,0:0:0:0:
89,70,9020,1,0,0:0:0:0:
123,41,9095,1,0,0:0:0:0:
165,25,9170,6,0,P|237:15|359:56,1,180,2|8,0:0|0:0,0:0:0:0:
437,161,9620,1,8,0:0:0:0:
349,286,9770,1,0,0:0:0:0:
279,149,9920,1,8,0:0:0:0:
425,262,10070,2,0,P|419:320|297:349,1,180,4|0,0:0|0:0,0:0:0:0:
206,122,10520,6,0,P|224:94|278:74,1,90,4|0,0:0|0:0,0:0:0:0:
215,206,10820,1,8,0:0:0:0:
129,89,10970,1,0,0:0:0:0:
276,74,11120,2,0,P|356:70|396:78,1,90,2|0,0:0|0:0,0:0:0:0:
496,101,11420,1,8,0:0:0:0:
472,233,11570,1,0,0:0:0:0:
391,326,11720,6,0,P|329:334|286:328,1,90,2|0,0:0|0:0,0:0:0:0:
123,234,12020,2,0,P|185:226|228:232,1,90,8|0,0:0|0:0,0:0:0:0:
391,58,12320,2,0,P|329:50|286:56,1,90,2|0,0:0|0:0,0:0:0:0:
123,150,12620,2,0,P|185:158|228:152,1,90,8|0,0:0|0:0,0:0:0:0:
348,152,12920,5,2,0:0:0:0:
480,82,13070,1,0,0:0:0:0:
448,240,13220,2,0,P|412:288|384:308,1,90,8|0,0:0|0:0,0:0:0:0:
262,133,13520,2,0,P|321:140|352:154,1,90,2|0,0:0|0:0,3:0:0:0:
261,351,13820,2,0,P|237:295|234:261,1,90,8|0,0:0|0:0,0:0:0:0:
262,133,14120,5,2,0:0:0:0:
425,109,14270,1,0,0:0:0:0:
304,211,14420,1,8,0:0:0:0:
282,47,14570,1,0,0:0:0:0:
391,194,14720,1,2,0:0:0:0:
248,284,14870,1,0,0:0:0:0:
312,121,15020,1,8,0:0:0:0:
355,288,15170,1,0,0:0:0:0:
226,173,15320,6,0,P|165:179|127:196,1,90,4|0,0:0|0:0,0:0:0:0:
132,343,15620,2,0,P|157:287|161:245,1,90,8|0,0:0|0:0,0:0:0:0:
119,67,15920,1,2,0:0:0:0:
44,231,16070,1,0,0:0:0:0:
44,51,16220,1,8,0:0:0:0:
119,214,16370,1,0,0:0:0:0:
246,87,16520,6,0,P|185:117|167:142,1,90,2|0,0:0|0:0,0:0:0:0:
351,235,16820,2,0,P|356:168|343:139,1,90,8|0,0:0|0:0,0:0:0:0:
165,201,17120,1,2,0:0:0:0:
289,273,17270,1,0,0:0:0:0:
274,156,17420,1,8,0:0:0:0:
180,318,17570,1,0,0:0:0:0:
355,133,17720,6,0,P|322:88|264:79,1,90,2|0,0:0|0:0,0:0:0:0:
141,106,18020,1,8,0:0:0:0:
236,225,18170,1,0,0:0:0:0:
387,205,18320,2,0,P|423:170|432:118,1,90,2|0,0:0|0:0,0:0:0:0:
295,56,18620,1,8,0:0:0:0:
295,56,18770,2,0,P|216:35|99:68,1,180,4|0,0:0|0:0,0:0:0:0:
56,224,19220,1,8,0:0:0:0:
224,286,19370,1,0,0:0:0:0:
193,108,19520,1,8,0:0:0:0:
145,322,19670,2,0,P|220:366|301:316,1,180,4|0,0:0|0:0,0:0:0:0:
308,128,20120,6,0,L|384:156,1,62.9999980773926,2|0,0:0|0:0,0:0:0:0:
353,297,20420,2,0,L|308:252,1,62.9999980773926,2|0,0:0|0:0,0:0:0:0:
192,236,20720,2,0,L|220:312,1,62.9999980773926,2|0,0:0|0:0,0:0:0:0:
84,375,21020,2,0,L|92:312,1,62.9999980773926,2|0,0:0|0:0,0:0:0:0:
64,164,21320,6,0,L|112:112,1,62.9999980773926,2|0,0:0|0:0,0:0:0:0:
86,29,21545,1,0,0:0:0:0:
86,29,21620,2,0,L|40:72,1,62.9999980773926,2|0,0:0|0:0,0:0:0:0:
172,32,21920,1,10,0:0:0:0:
172,32,22070,2,0,P|268:28|352:56,1,180,4|0,0:0|0:0,0:0:0:0:
416,148,22520,6,0,P|352:168|272:143,1,153.000002918243,4|8,0:0|0:0,0:0:0:0:
168,110,22970,1,0,0:0:0:0:
84,169,23120,2,0,P|108:213|148:240,1,76.5000014591217,10|0,0:0|0:0,0:0:0:0:
194,295,23420,1,8,0:0:0:0:
285,249,23570,1,0,0:0:0:0:
380,284,23720,6,0,P|429:254|452:224,1,76.5000014591217,8|0,0:0|0:0,0:0:0:0:
412,147,24020,1,8,0:0:0:0:
353,63,24170,1,0,0:0:0:0:
307,154,24320,2,0,P|288:183|256:208,1,76.5000014591217,10|0,0:0|0:0,0:0:0:0:
127,206,24620,2,0,P|101:183|76:148,1,76.5000014591217,8|0,0:0|0:0,0:0:0:0:
196,80,24920,6,0,L|196:172,1,76.5000014591217,8|0,0:0|0:0,0:0:0:0:
171,261,25220,1,8,0:0:0:0:
66,284,25370,1,0,0:0:0:0:
90,179,25520,1,10,0:0:0:0:
171,261,25670,1,0,0:0:0:0:
276,284,25820,1,8,0:0:0:0:
252,179,25970,1,0,0:0:0:0:
90,180,26120,6,0,P|67:137|64:96,1,76.5000014591217,8|0,0:0|0:0,0:0:0:0:
171,261,26420,2,0,P|194:304|194:344,1,76.5000014591217,8|0,0:0|0:0,0:0:0:0:
162,172,26720,1,10,0:0:0:0:
171,139,26795,1,0,0:0:0:0:
189,111,26870,1,0,0:0:0:0:
215,89,26945,1,0,0:0:0:0:
246,76,27020,1,8,0:0:0:0:
280,72,27095,1,0,0:0:0:0:
313,78,27170,1,0,0:0:0:0:
343,94,27245,1,0,0:0:0:0:
367,118,27320,6,0,P|404:162|500:180,1,153.000002918243,8|8,0:0|0:0,0:0:0:0:
467,75,27770,1,0,0:0:0:0:
314,180,27920,2,0,P|270:204|224:216,1,76.5000014591217,10|0,0:0|0:0,0:0:0:0:
106,125,28220,2,0,P|150:101|200:88,1,76.5000014591217,8|0,0:0|0:0,0:0:0:0:
130,248,28520,6,0,P|68:237|8:168,1,153.000002918243,8|8,0:0|0:0,0:0:0:0:
44,55,28970,1,0,0:0:0:0:
172,100,29120,2,0,P|221:120|320:116,1,153.000002918243,10|8,0:0|0:0,0:0:0:0:
340,112,29495,1,0,0:0:0:0:
356,108,29570,1,0,0:0:0:0:
428,216,29720,6,0,P|390:290|277:351,1,215.999993408203,12|0,0:0|0:0,0:0:0:0:
190,31,30170,2,0,P|273:26|383:94,1,215.999993408203,12|0,0:0|0:0,0:0:0:0:
149,328,30620,2,0,P|104:259|107:130,1,215.999993408203,12|0,0:0|0:0,0:0:0:0:
200,240,31070,6,0,P|254:305|392:336,1,215.999993408203,12|0,0:0|0:0,0:0:0:0:
470,176,31520,1,8,0:0:0:0:
461,138,31820,1,8,0:0:0:0:
452,106,32120,6,0,P|430:59|392:16,1,90,4|0,0:0|0:0,0:0:0:0:
293,103,32420,1,8,0:0:0:0:
266,234,32570,1,0,0:0:0:0:
156,156,32720,1,10,0:0:0:0:
186,28,32870,1,8,0:0:0:0:
231,150,33020,2,0,L|266:234,1,90,8|0,0:0|0:0,0:0:0:0:
443,314,33320,6,0,L|392:200,1,90
351,105,33620,1,8,0:0:0:0:
266,234,33770,2,0,P|213:281|168:296,1,90,0|2,0:0|0:0,0:0:0:0:
223,135,34070,2,0,P|276:88|321:73,1,90,0|8,0:0|0:0,0:3:0:0:
422,51,34370,1,0,0:0:0:0:
409,184,34520,6,0,P|383:240|344:280,1,90
228,332,34820,1,8,0:0:0:0:
164,192,34970,1,0,0:0:0:0:
136,311,35120,1,10,0:0:0:0:
255,212,35270,1,8,0:0:0:0:
240,60,35420,2,0,L|215:189,1,90,8|0,0:0|0:0,0:0:0:0:
143,281,35720,6,0,P|110:233|96:84,1,180,0|8,0:0|0:0,0:0:0:0:
143,281,36170,2,0,P|236:297|344:268,1,180
247,130,36620,1,8,0:0:0:0:
143,281,36770,1,0,0:0:0:0:
302,364,36920,6,0,P|365:337|396:316,1,90,4|0,0:0|0:0,0:0:0:0:
369,186,37220,1,8,0:0:0:0:
448,30,37370,1,0,0:0:0:0:
331,149,37520,1,10,0:0:0:0:
485,67,37670,1,8,0:0:0:0:
323,90,37820,1,8,0:0:0:0:
494,126,37970,1,0,0:0:0:0:
349,45,38120,6,0,P|294:26|138:31,1,180,0|8,0:0|0:0,0:0:0:0:
40,124,38570,1,0,0:0:0:0:
184,172,38720,2,0,P|240:196|296:232,1,90,2|0,0:0|0:0,0:0:0:0:
120,296,39020,2,0,P|81:319|39:335,1,90,8|0,0:0|0:0,0:0:0:0:
197,347,39320,1,4,0:0:0:0:
424,288,39620,6,0,P|460:216|464:80,1,180,8|8,0:0|0:0,0:0:0:0:
344,172,40070,1,8,0:0:0:0:
256,312,40220,1,8,0:0:0:0:
168,172,40370,2,0,P|160:92|259:55,1,180,4|0,0:0|0:0,0:0:0:0:
332,232,40820,6,0,P|252:232|220:212,1,90,8|0,0:0|0:0,0:0:0:0:
372,84,41120,1,0,0:0:0:0:
400,108,41195,1,0,0:0:0:0:
421,139,41270,1,0,0:0:0:0:
434,175,41345,1,0,0:0:0:0:
437,212,41420,1,8,0:0:0:0:
430,250,41495,1,0,0:0:0:0:
415,284,41570,1,0,0:0:0:0:
391,313,41645,1,0,0:0:0:0:
360,335,41720,6,0,P|312:360|272:364,1,76.5000014591217,4|0,0:0|0:0,0:0:0:0:
320,252,42020,1,0,0:0:0:0:
212,288,42170,2,0,P|132:272|80:208,1,153.000002918243,8|0,0:0|0:0,0:0:0:0:
192,172,42620,1,8,0:0:0:0:
308,176,42770,1,8,0:0:0:0:
252,76,42920,6,0,P|216:52|184:40,1,76.5000014591217
192,172,43220,1,0,0:0:0:0:
308,176,43370,2,0,P|364:144|416:52,1,153.000002918243,8|0,0:0|0:0,0:0:0:0:
460,176,43820,2,0,L|460:252,1,76.5000014591217,0|0,0:0|0:0,0:0:0:0:
364,316,44120,5,4,0:0:0:0:
256,328,44270,1,0,0:0:0:0:
148,316,44420,1,0,0:0:0:0:
184,208,44570,2,0,P|256:192|352:224,1,153.000002918243,8|0,0:0|0:0,0:0:0:0:
256,120,45020,2,0,L|256:44,1,76.5000014591217,8|0,0:0|0:0,0:0:0:0:
364,96,45320,6,0,L|364:196,1,76.5000014591217,8|8,0:0|0:0,0:0:0:0:
364,192,45545,1,8,0:0:0:0:
364,212,45620,1,8,0:0:0:0:
256,328,45770,1,8,0:0:0:0:
256,304,45845,1,8,0:0:0:0:
256,284,45920,1,8,0:0:0:0:
256,120,46070,1,4,0:0:0:0:
256,120,46370,1,0,0:0:0:0:
184,180,46520,6,0,P|140:200|80:208,1,76.5000014591217,4|0,0:0|0:0,0:0:0:0:
128,72,46820,1,0,0:0:0:0:
256,120,46970,2,0,P|272:200|216:268,1,153.000002918243,8|0,0:0|0:0,0:0:0:0:
328,88,47420,1,0,0:0:0:0:
345,125,47495,1,0,0:0:0:0:
353,165,47570,1,0,0:0:0:0:
350,204,47645,1,0,0:0:0:0:
340,244,47720,6,0,P|316:288|272:324,1,76.5000014591217
192,352,48020,1,0,0:0:0:0:
84,312,48170,2,0,P|40:248|48:156,1,153.000002918243,8|0,0:0|0:0,0:0:0:0:
149,214,48620,2,0,P|209:230|245:230,1,76.5000014591217,0|0,0:0|0:0,0:0:0:0:
353,165,48920,5,4,0:0:0:0:
372,16,49070,1,0,0:0:0:0:
272,72,49220,1,0,0:0:0:0:
456,96,49370,2,0,P|488:136|488:248,1,153.000002918243,8|0,0:0|0:0,0:0:0:0:
400,316,49820,1,0,0:0:0:0:
256,232,49970,1,0,0:0:0:0:
112,316,50120,6,0,L|216:316,1,76.5000014591217,4|0,0:0|0:0,0:0:0:0:
400,192,50420,2,0,L|296:192,1,76.5000014591217,8|0,0:0|0:0,0:0:0:0:
112,68,50720,2,0,L|216:68,1,76.5000014591217,4|0,0:0|0:0,0:0:0:0:
188,68,50945,1,0,0:0:0:0:
188,68,51020,1,8,0:0:0:0:
354,125,51320,6,0,P|376:184|377:258,1,125.999996154785,4|0,0:0|0:0,0:0:0:0:
386,334,51770,1,0,0:0:0:0:
301,317,51920,2,0,P|238:306|174:270,1,125.999996154785,8|0,0:0|0:0,0:0:0:0:
118,217,52370,1,0,0:0:0:0:
87,134,52520,6,0,P|119:82|139:71,1,62.9999980773926,0|8,0:0|0:0,0:0:0:0:
180,156,52820,1,0,0:0:0:0:
256,200,52970,1,0,0:0:0:0:
332,156,53120,2,0,P|385:103|389:35,1,125.999996154785,8|0,0:0|0:0,0:0:0:0:
298,66,53570,1,0,0:0:0:0:
256,200,53720,6,0,P|294:244|386:269,1,125.999996154785,4|0,0:0|0:0,0:0:0:0:
424,324,54170,1,0,0:0:0:0:
337,343,54320,2,0,P|297:351|212:348,1,125.999996154785,8|0,0:0|0:0,0:0:0:0:
129,301,54770,1,0,0:0:0:0:
74,236,54920,6,0,P|43:200|43:171,1,62.9999980773926,0|8,0:0|0:0,0:0:0:0:
157,248,55220,2,0,P|141:292|116:307,1,62.9999980773926,0|0,0:0|0:0,0:0:0:0:
120,171,55520,2,0,P|166:162|191:176,1,62.9999980773926,8|0,0:0|0:0,0:0:0:0:
311,284,55820,1,0,0:0:0:0:
341,289,55895,1,0,0:0:0:0:
373,286,55970,1,0,0:0:0:0:
402,274,56045,1,0,0:0:0:0:
426,254,56120,5,4,0:0:0:0:
452,120,56270,1,0,0:0:0:0:
426,254,56420,1,0,0:0:0:0:
332,156,56570,1,0,0:0:0:0:
236,249,56720,2,0,P|198:282|61:286,1,180,8|0,0:0|0:0,0:0:0:0:
125,156,57170,2,0,P|163:123|300:119,1,180,4|0,0:0|0:0,0:0:0:0:
398,247,57620,6,0,P|392:302|346:370,1,116.999994644165,2|0,0:0|0:0,0:0:0:0:
149,355,57920,2,0,P|120:304|114:247,1,116.999994644165,8|0,0:0|0:0,0:0:0:0:
172,115,58220,1,0,0:0:0:0:
210,92,58295,1,0,0:0:0:0:
254,85,58370,1,0,0:0:0:0:
298,93,58445,1,0,0:0:0:0:
337,116,58520,5,12,0:0:0:0:
430,270,58670,1,8,0:0:0:0:
472,95,58820,1,8,0:0:0:0:
174,116,59120,1,8,0:0:0:0:
82,270,59270,1,8,0:0:0:0:
40,95,59420,1,8,0:0:0:0:
295,345,59720,5,12,2:0:0:0:
465,290,59870,1,8,2:0:0:0:
361,141,60020,1,8,2:0:0:0:
216,345,60320,1,8,2:0:0:0:
46,290,60470,1,8,2:0:0:0:
150,141,60620,1,8,2:0:0:0:
256,56,60920,5,8,0:0:0:0:
284,168,61070,1,0,0:0:0:0:
248,280,61220,1,0,0:0:0:0:
256,56,61370,5,8,0:0:0:0:
222,190,61520,1,0,0:0:0:0:
265,324,61670,1,0,0:0:0:0:
392,288,61820,2,0,P|432:232|448:192,1,90,12|0,0:0|0:0,0:0:0:0:
488,60,62120,5,4,0:0:0:0:
488,60,62720,2,0,B|416:89|379:57|379:57|324:63|277:96,1,202.500007724762
177,162,63320,5,12,0:0:0:0:
256,292,63470,1,0,0:0:0:0:
335,162,63620,1,8,0:0:0:0:
196,236,63770,1,0,0:0:0:0:
256,376,63920,1,8,0:0:0:0:
316,236,64070,1,0,0:0:0:0:
256,96,64220,2,0,L|256:208,1,107.999996704102,8|0,0:0|0:0,0:0:0:0:
128,304,64520,6,0,P|105:250|108:196,1,107.999996704102,8|0,0:0|0:0,0:0:0:0:
172,48,64820,1,8,0:0:0:0:
340,48,64970,1,0,0:0:0:0:
256,188,65120,1,8,0:0:0:0:
172,48,65270,1,0,0:0:0:0:
340,48,65420,2,0,P|395:96|419:145,1,107.999996704102,8|0,0:0|0:0,0:0:0:0:
324,257,65720,5,8,0:0:0:0:
257,96,65870,1,0,0:0:0:0:
394,200,66020,1,8,0:0:0:0:
243,284,66170,1,0,0:0:0:0:
172,126,66320,2,0,P|175:63|209:20,1,107.999996704102,8|0,0:0|0:0,0:0:0:0:
310,338,66620,2,0,P|253:366|199:358,1,107.999996704102,8|0,0:0|0:0,0:0:0:0:
409,115,66920,6,0,P|462:149|482:200,1,107.999996704102,8|0,0:0|0:0,0:0:0:0:
243,284,67220,1,8,0:0:0:0:
118,197,67370,1,0,0:0:0:0:
256,135,67520,1,8,0:0:0:0:
170,259,67670,1,0,0:0:0:0:
206,64,67820,1,8,0:0:0:0:
256,48,67895,1,0,0:0:0:0:
307,65,67970,1,0,0:0:0:0:
337,109,68045,1,0,0:0:0:0:
336,162,68120,6,0,P|304:246|213:288,1,180,4|8,0:0|0:0,0:0:0:0:
52,153,68570,5,0,0:0:0:0:
215,163,68720,1,2,0:0:0:0:
63,219,68870,1,0,0:0:0:0:
180,107,69020,1,8,0:0:0:0:
120,257,69170,1,0,0:0:0:0:
103,95,69320,6,0,P|143:37|243:62,1,180,2|8,0:0|0:0,0:0:0:0:
329,182,69770,1,0,0:0:0:0:
342,335,69920,1,2,0:0:0:0:
203,269,70070,1,0,0:0:0:0:
329,182,70220,1,8,0:0:0:0:
264,321,70370,1,0,0:0:0:0:
170,195,70520,6,0,P|192:95|252:40,1,180,2|8,0:0|0:0,0:0:0:0:
329,182,70970,1,0,0:0:0:0:
203,269,71120,2,0,P|156:273|110:251,1,90,2|0,0:0|0:0,0:0:0:0:
329,182,71420,2,0,P|376:178|422:200,1,90,8|0,0:0|0:0,0:0:0:0:
260,316,71720,5,8,0:0:0:0:
206,162,71870,1,8,0:0:0:0:
199,356,72020,1,8,0:0:0:0:
266,121,72170,1,8,0:0:0:0:
122,368,72320,1,0,0:0:0:0:
81,348,72395,1,0,0:0:0:0:
56,310,72470,1,0,0:0:0:0:
81,272,72545,1,0,0:0:0:0:
101,231,72620,1,0,0:0:0:0:
124,192,72695,1,0,0:0:0:0:
101,153,72770,1,0,0:0:0:0:
81,112,72845,1,0,0:0:0:0:
56,74,72920,6,0,P|88:32|140:16,1,107.999996704102,4|0,0:0|0:0,0:0:0:0:
292,8,73220,1,2,0:0:0:0:
392,120,73370,1,0,0:0:0:0:
219,249,73520,2,0,P|245:144|261:122,1,107.999996704102,8|0,0:0|0:0,0:0:0:0:
386,33,73820,1,0,0:0:0:0:
459,262,73970,6,0,P|432:324|283:327,1,215.999993408203,4|0,0:0|0:0,0:0:0:0:
391,147,74420,2,0,P|379:200|354:248,1,107.999996704102,2|0,0:0|0:0,0:0:0:0:
316,101,74720,1,8,0:0:0:0:
437,10,74870,1,0,0:0:0:0:
471,157,75020,1,0,0:0:0:0:
461,209,75095,1,0,0:0:0:0:
441,260,75170,1,0,0:0:0:0:
413,306,75245,1,0,0:0:0:0:
376,346,75320,6,0,P|308:358|265:357,1,107.999996704102,4|0,0:0|0:0,0:0:0:0:
140,277,75620,1,2,0:0:0:0:
270,200,75770,1,0,0:0:0:0:
190,355,75920,2,0,P|132:369|72:342,1,107.999996704102,8|0,0:0|0:0,0:0:0:0:
37,200,76220,1,0,0:0:0:0:
212,17,76370,6,0,P|194:117|101:202,1,215.999993408203,4|0,0:0|0:0,0:0:0:0:
292,28,76820,2,0,P|357:37|393:71,1,107.999996704102,2|0,0:0|0:0,0:0:0:0:
317,251,77120,2,0,P|248:182|315:112,1,215.999993408203,8|0,0:0|0:0,0:0:0:0:
369,120,77495,1,0,0:0:0:0:
407,156,77570,1,0,0:0:0:0:
406,208,77645,1,0,0:0:0:0:
368,242,77720,6,0,P|253:241|155:163,1,215.999993408203,4|8,0:0|0:0,0:0:0:0:
69,45,78170,1,0,0:0:0:0:
235,99,78320,1,2,0:0:0:0:
68,153,78470,1,0,0:0:0:0:
171,11,78620,1,8,0:0:0:0:
171,186,78770,1,0,0:0:0:0:
191,314,78920,6,0,P|110:323|66:305,1,107.999996704102,2|0,0:0|0:0,0:0:0:0:
377,257,79220,2,0,P|387:338|369:382,1,107.999996704102,8|0,0:0|0:0,0:0:0:0:
321,70,79520,2,0,P|402:61|446:79,1,107.999996704102,2|0,0:0|0:0,0:0:0:0:
134,127,79820,2,8,P|125:45|143:2,1,107.999996704102,8|0,0:0|0:0,0:0:0:0:
310,227,80120,5,8,0:0:0:0:
239,369,80270,1,8,0:0:0:0:
201,155,80420,1,8,0:0:0:0:
272,297,80570,1,8,0:0:0:0:
310,83,80720,1,8,0:0:0:0:
239,225,80870,1,8,0:0:0:0:
201,10,81020,1,8,0:0:0:0:
272,152,81170,1,8,0:0:0:0:
272,152,81245,1,8,0:0:0:0:
272,152,81320,1,8,0:0:0:0:
97,126,81470,5,0,0:0:0:0:
97,126,81620,1,2,0:0:0:0:
48,208,81920,1,2,0:0:0:0:
96,288,82220,2,0,P|138:325|167:335,1,67.5000025749208,2|0,0:0|0:0,0:0:0:0:
224,192,82520,5,12,0:0:0:0:
330,55,82670,1,0,0:0:0:0:
395,216,82820,1,8,0:0:0:0:
224,192,82970,1,0,0:0:0:0:
384,126,83120,1,8,0:0:0:0:
360,298,83270,1,0,0:0:0:0:
224,192,83420,1,8,0:0:0:0:
395,215,83570,1,0,0:0:0:0:
288,352,83720,5,8,0:0:0:0:
224,192,83870,1,0,0:0:0:0:
330,55,84020,2,0,P|330:117|288:159,1,107.999996704102,8|0,0:0|0:0,0:0:0:0:
52,168,84320,2,0,P|105:137|163:152,1,107.999996704102,8|0,0:0|0:0,0:0:0:0:
288,351,84620,2,0,P|234:320|218:262,1,107.999996704102,8|0,0:0|0:0,0:0:0:0:
330,55,84920,5,8,0:0:0:0:
443,185,85070,1,0,0:0:0:0:
273,219,85220,1,8,0:0:0:0:
403,106,85370,1,0,0:0:0:0:
438,275,85520,1,8,0:0:0:0:
325,145,85670,1,0,0:0:0:0:
494,110,85820,1,8,0:0:0:0:
364,223,85970,1,0,0:0:0:0:
196,180,86120,6,0,L|110:150,1,71.9999978027344,8|8,0:0|0:0,0:0:0:0:
244,300,86320,2,0,L|329:329,1,71.9999978027344,8|8,0:0|0:0,0:0:0:0:
160,264,86520,2,0,L|130:350,1,71.9999978027344,8|8,0:0|0:0,0:0:0:0:
280,216,86720,2,0,L|309:130,1,71.9999978027344,8|8,0:0|0:0,0:0:0:0:
204,42,86920,2,0,L|290:71,1,71.9999978027344,8|8,0:0|0:0,0:0:0:0:
181,178,87120,2,0,L|95:149,1,71.9999978027344,8|0,0:0|0:0,0:0:0:0:
36,62,87320,1,4,0:0:0:0:
256,192,87395,12,0,89570,0:0:0:0:
