osu file format v13

[General]
AudioFilename: Granrodeo - Can Do.mp3
AudioLeadIn: 0
PreviewTime: 62330
Countdown: 0
SampleSet: Soft
StackLeniency: 0.7
Mode: 0
LetterboxInBreaks: 1
EpilepsyWarning: 1
WidescreenStoryboard: 1

[Editor]
DistanceSpacing: 1
BeatDivisor: 4
GridSize: 4
TimelineZoom: 1.6

[Metadata]
Title:Can Do
TitleUnicode:Can Do
Artist:GRANRODEO
ArtistUnicode:GRANRODEO
Creator:Losertic
Version:Normal
Source:
Tags:Short ver.
BeatmapID:511211
BeatmapSetID:218018

[Difficulty]
HPDrainRate:3
CircleSize:3
OverallDifficulty:3
ApproachRate:4
SliderMultiplier:1.1
SliderTickRate:1

[Events]
//Background and Video events
0,0,"BG.jpg",0,0
//Break Periods
//Storyboard Layer 0 (Background)
//Storyboard Layer 1 (Fail)
//Storyboard Layer 2 (Pass)
//Storyboard Layer 3 (Foreground)
//Storyboard Sound Samples
//Background Colour Transformations
3,100,163,162,255

[TimingPoints]
530,300,4,2,1,45,1,0
5330,-100,4,2,1,40,0,1
5405,-100,4,2,1,60,0,0
7730,-100,4,2,1,40,0,1
7805,-100,4,2,1,60,0,0
9380,-100,4,2,5,50,0,0
9455,-100,4,2,1,60,0,0
19130,-100,4,2,7,50,0,0
19205,-100,4,2,1,60,0,0
19730,-100,4,2,2,40,0,0
21530,-100,4,2,1,40,0,0
22130,-100,4,2,1,50,0,0
26330,-100,4,2,5,40,0,0
26405,-100,4,2,1,50,0,0
28430,-100,4,2,5,40,0,0
28505,-100,4,2,1,50,0,0
28730,-100,4,2,5,40,0,0
28805,-100,4,2,1,50,0,0
30530,-100,4,2,5,40,0,0
30605,-100,4,2,1,50,0,0
31730,-100,4,2,1,55,0,0
34280,-100,4,2,5,45,0,0
34355,-100,4,2,1,55,0,0
40280,-100,4,2,7,45,0,0
40355,-100,4,2,1,55,0,0
41630,-100,4,2,5,45,0,0
41705,-100,4,2,1,55,0,0
41930,-100,4,2,1,45,0,0
42005,-100,4,2,1,55,0,0
44030,-100,4,2,5,45,0,0
44105,-100,4,2,1,55,0,0
44330,-100,4,2,1,45,0,0
44405,-100,4,2,1,55,0,0
48530,-100,4,2,1,40,0,0
48605,-100,4,2,1,55,0,0
50930,-200,4,2,2,40,0,0
55730,-100,4,2,1,50,0,0
57080,-100,4,2,7,40,0,0
57155,-100,4,2,1,50,0,0
60530,-100,4,2,1,55,0,0
62330,-100,4,2,1,40,0,0
62930,-100,4,2,1,60,0,1
73580,-100,4,2,1,40,0,1
73655,-100,4,2,1,60,0,1
74930,-100,4,2,1,40,0,1
75005,-100,4,2,1,60,0,1
75530,-100,4,2,7,50,0,1
75605,-100,4,2,1,60,0,1
76280,-100,4,2,7,50,0,1
76355,-100,4,2,1,60,0,1
77330,-100,4,2,1,40,0,1
77405,-100,4,2,1,60,0,1
80930,-100,4,2,1,60,0,0
82130,-100,4,2,1,60,0,1
86930,-100,4,2,1,60,0,0
87080,-100,4,2,1,56,0,0
87230,-100,4,2,1,52,0,0
87380,-100,4,2,1,48,0,0
87530,-100,4,2,1,44,0,0
87680,-100,4,2,1,40,0,0
87830,-100,4,2,1,36,0,0
87980,-100,4,2,1,32,0,0
88130,-100,4,2,1,28,0,0
88280,-100,4,2,1,24,0,0
88430,-100,4,2,1,20,0,0
88580,-100,4,2,1,16,0,0
88730,-100,4,2,1,12,0,0
88880,-100,4,2,1,8,0,0
89030,-100,4,2,1,5,0,0

[Colours]
Combo1 : 28,244,196
Combo2 : 166,255,255
Combo3 : 119,181,255

[HitObjects]
56,108,530,6,0,P|104:80|164:76,1,110
260,40,1130,2,0,P|308:68|368:72,1,110
432,156,1730,2,0,P|426:210|399:257,1,110
292,292,2330,2,0,P|244:264|184:260,1,110
92,212,2930,6,0,L|80:88,1,110
172,40,3530,2,0,L|184:164,1,110
191,259,4130,1,0,0:0:0:0:
284,196,4430,2,0,B|320:176|320:176|360:180|360:180|392:160,2,110,0|0|0,0:0|0:0|0:0,0:0:0:0:
192,136,5330,6,0,P|140:108|72:112,1,110,4|2,0:0|0:0,0:0:0:0:
32,200,5930,2,0,P|29:254|2:301,1,110,2|2,0:0|0:0,0:0:0:0:
112,280,6530,2,0,P|166:282|213:309,1,110,2|2,0:0|0:0,0:0:0:0:
316,344,7130,2,0,P|360:312|385:263,1,110,2|2,0:0|0:0,0:0:0:0:
456,180,7730,6,0,B|400:168|400:168|360:120,1,110,4|2,0:0|0:0,0:0:0:0:
284,56,8330,2,0,P|236:40|172:40,1,110,2|2,0:0|0:0,0:0:0:0:
124,48,8780,1,4,0:0:0:0:
156,152,9080,2,0,B|168:192|216:176|216:176|288:216|372:172,1,220,8|4,0:0|0:0,0:0:0:0:
472,60,10130,5,2,0:0:0:0:
440,164,10430,1,8,0:0:0:0:
360,88,10730,1,2,0:0:0:0:
328,192,11030,1,8,0:0:0:0:
288,296,11330,2,0,L|344:280,2,55,2|2|8,0:0|0:0|0:0,0:0:0:0:
196,360,11930,2,0,L|140:376,2,55,2|2|8,0:0|0:0|0:0,0:0:0:0:
188,252,12530,6,0,B|164:216|164:216|164:176|164:176|148:140,1,110,2|8,0:0|0:0,0:0:0:0:
56,100,13130,1,2,0:0:0:0:
152,44,13430,1,8,0:0:0:0:
153,152,13730,2,0,P|200:172|272:152,1,110,2|8,0:0|0:0,0:0:0:0:
324,76,14330,2,0,P|377:65|427:86,1,110,2|8,0:0|0:0,0:0:0:0:
368,180,14930,6,0,P|344:228|348:300,2,110,4|8|2,0:0|0:0|0:0,0:0:0:0:
480,184,15830,1,8,0:0:0:0:
428,86,16130,2,0,L|320:42,1,110,2|8,0:0|0:0,0:0:0:0:
260,132,16730,2,0,L|152:88,1,110,2|8,0:0|0:0,0:0:0:0:
76,164,17330,6,0,L|25:143,2,55,2|2|8,0:0|0:0|0:0,0:0:0:0:
116,268,17930,1,2,0:0:0:0:
220,308,18230,1,8,0:0:0:0:
272,284,18380,6,0,P|320:256|380:276,1,110,4|8,0:0|0:0,0:0:0:0:
408,308,18830,2,0,B|376:260|376:260|408:232|384:200|384:200|396:152,1,165,8|4,0:0|0:0,0:0:0:0:
244,96,19730,6,0,P|204:64|144:64,2,110,0|0|0,0:0|0:0|0:0,0:0:0:0:
284,200,20630,1,0,0:0:0:0:
352,288,20930,2,0,B|396:284|396:284|416:248|416:248|460:240|460:240|480:204,1,165
496,156,21530,6,0,B|464:108|464:108|464:48,2,110,8|0|2,0:0|0:0|0:0,0:0:0:0:
504,264,22430,1,2,0:0:0:0:
403,307,22730,1,2,0:0:0:0:
331,224,23030,1,2,0:0:0:0:
387,129,23330,6,0,P|352:88|280:64,1,110,2|2,0:0|0:0,0:0:0:0:
264,108,23780,2,0,P|212:124|158:116,2,110,0|0|0,0:0|0:0|0:0,0:0:0:0:
248,56,24530,1,2,0:0:0:0:
356,40,24830,1,2,0:0:0:0:
456,84,25130,1,2,0:0:0:0:
496,184,25430,2,0,L|488:256,2,55,2|0|2,0:0|0:0|0:0,0:0:0:0:
408,248,26030,6,0,P|352:228|272:296,1,165,2|0,0:0|0:0,0:0:0:0:
168,260,26780,2,0,B|172:200|128:168|128:168|116:92,1,165,0|2,0:0|0:0,0:0:0:0:
200,36,27530,2,0,B|240:56|280:44|280:44|324:56,1,110,2|2,0:0|0:0,0:0:0:0:
416,72,28130,2,0,B|408:132|452:168|452:168|444:208|420:232,2,165,2|0|8,0:0|0:0|0:0,0:0:0:0:
324,132,29330,6,0,L|208:192,1,110,8|2,0:0|0:0,0:0:0:0:
204,232,29780,2,0,L|301:181,1,110,8|2,0:0|0:0,0:0:0:0:
356,180,30230,2,0,B|460:144|500:224,2,165,8|8|8,0:0|0:0|0:0,0:0:0:0:
304,276,31430,1,8,0:0:0:0:
204,232,31730,6,0,L|136:196,2,55,4|0|8,0:0|0:0|0:0,0:0:0:0:
240,128,32330,2,0,L|308:92,2,55,2|2|8,0:0|0:0|0:0,0:0:0:0:
160,52,32930,2,0,P|124:96|56:96,1,110,2|8,0:0|0:0,0:0:0:0:
24,200,33530,2,0,P|16:236|16:272,1,55,2|2,0:0|0:0,0:0:0:0:
92,332,33980,6,0,P|136:300|252:308,1,165,0|8,0:0|0:0,0:0:0:0:
344,344,34730,1,2,0:0:0:0:
412,256,35030,1,8,0:0:0:0:
308,216,35330,2,0,P|284:164|292:100,1,110,2|8,0:0|0:0,0:0:0:0:
316,68,35780,2,0,P|264:92|200:84,1,110,0|2,0:0|0:0,0:0:0:0:
112,40,36380,6,0,L|76:220,1,165,0|8,0:0|0:0,0:0:0:0:
132,300,37130,1,2,0:0:0:0:
196,208,37430,1,8,0:0:0:0:
268,124,37730,2,0,L|140:104,1,110,2|8,0:0|0:0,0:0:0:0:
52,92,38330,1,2,0:0:0:0:
108,188,38630,6,0,P|112:232|72:304,1,110,8|4,0:0|0:0,0:0:0:0:
192,260,39230,2,0,P|236:256|308:296,2,110,8|2|8,0:0|0:0|0:0,0:0:0:0:
144,232,39980,2,0,P|112:192|136:88,1,165,4|2,0:0|0:0,0:0:0:0:
244,112,40730,1,2,0:0:0:0:
332,48,41030,1,2,0:0:0:0:
428,100,41330,6,0,B|448:160|428:220|428:220|472:248,2,165,4|8|2,0:0|0:0|0:0,0:0:0:0:
332,48,42530,2,0,P|280:72|224:64,1,110,8|2,0:0|0:0,0:0:0:0:
176,52,42980,2,0,L|120:84,1,55,8|2,0:0|0:0,0:0:0:0:
108,188,43430,1,2,0:0:0:0:
188,264,43730,6,0,P|288:252|332:312,2,165,4|8|8,0:0|0:0|0:0,0:0:0:0:
108,188,44930,2,0,P|128:144|112:80,1,110,2|2,0:0|0:0,0:0:0:0:
84,40,45380,2,0,P|128:60|192:44,1,110,2|4,0:0|0:0,0:0:0:0:
284,100,45980,6,0,L|348:68,1,55,2|4,0:0|0:0,0:0:0:0:
416,148,46430,2,0,L|465:123,1,55,2|8,0:0|0:0,0:0:0:0:
440,232,46880,2,0,P|412:284|352:304,1,110,0|2,0:0|0:0,0:0:0:0:
316,284,47330,2,0,B|268:256|268:256|196:272,2,110,2|2|2,0:0|0:0|0:0,0:0:0:0:
344,176,48230,1,2,0:0:0:0:
268,100,48530,6,0,L|152:72,1,110,4|2,0:0|0:0,0:0:0:0:
120,36,48980,2,0,P|124:104|80:192,1,165,8|2,0:0|0:0,0:0:0:0:
60,240,49580,2,0,B|56:272|56:272|60:304,1,55,2|8,0:0|0:0,0:0:0:0:
140,368,50030,1,8,0:0:0:0:
236,312,50330,2,0,B|268:316|268:316|300:312,2,55,8|0|8,0:0|0:0|0:0,0:0:0:0:
184,216,50930,6,0,P|196:163|180:111,1,110,4|8,0:0|0:0,0:0:0:0:
140,40,51830,1,0,0:0:0:0:
224,44,52130,2,0,L|336:68,1,110,2|8,0:0|0:0,0:0:0:0:
468,240,53330,6,0,P|472:304|440:344,1,110,2|8,0:0|0:0,0:0:0:0:
364,324,54230,1,0,0:0:0:0:
300,272,54530,2,0,P|246:266|201:296,1,110,2|8,0:0|0:0,0:0:0:0:
40,144,55730,6,0,P|104:168|200:128,1,165,4|2,0:0|0:0,0:0:0:0:
232,100,56330,2,0,B|268:56|268:56|336:44,1,110,8|0,0:0|0:0,0:0:0:0:
368,76,56780,2,0,P|348:128|404:220,1,165,2|8,0:0|0:0,0:0:0:0:
504,184,57530,1,8,0:0:0:0:
504,296,57830,1,8,0:0:0:0:
400,332,58130,6,0,L|328:360,2,55,2|2|4,0:0|0:0|0:0,0:0:0:0:
300,284,58730,2,0,P|252:296|184:264,1,110,8|8,0:0|0:0,0:0:0:0:
112,204,59330,6,0,L|92:152,2,55,2|2|6,0:0|0:0|0:0,0:0:0:0:
192,128,59930,2,0,P|242:108|295:119,1,110,8|8,0:0|0:0,0:0:0:0:
392,68,60530,6,0,L|472:236,1,165,8|8,0:0|0:0,0:0:0:0:
364,348,61430,2,0,L|316:248,1,110,8|8,0:0|0:0,0:0:0:0:
192,68,62330,1,0,0:0:0:0:
116,272,62930,6,0,L|64:312,2,55,4|0|8,0:0|0:0|0:0,0:0:0:0:
164,240,63380,2,0,P|208:224|280:264,2,110,0|2|2,0:0|0:0|0:0,0:0:0:0:
64,196,64280,2,0,P|48:144|69:94,2,110,2|2|2,0:0|0:0|0:0,0:0:0:0:
224,148,65330,6,0,L|336:108,1,110,8|8,0:0|0:0,0:0:0:0:
368,76,65780,2,0,P|356:136|376:184,1,110,2|2,0:0|0:0,0:0:0:0:
444,264,66380,1,2,0:0:0:0:
356,332,66680,2,0,L|292:328,1,55,2|8,0:0|0:0,0:0:0:0:
212,264,67130,2,0,P|172:228|104:244,2,110,8|8|4,0:0|0:0|0:0,0:0:0:0:
312,216,68030,6,0,B|304:164|324:132|324:132|312:88,2,110,8|2|8,0:0|0:0|0:0,0:0:0:0:
392,292,68930,1,2,0:0:0:0:
452,200,69230,1,8,0:0:0:0:
408,100,69530,2,0,L|392:48,2,55,2|2|8,0:0|0:0|0:0,0:0:0:0:
352,196,70130,6,0,P|296:244|240:236,1,110,2|8,0:0|0:0,0:0:0:0:
180,320,70730,2,0,L|152:204,1,110,0|8,0:0|0:0,0:0:0:0:
84,128,71330,2,0,L|24:104,2,55,4|8|2,0:0|0:0|0:0,0:0:0:0:
172,64,71930,2,0,P|208:92|288:80,1,110,2|2,0:0|0:0,0:0:0:0:
372,52,72530,6,0,P|425:48|470:78,1,110,4|2,0:0|0:0,0:0:0:0:
512,44,72980,2,0,L|504:156,1,110,2|2,0:0|0:0,0:0:0:0:
416,220,73580,2,0,P|352:200|296:208,1,110,4|8,0:0|0:0,0:0:0:0:
348,308,74180,2,0,P|284:328|228:320,1,110
84,276,74930,6,0,P|28:220|60:136,2,165,4|2|0,0:0|0:0|0:0,0:0:0:0:
112,324,75980,2,0,P|167:268|243:289,1,165,2|2,0:0|0:0,0:0:0:0:
348,308,76730,1,8,0:0:0:0:
312,204,77030,1,2,0:0:0:0:
212,156,77330,6,0,L|204:96,2,55,4|0|8,0:0|0:0|0:0,0:0:0:0:
312,204,77930,2,0,P|334:254|347:307,1,110,0|8,0:0|0:0,0:0:0:0:
248,352,78530,1,2,0:0:0:0:
160,284,78830,1,8,0:0:0:0:
56,316,79130,1,2,0:0:0:0:
16,212,79430,1,8,0:0:0:0:
256,192,79730,12,8,80930,0:0:0:0:
472,68,82130,5,8,0:0:0:0:
472,68,82430,1,8,0:0:0:0:
412,160,82730,1,8,0:0:0:0:
412,160,83030,1,8,0:0:0:0:
480,248,83330,2,0,L|496:308,2,55,8|2|8,0:0|0:0|0:0,0:0:0:0:
392,316,83930,2,0,P|336:336|280:324,1,110,8|8,0:0|0:0,0:0:0:0:
176,316,84530,5,8,0:0:0:0:
70,282,84830,1,8,0:0:0:0:
70,172,85130,1,8,0:0:0:0:
176,138,85430,1,8,0:0:0:0:
240,226,85730,6,0,L|304:240,1,55,8|2,0:0|0:0,0:0:0:0:
348,220,86030,2,0,P|384:204|456:224,1,110,2|8,0:0|0:0,0:0:0:0:
436,112,86630,2,0,L|402:155,1,55,2|2,0:0|0:0,0:0:0:0:
256,192,86930,12,0,89180,0:0:0:0:
