osu file format v13

[General]
AudioFilename: Granrodeo - Can Do.mp3
AudioLeadIn: 0
PreviewTime: 62330
Countdown: 0
SampleSet: Soft
StackLeniency: 0.7
Mode: 0
LetterboxInBreaks: 1
EpilepsyWarning: 1
WidescreenStoryboard: 1

[Editor]
DistanceSpacing: 1
BeatDivisor: 4
GridSize: 4
TimelineZoom: 1.6

[Metadata]
Title:Can Do
TitleUnicode:Can Do
Artist:GRANRODEO
ArtistUnicode:GRANRODEO
Creator:Losertic
Version:Insane
Source:
Tags:Short ver.
BeatmapID:511210
BeatmapSetID:218018

[Difficulty]
HPDrainRate:7
CircleSize:4
OverallDifficulty:7
ApproachRate:9
SliderMultiplier:1.9
SliderTickRate:2

[Events]
//Background and Video events
0,0,"BG.jpg",0,0
//Break Periods
2,37030,50330
2,56830,61730
2,63054,86330
//Storyboard Layer 0 (Background)
//Storyboard Layer 1 (Fail)
//Storyboard Layer 2 (Pass)
//Storyboard Layer 3 (Foreground)
//Storyboard Sound Samples
//Background Colour Transformations
3,100,163,162,255

[TimingPoints]
530,300,4,2,1,45,1,0
3830,-76.9230769230769,4,2,1,45,0,0
3980,-100,4,2,1,45,0,0
5330,-100,4,2,1,40,0,1
5405,-100,4,2,1,60,0,0
7730,-100,4,2,1,40,0,1
7805,-100,4,2,1,60,0,0
19730,-200,4,2,2,40,0,0
22130,-100,4,2,1,50,0,0
29780,-90.9090909090909,4,2,1,50,0,0
30230,-83.3333333333333,4,2,1,50,0,0
30680,-100,4,2,1,50,0,0
31730,-100,4,2,1,55,0,0
50930,-200,4,2,2,40,0,0
55730,-100,4,2,1,50,0,0
60530,-100,4,2,1,55,0,0
62330,-200,4,2,1,40,0,0
62930,-100,4,2,1,60,0,1
80930,-100,4,2,1,60,0,0
82130,-100,4,2,1,60,0,1
86930,-100,4,2,1,60,0,0
87080,-100,4,2,1,56,0,0
87230,-100,4,2,1,52,0,0
87380,-100,4,2,1,48,0,0
87530,-100,4,2,1,44,0,0
87680,-100,4,2,1,40,0,0
87830,-100,4,2,1,36,0,0
87980,-100,4,2,1,32,0,0
88130,-100,4,2,1,28,0,0
88280,-100,4,2,1,24,0,0
88430,-100,4,2,1,20,0,0
88580,-100,4,2,1,16,0,0
88730,-100,4,2,1,12,0,0
88880,-100,4,2,1,8,0,0
89030,-100,4,2,1,5,0,0

[Colours]
Combo1 : 28,244,196
Combo2 : 166,255,255
Combo3 : 119,181,255

[HitObjects]
456,296,530,6,0,L|448:200,1,95
348,77,830,2,0,L|356:172,1,95
364,268,1130,2,0,P|328:308|276:316,1,95
136,272,1430,2,0,L|128:177,1,95
79,76,1730,6,0,P|121:97|168:92,1,95
240,152,2030,2,0,P|202:180|155:183,1,95
336,132,2330,2,0,P|317:88|278:63,1,95
428,152,2630,2,0,P|409:194|370:220,1,95
213,307,2930,6,0,L|308:296,1,95
136,272,3230,2,0,L|41:283,1,95
144,176,3530,2,0,P|112:136|108:88,1,95
244,32,3830,6,0,P|300:52|384:32,1,123.499994346619
380,52,4130,6,0,L|392:156,1,95
356,324,4430,2,0,P|328:280|272:256,1,95
184,252,4730,1,0,0:0:0:0:
148,260,4805,1,0,0:0:0:0:
112,264,4880,1,0,0:0:0:0:
0,176,5030,1,0,0:0:0:0:
36,168,5105,1,0,0:0:0:0:
72,164,5180,1,0,0:0:0:0:
140,96,5330,6,0,B|176:128|176:128|228:140,1,95
308,100,5630,1,0,0:0:0:0:
316,212,5780,1,0,0:0:0:0:
452,328,5930,2,0,L|360:296,1,95
392,148,6230,1,0,0:0:0:0:
232,260,6380,1,0,0:0:0:0:
67,140,6530,6,0,P|60:93|72:48,1,95
16,212,6830,2,0,P|61:223|108:216,1,95
192,100,7130,2,0,P|198:146|187:192,1,95
288,316,7430,2,0,P|281:269|292:223,1,95
192,100,7730,6,0,L|276:144,1,95
456,304,8030,2,0,P|416:276|356:272,1,95
288,316,8330,1,0,0:0:0:0:
252,332,8405,1,0,0:0:0:0:
216,336,8480,1,0,0:0:0:0:
180,332,8555,1,0,0:0:0:0:
148,348,8630,1,0,0:0:0:0:
32,228,8780,5,0,0:0:0:0:
32,228,9080,1,0,0:0:0:0:
96,80,9230,1,0,0:0:0:0:
208,252,9380,1,0,0:0:0:0:
184,144,9530,1,0,0:0:0:0:
116,276,9680,1,0,0:0:0:0:
116,276,9980,1,0,0:0:0:0:
116,276,10055,1,0,0:0:0:0:
116,276,10130,6,0,P|140:320|188:348,1,95
272,356,10430,1,0,0:0:0:0:
280,204,10580,1,0,0:0:0:0:
272,356,10730,1,0,0:0:0:0:
376,260,10880,1,0,0:0:0:0:
220,276,11030,1,0,0:0:0:0:
368,164,11180,1,0,0:0:0:0:
280,204,11330,5,0,0:0:0:0:
280,204,11480,1,0,0:0:0:0:
344,32,11630,2,0,L|288:108,1,95
160,32,11930,1,0,0:0:0:0:
160,32,12080,1,0,0:0:0:0:
112,204,12230,2,0,L|168:128,1,95
368,164,12530,6,0,P|386:206|378:252,1,95
300,308,12830,2,0,P|281:265|289:219,1,95
416,108,13130,1,0,0:0:0:0:
289,219,13280,1,0,0:0:0:0:
416,108,13430,1,0,0:0:0:0:
416,108,13730,6,0,L|488:36,1,95
344,48,14030,2,0,L|272:120,1,95
176,232,14330,1,0,0:0:0:0:
172,96,14480,1,0,0:0:0:0:
248,296,14630,1,0,0:0:0:0:
100,160,14780,1,0,0:0:0:0:
248,164,14930,6,0,B|344:128|344:128|356:172|416:188,1,190,0|0,0:0|0:0,0:0:0:0:
405,184,15380,1,0,0:0:0:0:
248,84,15530,2,0,B|272:36|272:36|324:36,1,95
144,32,15830,2,0,B|120:80|120:80|68:80,1,95
24,250,16130,6,0,P|11:205|24:160,1,95
190,296,16430,2,0,L|96:304,1,95
252,368,16730,2,0,L|292:282,1,95
84,148,17030,2,0,L|138:226,1,95
248,164,17330,5,0,0:0:0:0:
340,136,17480,1,0,0:0:0:0:
454,276,17630,2,0,L|420:188,1,95
272,76,17930,1,0,0:0:0:0:
356,256,18080,1,0,0:0:0:0:
260,252,18230,1,0,0:0:0:0:
184,96,18380,5,0,0:0:0:0:
184,96,18680,1,0,0:0:0:0:
56,224,18830,1,0,0:0:0:0:
144,28,18980,1,0,0:0:0:0:
0,112,19130,1,0,0:0:0:0:
96,296,19280,1,0,0:0:0:0:
96,296,19580,1,0,0:0:0:0:
96,296,19655,1,0,0:0:0:0:
96,296,19730,6,0,L|152:296,1,47.5
212,232,20030,2,0,L|268:232,1,47.5
348,320,20330,2,0,L|348:272,1,47.5
340,132,20629,2,0,L|340:180,1,47.5
212,232,20930,6,0,B|196:240|188:268|188:268|184:256|184:256|176:272|176:272|164:292,1,95
144,180,21380,1,0,0:0:0:0:
144,180,21530,2,0,L|156:124,1,47.5
81,37,21830,6,0,L|72:84,2,47.5,0|0|0,0:0|0:0|0:0,0:0:0:0:
154,134,22280,1,0,0:0:0:0:
154,134,22430,1,0,0:0:0:0:
154,134,22580,1,0,0:0:0:0:
256,64,22730,2,0,P|304:56|364:76,1,95
444,144,23030,2,0,P|398:155|351:147,1,95
256,64,23330,6,0,L|228:180,1,95
188,240,23630,1,0,0:0:0:0:
224,328,23780,2,0,B|268:348|268:348|324:344,1,95,0|0,0:0|0:0,0:0:0:0:
396,300,24080,2,0,B|392:253|392:253|412:209,1,95,0|0,0:0|0:0,0:0:0:0:
421,33,24380,6,0,P|345:86|256:64,1,190
120,44,24830,2,0,L|32:116,1,95
60,200,25130,2,0,L|133:139,1,95
212,244,25430,1,0,0:0:0:0:
120,272,25580,1,0,0:0:0:0:
60,200,25730,6,0,P|116:132|224:140,1,190
296,248,26180,1,0,0:0:0:0:
356,120,26330,1,0,0:0:0:0:
296,248,26480,2,0,P|344:264|392:256,1,95
424,244,26705,1,0,0:0:0:0:
456,264,26780,6,0,L|480:168,1,95
248,340,27230,1,0,0:0:0:0:
48,136,27530,1,0,0:0:0:0:
316,36,27830,1,0,0:0:0:0:
96,288,28130,2,0,B|132:232|192:240|192:240|216:204|200:148,1,190
63,61,28580,2,0,P|110:64|152:88,1,95
284,196,28880,1,0,0:0:0:0:
316,36,29030,1,0,0:0:0:0:
316,36,29105,1,0,0:0:0:0:
316,36,29180,1,0,0:0:0:0:
452,136,29330,6,0,L|472:332,1,190
196,268,29780,6,0,L|176:56,1,209.000006378174
471,325,30230,6,0,P|392:352|308:228,1,227.999993041992
368,88,30680,5,0,0:0:0:0:
64,332,31130,1,0,0:0:0:0:
144,216,31280,1,0,0:0:0:0:
28,244,31430,1,0,0:0:0:0:
160,332,31580,1,0,0:0:0:0:
144,216,31730,6,0,P|156:168|196:120,1,95
276,124,32030,2,0,P|264:169|237:208,1,95
100,272,32330,2,0,L|76:164,1,95
212,88,32630,2,0,L|236:196,1,95
285,282,32930,6,0,P|238:286|195:267,1,95
364,336,33231,1,0,0:0:0:0:
328,200,33380,2,0,L|340:88,1,95
276,32,33680,1,0,0:0:0:0:
384,160,33830,1,0,0:0:0:0:
220,192,33980,1,0,0:0:0:0:
56,160,34130,6,0,L|148:132,1,95
180,252,34430,2,0,L|272:224,1,95,0|0,0:0|0:0,0:0:0:0:
256,100,34730,2,0,L|346:72,1,95,0|0,0:0|0:0,0:0:0:0:
225,163,35030,2,0,L|316:136,1,95,0|0,0:0|0:0,0:0:0:0:
184,36,35330,5,0,0:0:0:0:
140,120,35480,1,0,0:0:0:0:
225,163,35630,2,0,P|225:215|209:259,1,95
136,316,35930,1,0,0:0:0:0:
68,248,36080,1,0,0:0:0:0:
48,156,36230,1,0,0:0:0:0:
11,31,36380,6,0,P|96:68|184:36,1,190
212,296,36830,1,0,0:0:0:0:
160,64,50930,6,0,P|116:116|128:200,1,142.5
140,204,51530,2,0,P|132:260|164:308,1,95
184,280,52130,5,0,0:0:0:0:
272,288,52280,2,0,L|356:232,1,95
324,152,52730,2,0,L|376:168,1,47.5
228,192,53030,1,0,0:0:0:0:
160,64,53330,6,0,P|116:116|128:200,1,142.5
56,156,53930,2,0,L|120:136,1,47.5
168,192,54230,2,0,L|232:184,1,47.5
184,280,54530,5,0,0:0:0:0:
272,288,54680,2,0,L|356:232,1,95
324,152,55130,2,0,L|376:168,1,47.5
228,192,55430,1,0,0:0:0:0:
152,144,55580,1,0,0:0:0:0:
92,248,55730,6,0,L|196:248,1,95
92,124,56030,2,0,L|196:112,1,95
64,176,56330,1,0,0:0:0:0:
152,156,56480,1,0,0:0:0:0:
216,196,56630,1,0,0:0:0:0:
120,140,62330,6,0,P|100:192|196:212,1,166.25
256,192,86930,12,0,89180,0:0:0:0:
