osu file format v9

[General]
AudioFilename: Dramatical Mp3.mp3
AudioLeadIn: 2500
PreviewTime: 91350
Countdown: 0
SampleSet: Soft
StackLeniency: 0.7
Mode: 0
LetterboxInBreaks: 0

[Editor]
DistanceSpacing: 1.6
BeatDivisor: 4
GridSize: 4

[Metadata]
Title:AI CATCH (Short Ver.)
Artist:GOATBED
Creator:Konei
Version:TuInsane
Source:DRAMAtical Murder
Tags:DMMD yaoi game visual novel boys love Nitro+Chiral opening Doraton tutuhaha nanda2009

[Difficulty]
HPDrainRate:7
CircleSize:4
OverallDifficulty:7
ApproachRate:8
SliderMultiplier:1.8
SliderTickRate:1

[Events]
//Background and Video events
Video,-2100,"Dramatical video.avi"
0,0,"Drama BG5.jpg"
//Break Periods
//Storyboard Layer 0 (Background)
//Storyboard Layer 1 (Fail)
//Storyboard Layer 2 (Pass)
//Storyboard Layer 3 (Foreground)
//Storyboard Sound Samples
//Background Colour Transformations
3,100,163,162,255

[TimingPoints]
100,416.666666666667,4,2,1,40,1,0
5100,-100,4,2,2,30,0,0
6766,-100,4,1,1,50,0,1
18433,-200,4,2,2,30,0,0
20100,-83.3333333333333,4,2,2,50,0,0
20308,-83.3333333333333,4,2,2,50,0,0
31766,-83.3333333333333,4,2,1,50,0,0
46766,-100,4,2,2,50,0,0
60100,-100,4,2,2,40,0,0
73433,-83.3333333333333,4,2,1,50,0,0
90933,-83.3333333333333,4,2,2,40,0,0
91766,-100,4,1,1,50,0,1
116766,-100,4,1,1,45,0,1
117600,-100,4,2,0,30,0,1
118433,-100,4,2,0,30,0,0

[Colours]
Combo1 : 58,50,218
Combo2 : 58,141,233
Combo3 : 139,32,210
Combo4 : 106,223,200
SliderBoarder : 255,255,255

[HitObjects]
96,192,100,1,2
160,288,309,2,0,B|168:264|192:256,1,45
240,284,517,2,0,B|324:208,1,90,8|0
316,108,934,1,2
300,124,1038,1,0
284,140,1142,1,0
172,100,1351,2,0,B|52:100,1,90,8|0
52,272,1767,5,2
160,228,1976,1,0
224,132,2184,1,8
224,132,2288,1,0
324,192,2496,1,0
324,192,2601,1,2
348,76,2809,1,0
364,60,2913,1,0
380,44,3017,1,8
368,276,3434,6,0,B|312:296|268:272|268:272|244:316,1,135,2|0
236,316,3851,2,0,B|96:316,1,135,8|0
84,300,4267,1,2
68,284,4371,1,0
52,268,4476,1,0
44,152,4684,1,8
128,72,4892,1,0
204,228,5101,6,0,B|256:232|296:180,1,90,2|0
228,72,5517,2,0,B|176:68|136:120,1,90,2|0
288,120,5934,6,0,B|332:88|392:104,1,90,2|0
416,236,6351,2,0,B|372:268|312:252,1,90,2|0
208,204,6767,5,4
120,104,6976,1,0
108,124,7080,1,0
100,144,7184,2,0,B|88:204|128:244,1,90,8|0
164,348,7601,2,0,B|212:336|240:280,1,90
248,276,7913,1,0
268,264,8017,2,0,B|312:240|372:264,1,90,8|0
448,108,8434,5,0
348,164,8642,2,0,B|248:144|224:32,1,180,0|0
124,100,9267,1,0
104,112,9371,1,0
92,132,9476,1,0
88,156,9580,1,0
92,180,9684,2,0,B|176:252,1,90,8|0
236,328,10101,6,0,B|228:256|292:200,1,135
308,208,10517,2,0,B|268:104,1,90,8|0
384,80,10934,2,0,B|372:28|316:8,1,90
308,16,11246,1,0
288,24,11350,1,8
180,68,11559,6,0,B|100:132|152:240,1,180
188,340,12184,2,0,B|244:324|276:280,1,90,8|0
268,272,12496,1,0
264,248,12600,2,0,B|272:196|332:168,1,90
368,72,13017,2,0,B|256:72,1,90,8|0
116,136,13434,6,0,B|176:136|176:136|208:160|192:208,1,135,4|0
176,216,13850,2,0,B|212:320,1,90,8|0
272,224,14267,2,0,B|308:328,1,90
324,312,14580,1,0
348,312,14684,2,0,B|396:300|428:248,1,90,8|0
324,112,15100,6,0,B|248:112|208:184,1,135
192,184,15517,2,0,B|108:104,1,90,8|0
124,240,15934,1,0
140,256,16038,1,0
156,272,16142,1,0
172,288,16246,1,0
188,304,16350,2,0,B|304:304,1,90,8|0
400,360,16767,6,0,B|428:308|404:264|404:264|436:232|424:184,1,180,0|8
324,100,17392,1,0
212,24,17600,2,0,B|184:76|208:120|208:120|176:152|188:200,1,180,0|8
284,288,18225,1,0
400,360,18434,6,0,B|444:332,1,45,2|0
376,224,18851,2,0,B|420:196,1,45,2|0
348,84,19267,2,0,B|400:48|400:48|436:48,1,90,2|0
476,128,19892,5,0
476,128,19996,1,0
476,128,20101,2,0,B|460:192|388:208,1,107.999996704102,4|0
288,152,20517,1,2
216,60,20726,1,0
100,76,20934,2,0,B|52:112|48:176,1,107.999996704102
24,204,21246,2,0,B|84:200|132:232,1,107.999996704102,2|0
132,272,21559,6,0,B|220:372,1,107.999996704102
204,224,21976,2,0,B|292:324,1,107.999996704102,0|2
276,172,22392,2,0,B|364:272,1,107.999996704102
348,124,22809,2,0,B|436:224,1,107.999996704102,0|2
416,76,23226,1,0
384,48,23330,1,0
344,36,23434,6,0,B|228:36,1,107.999996704102
132,96,23851,1,2
84,204,24059,1,0
84,204,24163,1,2
112,320,24371,1,0
112,320,24476,1,0
220,364,24684,5,0
204,324,24788,1,0
204,280,24892,1,0
220,240,24996,1,0
248,208,25101,2,0,B|336:116,1,107.999996704102,2|0
420,60,25517,5,2
304,32,25726,1,0
304,32,25830,1,2
188,56,26038,1,0
188,56,26142,1,0
120,156,26351,2,0,B|92:160|72:176,1,53.9999983520508,2|0
60,268,26559,2,0,B|96:268|116:248,1,53.9999983520508
192,208,26767,6,0,B|320:208,1,107.999996704102,4|0
424,304,27184,2,0,B|316:304,1,107.999996704102,2|0
444,132,27601,5,8
368,208,27809,1,8
444,132,28017,1,8
244,52,28226,5,0
284,68,28330,1,0
308,104,28434,2,0,B|296:160|232:188,1,107.999996704102,2|0
52,288,28851,1,10
132,212,29059,1,8
172,368,29267,5,2
208,264,29476,1,0
340,368,29684,1,2
304,264,29892,1,0
380,212,30101,6,0,B|476:304,1,107.999996704102
468,244,30413,2,0,B|390:169,1,107.999996704102,2|0
404,128,30726,1,0
284,16,30934,2,0,B|160:16,1,107.999996704102,2|0
156,56,31246,2,0,B|280:56,1,107.999996704102,2|0
276,96,31559,1,0
264,136,31663,1,0
240,172,31767,5,2
164,260,31976,1,0
164,260,32080,2,0,B|196:320|268:328,1,107.999996704102,8|0
280,372,32392,2,0,B|296:304|360:288,1,107.999996704102,0|8
448,148,32809,1,0
464,264,33017,2,0,B|424:216|352:216,1,107.999996704102,8|0
288,132,33434,5,2
272,112,33538,1,0
256,92,33642,1,0
240,72,33746,1,0
224,52,33851,1,8
180,144,34059,2,0,B|260:236,1,107.999996704102,0|8
136,232,34476,2,0,B|65:150,2,107.999996704102,0|8|0
56,280,35101,5,0
72,300,35205,1,0
88,320,35309,1,0
104,340,35413,1,0
120,360,35517,1,8
216,292,35726,2,0,B|248:244|224:172,1,107.999996704102,0|8
196,76,36142,1,0
312,96,36351,1,8
340,100,36455,1,0
364,116,36559,1,0
380,140,36663,1,0
380,168,36767,6,0,B|400:220,2,53.9999983520508,2|0|0
256,192,37184,1,8
256,192,37601,5,8
248,216,37705,1,0
232,240,37809,1,0
208,256,37913,1,0
180,260,38017,2,0,B|176:124|32:96,1,215.999993408203,8|2
48,128,38538,1,0
44,156,38642,1,0
52,184,38746,1,0
68,204,38851,1,8
188,132,39059,6,0,B|224:92,1,53.9999983520508
248,84,39267,1,8
276,88,39371,1,0
300,104,39476,1,0
316,128,39580,1,0
320,156,39684,2,0,B|268:200|276:276,1,107.999996704102,8|0
396,348,40100,6,0,B|456:312|440:224,1,107.999996704102,2|0
408,144,40517,1,8
308,80,40725,2,0,B|256:40|180:56|180:56|184:96|136:128,1,215.999993408203
64,216,41350,1,8
64,216,41767,5,2
84,236,41871,1,0
104,256,41975,1,0
124,276,42080,1,0
144,296,42184,1,8
256,256,42392,1,0
300,148,42600,5,8
300,148,42809,1,0
396,76,43017,1,8
396,76,43121,1,0
424,192,43330,5,0
436,216,43434,2,0,B|404:244|400:280,3,53.9999983520508,2|0|0|8
228,232,44059,2,0,B|224:272|240:300,1,53.9999983520508
224,312,44267,2,0,B|164:308|128:228,1,107.999996704102,8|0
136,224,44580,1,0
132,196,44684,2,0,B|116:140|56:120,1,107.999996704102,8|0
208,20,45100,6,0,B|320:20|320:20|324:52|292:76,1,161.999995056153,2|0
304,92,45517,2,0,B|304:216,1,107.999996704102,8|0
388,284,45934,1,8
372,304,46038,1,0
348,316,46142,1,0
320,320,46246,1,0
292,316,46350,2,0,B|272:296|236:292,2,53.9999983520508,8|0|0
256,192,46767,5,2
256,192,46975,1,0
80,148,47184,1,0
204,20,47392,1,0
256,192,47600,2,0,B|284:248|348:240|348:240|372:224,1,135,0|0
388,216,48017,2,0,B|388:112,1,90,0|0
256,192,48434,5,0
256,192,48642,1,0
80,224,48850,1,0
196,360,49059,1,0
256,192,49267,2,0,B|216:160|224:96,1,90
332,24,49684,2,0,B|360:76|324:136,1,90
340,292,50100,5,2
340,292,50205,1,0
340,292,50309,2,0,B|232:292,1,90
136,236,50725,1,0
136,236,50934,1,0
84,64,51142,1,0
260,104,51350,1,0
136,236,51559,1,0
184,64,51767,6,0,B|216:20|276:24,1,90
332,144,52184,2,0,B|300:188|240:184,1,90,0|0
128,148,52600,1,0
128,148,52809,1,0
68,316,53017,1,0
244,284,53225,1,0
128,148,53434,5,2
140,128,53538,1,0
150,108,53642,2,0,B|240:108,1,90
308,56,54059,1,0
420,200,54267,5,0
408,180,54371,1,0
398,160,54475,2,0,B|308:160,1,90
240,108,54892,1,0
128,252,55100,5,0
140,232,55205,1,0
150,212,55309,2,0,B|240:212,1,90
308,160,55725,1,0
420,304,55934,5,0
408,284,56038,1,0
398,264,56142,2,0,B|308:264,1,90
240,212,56559,1,0
256,80,56767,2,0,B|256:20,2,45,2|0|0
240,212,57184,1,0
152,312,57392,5,0
230,194,57600,1,0
97,203,57809,1,0
236,176,58017,1,0
136,87,58225,1,0
253,166,58434,1,0
244,33,58642,1,0
272,172,58850,1,0
360,72,59059,1,0
412,196,59267,5,0
172,320,59580,1,0
184,52,59892,1,0
412,196,60100,6,0,B|360:180|340:128,1,90,4|0
324,128,60413,1,0
304,116,60517,2,0,B|252:112|212:152,1,90
80,208,60934,2,0,B|184:208,1,90,0|0
296,280,61350,2,0,B|206:280,1,90,0|0
228,148,61767,6,0,B|216:96|252:48,1,90,0|0
260,48,62080,1,0
280,40,62184,2,0,B|336:44|368:92,1,90,0|0
440,188,62600,1,0
420,196,62705,1,0
396,196,62809,1,0
372,192,62913,1,0
352,184,63017,2,0,B|360:240|324:280,1,90
232,328,63434,5,4
232,328,63642,2,0,B|188:280,1,45
184,280,63850,2,0,B|152:320|92:316,1,90
8,212,64267,2,0,B|44:160|120:164|120:164|132:144,1,135
136,136,64684,2,0,B|188:36,1,90
232,160,65100,5,0
192,272,65309,1,0
332,164,65517,1,0
396,64,65725,1,0
368,264,65934,1,0
280,320,66142,1,0
472,264,66350,1,0
480,152,66559,5,0
480,152,66663,1,0
480,152,66767,2,0,B|452:84|360:84,1,135,4|0
340,152,67184,2,0,B|312:216|200:212,1,135
152,168,67600,2,0,B|212:308,1,135
128,304,68017,2,0,B|74:179,1,135
88,104,68434,6,0,B|160:88|192:8,1,135
240,76,68850,2,0,B|228:152|288:220,1,135
252,276,69267,2,0,B|376:176,1,135
416,244,69684,2,0,B|312:328,1,135
240,356,70100,5,4
104,284,70309,1,0
96,132,70517,1,0
204,24,70725,1,0
176,172,70934,5,0
248,264,71142,1,0
364,280,71350,1,0
460,216,71559,1,0
292,164,71767,6,0,B|280:80|340:24,2,135
432,272,72600,1,0
316,276,72809,1,0
316,276,72913,1,0
316,276,73017,2,0,B|220:276,1,90
104,208,73434,6,0,B|56:136|100:44,1,161.999995056153,4|0
172,84,73850,2,0,B|192:136|268:152,1,107.999996704102,8|0
364,64,74267,1,0
253,148,74475,1,0
364,64,74684,1,8
380,204,74892,1,0
368,228,74996,1,0
352,248,75100,6,0,B|288:264|216:224,1,107.999996704102
192,60,75517,2,0,B|256:52|300:92,2,107.999996704102,8|0|0
88,152,76142,1,0
96,180,76246,1,0
112,204,76350,2,0,B|168:232|232:200,1,107.999996704102,8|0
288,328,76767,6,0,B|376:284|372:168,1,161.999995056153,4|0
320,132,77184,2,0,B|324:72|388:28,1,107.999996704102,8|0
464,148,77600,1,0
371,40,77809,1,0
464,148,78017,1,8
344,220,78226,2,0,B|280:204,1,53.9999983520508
268,196,78434,6,0,B|244:116|132:96,1,161.999995056153
92,156,78851,2,0,B|100:248|36:312,1,161.999995056153,8|0
116,344,79267,2,0,B|272:268,1,161.999995056153
316,332,79684,2,0,B|204:388,1,107.999996704102,8|0
168,224,80101,6,0,B|172:128|276:80,1,161.999995056153,4|0
308,148,80517,2,0,B|356:184|424:168,2,107.999996704102,8|0|0
448,64,81142,2,0,B|404:28|332:40,2,107.999996704102,0|8|0
460,88,81663,1,0
460,116,81767,6,0,B|416:232,1,107.999996704102
296,280,82184,2,0,B|334:179,1,107.999996704102,8|0
272,52,82601,2,0,B|228:168,1,107.999996704102
108,216,83017,2,0,B|146:115,1,107.999996704102,8|0
160,92,83330,1,0
184,80,83434,6,0,B|284:52|352:128,1,161.999995056153,4|0
316,192,83851,2,0,B|264:224|192:208,1,107.999996704102,8|0
92,140,84267,1,0
212,211,84476,1,0
92,140,84684,2,0,B|28:256,1,107.999996704102,8|0
52,260,84996,1,0
72,280,85101,6,0,B|168:276|220:344,1,161.999995056153
296,312,85517,2,0,B|255:233|168:208,1,161.999995056153,8|0
148,128,85933,2,0,B|232:120|308:192,1,161.999995056153
384,164,86351,2,0,B|340:88|256:60,1,161.999995056153,8|0
176,36,86767,5,4
176,36,86976,1,0
64,340,87392,1,2
64,340,87601,1,0
388,348,88017,1,8
388,348,88226,1,0
500,44,88642,5,0
500,44,88851,1,8
256,192,89267,1,2
256,192,89476,1,0
256,192,89892,1,0
152,68,90101,6,0,B|172:48|204:48,2,53.9999983520508,4|0|0
168,148,90413,2,0,B|140:212|60:232,1,107.999996704102
92,220,90726,1,0
36,280,90934,6,0,B|112:372,1,107.999996704102,8|8
268,352,91351,1,2
268,352,91559,1,0
304,180,91767,5,4
392,280,91976,1,0
404,260,92080,1,0
412,240,92184,2,0,B|424:180|384:140,1,90,8|0
348,36,92601,2,0,B|300:48|272:104,1,90
264,108,92913,1,0
244,120,93017,2,0,B|200:144|140:120,1,90,8|0
64,276,93434,5,0
164,220,93642,2,0,B|264:240|288:352,1,180,8|0
388,284,94267,1,0
408,272,94371,1,0
420,252,94476,1,0
424,228,94580,1,0
420,204,94684,2,0,B|336:132,1,90,8|0
276,56,95101,6,0,B|284:128|220:184,1,135
204,176,95517,2,0,B|244:280,1,90,8|0
128,304,95934,2,0,B|140:356|196:376,1,90
204,368,96246,1,0
224,360,96351,1,8
332,316,96559,6,0,B|412:252|360:144,1,180
324,44,97184,2,0,B|268:60|236:104,1,90,8|0
244,112,97496,1,0
248,136,97601,2,0,B|240:188|180:216,1,90
144,312,98017,2,0,B|256:312,1,90,8|0
396,248,98434,6,0,B|336:248|336:248|304:224|320:176,1,135,4|0
336,168,98851,2,0,B|300:64,1,90,8|0
240,160,99267,2,0,B|204:56,1,90
188,72,99580,1,0
164,72,99684,2,0,B|116:84|84:136,1,90,8|0
188,272,100101,6,0,B|264:272|304:200,1,135
320,200,100517,2,0,B|404:280,1,90,8|0
388,144,100934,1,0
372,128,101038,1,0
356,112,101142,1,0
340,96,101246,1,0
324,80,101351,2,0,B|208:80,1,90,8|0
112,24,101767,6,0,B|84:76|108:120|108:120|76:152|88:200,1,180,0|8
188,280,102392,2,0,B|216:228|192:184|192:184|224:152|212:104,1,180
112,24,103017,1,8
213,110,103226,6,0,B|260:108|316:64,1,90
344,184,103642,2,0,B|375:149|383:78,1,90,0|8
428,216,104059,1,0
420,236,104163,1,0
404,252,104267,2,0,B|360:280|308:272,1,90
212,352,104684,2,0,B|160:260|228:152,1,180,8|4
256,72,105309,5,0
392,60,105517,1,8
332,180,105726,1,0
272,40,105934,1,0
400,86,106142,1,0
295,170,106351,1,8
308,24,106559,5,0
308,24,106663,1,0
308,24,106767,2,0,B|316:76|288:116,1,90
184,200,107184,2,0,B|172:148|204:100,1,90,8|0
296,212,107601,2,0,B|288:256|240:288,1,90
224,292,107913,1,0
200,296,108017,2,0,B|112:256|4:304,1,180,8|4
40,180,108642,5,0
132,84,108851,1,8
172,212,109059,1,0
37,147,109267,1,0
161,99,109476,1,0
144,232,109684,1,8
40,108,109892,5,0
40,108,109996,1,0
40,108,110101,2,0,B|72:148|128:152,1,90
208,92,110517,1,8
256,248,110726,1,0
304,92,110934,1,0
395,150,111142,1,0
395,150,111246,1,0
395,150,111351,2,0,B|420:104|484:92|484:92|496:136|476:180,1,180,8|4
420,252,111976,5,0
348,364,112184,1,8
284,244,112392,1,0
428,284,112601,1,0
315,355,112809,1,0
308,219,113017,1,8
420,320,113226,5,0
420,320,113330,1,0
420,320,113434,2,0,B|368:308|352:248,1,90
348,108,113851,2,0,B|388:128|404:188,1,90,8|0
248,160,114267,2,0,B|204:132|196:68,1,90
180,80,114580,1,0
160,72,114684,2,0,B|84:160,1,90,8|0
108,160,114996,1,0
112,184,115101,6,0,B|108:252|32:304,1,135,4|0
108,340,115517,2,0,B|208:272,1,90,8|0
204,296,115830,1,0
224,304,115934,2,0,B|312:296|336:208,2,135,0|8|0
256,132,116767,1,0
256,192,116871,12,4,118434
