osu file format v9

[General]
AudioFilename: Dramatical Mp3.mp3
AudioLeadIn: 2500
PreviewTime: 91350
Countdown: 0
SampleSet: Normal
StackLeniency: 0.7
Mode: 0
LetterboxInBreaks: 0

[Editor]
DistanceSpacing: 1.3
BeatDivisor: 4
GridSize: 8

[Metadata]
Title:AI CATCH (Short Ver.)
Artist:GOATBED
Creator:Konei
Version:Insane
Source:DRAMAtical Murder
Tags:DMMD yaoi game visual novel boys love Nitro+Chiral opening Doraton tutuhaha nanda2009

[Difficulty]
HPDrainRate:7
CircleSize:4
OverallDifficulty:7
ApproachRate:8
SliderMultiplier:1.8
SliderTickRate:1

[Events]
//Background and Video events
Video,-2100,"Dramatical video.avi"
0,0,"Drama BG 3.jpg"
//Break Periods
//Storyboard Layer 0 (Background)
//Storyboard Layer 1 (Fail)
//Storyboard Layer 2 (Pass)
//Storyboard Layer 3 (Foreground)
//Storyboard Sound Samples
//Background Colour Transformations
3,100,163,162,255

[TimingPoints]
100,416.666666666667,4,2,1,52,1,0
6766,-100,4,1,1,56,0,1
18433,-100,4,1,1,51,0,0
19475,-100,4,1,1,36,0,0
19891,-100,4,1,1,45,0,0
20100,-100,4,2,1,69,0,0
20308,-83.3333333333333,4,2,1,69,0,0
27808,-83.3333333333333,4,2,1,55,0,0
28016,-83.3333333333333,4,2,1,69,0,0
45933,-83.3333333333333,4,2,1,53,0,0
46350,-83.3333333333333,4,2,1,60,0,0
46766,-100,4,2,1,53,0,0
53850,-100,4,1,1,33,0,0
60516,-100,4,1,0,33,0,0
70725,-100,4,1,0,33,0,0
73433,-83.3333333333333,4,2,1,68,0,0
91766,-83.3333333333333,4,1,1,65,0,1
116766,-83.3333333333333,4,2,1,55,0,1
117600,-83.3333333333333,4,2,0,66,0,1
118433,-100,4,2,0,41,0,0

[Colours]
Combo1 : 58,50,218
Combo2 : 58,141,233
Combo3 : 139,32,210
Combo4 : 106,223,200
SliderBoarder : 255,255,255

[HitObjects]
104,184,100,1,2
208,240,308,1,0
328,224,516,1,8
296,112,725,1,0
296,112,829,1,0
296,112,933,1,0
192,56,1141,1,0
72,64,1350,1,8
72,304,1766,5,2
168,240,1975,1,0
288,248,2183,1,8
288,248,2287,1,0
376,328,2495,1,0
376,328,2600,1,0
456,248,2808,1,0
376,160,3016,1,8
296,80,3433,6,0,B|272:40|216:40,1,90
136,104,3850,1,8
136,104,3954,1,0
240,160,4162,1,0
240,160,4266,1,2
240,160,4370,1,0
240,160,4475,1,0
360,160,4683,2,0,B|360:280,1,90,8|0
256,192,5100,12,4,6766
128,200,6975,5,0
184,200,7079,1,0
240,200,7183,2,0,B|288:184|320:144,1,90,8|0
216,88,7600,1,0
96,88,7808,1,0
32,184,8016,5,8
40,240,8120,1,0
72,288,8225,2,0,B|112:328|168:320,2,90
136,192,8850,1,8
208,280,9058,2,0,B|208:232|248:184,1,90
352,200,9475,1,0
312,88,9683,5,8
312,88,9787,1,0
312,88,9891,1,0
312,88,9995,1,0
312,88,10100,2,0,B|228:32|140:92,2,180,4|8|0
312,208,11141,1,0
312,208,11245,1,0
312,208,11350,2,0,B|240:224|184:200,1,90,8|0
112,184,11766,6,0,B|96:280|168:352,1,180,0|8
256,280,12391,1,0
352,344,12600,1,0
400,312,12704,1,0
432,264,12808,1,0
336,192,13016,1,8
224,168,13225,1,0
224,168,13329,1,0
224,168,13433,5,4
112,128,13641,2,0,B|200:64,1,90,0|8
288,24,14058,1,0
352,120,14266,1,0
472,128,14475,1,0
464,248,14683,5,8
464,248,14787,1,0
464,248,14891,1,0
464,248,15100,2,0,B|424:328|336:328,2,135,0|0|0
352,216,15933,1,0
296,200,16037,1,0
240,200,16141,1,0
120,184,16350,1,8
104,304,16558,5,0
224,304,16766,2,0,B|268:336|312:304,2,90,0|0|8
228,188,17391,2,0,B|272:156|316:192,2,90,0|0|0
228,187,17912,2,0,B|160:168|160:80,1,135,0|0
296,72,18433,1,4
408,48,18641,5,0
408,168,18850,2,0,B|408:264,1,90,8|0
312,192,19266,1,0
312,312,19475,1,0
312,312,19579,1,0
312,312,19683,1,0
192,304,19891,1,0
192,304,19995,1,0
192,304,20100,6,0,B|144:288|104:232,1,90,4|0
184,128,20516,2,0,B|240:136|272:200,1,107.999996704102,8|0
392,152,20933,2,0,B|480:144|504:48,2,161.999995056153,0|0|0
464,280,21766,1,0
336,328,21975,1,0
200,288,22183,1,8
80,208,22391,1,0
80,168,22495,1,0
80,128,22600,1,0
216,80,22808,2,0,B|216:200,1,107.999996704102,0|8
352,224,23225,6,0,B|400:200|424:136,1,107.999996704102,0|4
288,112,23641,1,0
288,256,23850,1,8
184,160,24058,2,0,B|72:160,2,107.999996704102
320,184,24683,1,8
448,120,24891,2,0,B|480:168|456:232,1,107.999996704102
360,120,25308,2,0,B|328:72|352:8,1,107.999996704102,0|8
256,120,25725,1,0
288,256,25933,2,0,B|240:288|176:264,1,107.999996704102
153,131,26350,2,0,B|201:99|265:123,1,107.999996704102,8|0
376,192,26766,5,4
464,88,26975,2,0,B|488:136|456:200,1,107.999996704102,0|8
344,288,27391,2,0,B|329:231|377:191,1,107.999996704102
256,272,27808,1,8
256,128,28016,1,8
112,144,28225,5,0
72,272,28433,2,0,B|192:272,1,107.999996704102
364,273,28850,2,0,B|236:273,1,107.999996704102,8|0
68,184,29266,2,0,B|176:184,1,107.999996704102
364,184,29683,2,0,B|256:184,1,107.999996704102,8|0
224,48,30100,6,0,B|280:32|336:48,1,107.999996704102,0|0
432,168,30516,1,8
320,248,30725,2,0,B|376:256|432:240,1,107.999996704102
312,168,31141,1,0
168,168,31350,2,0,B|136:224|160:272,1,107.999996704102,8|0
80,64,31766,5,2
80,64,31870,1,0
80,64,31975,2,0,B|200:64,1,107.999996704102,0|8
328,64,32391,2,0,B|456:64,2,107.999996704102,0|0|0
256,184,33016,1,8
200,312,33225,6,0,B|152:352|152:352|112:328|80:296|16:280,2,215.999993408203
256,184,34266,1,0
200,56,34475,1,0
152,72,34579,1,0
104,88,34683,1,0
8,192,34891,1,0
72,312,35100,6,0,B|120:352|120:352|160:328|192:296|256:280,2,215.999993408203,2|8|0
8,192,36141,1,0
280,128,36558,2,0,B|336:104|392:128,1,107.999996704102
288,232,36975,2,0,B|344:208|400:232,1,107.999996704102,0|8
296,328,37391,6,0,B|248:352|192:344,1,107.999996704102
328,328,37808,2,0,B|376:352|432:344,1,107.999996704102,0|8
440,208,38225,2,0,B|440:96,1,107.999996704102
304,144,38641,6,0,B|304:32,1,107.999996704102,0|8
168,16,39058,2,0,B|184:128,1,107.999996704102
183,123,39370,1,0
183,123,39475,1,0
183,123,39579,1,0
183,123,39683,1,0
312,176,39891,6,0,B|296:232|336:280,1,107.999996704102,0|6
432,176,40308,2,0,B|448:232|416:280,1,107.999996704102,0|8
280,336,40725,2,0,B|200:352|128:288|176:184,1,215.999993408203
176,64,41350,1,8
312,48,41558,2,0,B|384:0|472:56|440:152,2,215.999993408203
288,328,42808,1,0
168,264,43016,5,8
136,232,43120,1,0
112,200,43225,1,0
248,176,43433,2,8,B|168:176,3,53.9999983520508,8|0|8|0
488,320,44266,1,0
392,56,44683,6,0,B|340:24|288:56,1,107.999996704102,8|0
152,56,45100,2,0,B|100:88|48:56,1,107.999996704102,0|0
48,200,45516,2,0,B|100:232|152:200,1,107.999996704102,8|0
256,96,45933,5,8
256,136,46037,1,8
256,176,46141,1,8
256,216,46245,1,8
256,256,46350,1,8
256,296,46454,1,8
256,336,46558,1,8
368,312,46766,6,0,B|408:288|424:240,1,90,4|0
344,168,47183,1,8
344,48,47391,2,0,B|304:24|256:32,1,90
152,80,47808,1,0
56,168,48016,1,8
256,280,48433,6,0,B|256:176,1,90
136,200,48850,2,0,B|168:152|224:152,1,90,8|0
376,200,49266,2,0,B|344:152|288:152,1,90
256,24,49683,2,0,B|256:112,1,90,8|0
368,72,50100,5,4
448,160,50308,1,0
448,280,50516,1,8
328,304,50725,2,0,B|280:328|240:304,1,90
152,232,51141,2,0,B|192:208|240:224,1,90,0|8
56,80,51766,6,0,B|96:104|144:80,1,90
192,192,52183,1,8
288,112,52391,2,0,B|248:136|200:120,1,90
320,112,52808,2,0,B|360:144|416:120,1,90,0|8
328,240,53225,1,0
248,328,53433,5,4
248,328,53537,1,0
248,328,53641,1,0
248,328,53850,2,0,B|152:320|120:216,2,180,8|0|8
312,232,54891,1,0
208,184,55100,2,0,B|224:80|312:40,2,180,0|8|0
88,184,56141,1,0
88,64,56350,1,8
256,224,56766,6,0,B|256:32,1,180,4|8
360,104,57391,2,0,B|360:192,1,90
456,128,57808,2,0,B|456:224,1,90,0|8
456,336,58225,5,0
344,288,58433,2,0,B|232:288,1,90
312,184,58850,2,0,B|208:184,1,90,8|0
160,280,59266,5,0
24,168,59579,1,0
184,88,59891,1,0
304,104,60100,5,4
304,104,60204,1,0
304,104,60308,1,0
304,104,60412,1,0
304,104,60516,2,0,B|368:168,1,90,8|0
360,288,60933,1,0
240,288,61141,2,0,B|192:296|152:264,1,90,0|8
80,168,61558,1,0
160,80,61766,6,0,B|200:104|208:152,1,90,0|0
320,168,62183,1,8
440,176,62391,2,0,B|456:136|432:88,2,90
440,296,63016,1,8
320,296,63225,2,0,B|208:296,1,90,0|4
128,240,63641,1,0
128,120,63850,1,8
224,184,64058,5,0
224,184,64162,1,0
224,184,64266,2,0,B|312:152|400:184,1,180,0|8
440,80,64891,2,0,B|400:56|352:72,1,90,0|0
232,64,65308,1,0
112,64,65516,2,0,B|80:104|88:152,1,90,8|0
88,264,65933,1,0
88,264,66037,1,0
88,264,66141,2,0,B|112:312|160:312,2,90,0|8|8
192,208,66766,6,0,B|376:208,1,180,4|8
320,104,67391,1,0
320,104,67600,2,0,B|248:176|296:272,1,180,0|8
448,272,68225,1,0
448,272,68433,2,0,B|520:192|480:104,1,180,0|8
392,184,69058,2,0,B|352:264,1,90
240,240,69475,1,0
120,240,69683,2,0,B|88:200|112:152,1,90,8|0
208,88,70100,5,4
208,88,70204,1,0
208,88,70308,1,0
328,88,70516,2,0,B|360:112|392:104|392:104|392:144,1,90,8|0
392,240,70933,1,0
272,240,71141,2,0,B|272:344,1,90,0|8
168,240,71558,1,0
256,192,71766,12,4,73433
64,112,73641,5,0
88,152,73745,1,0
104,184,73850,1,12
248,192,74058,2,0,B|264:256|312:272,2,107.999996704102,0|4|0
360,104,74683,1,8
328,80,74787,1,0
304,56,74891,1,0
368,184,75100,5,0
368,184,75308,2,0,B|368:240|368:240|328:256|256:352,1,215.999993408203
128,296,75933,1,0
80,160,76141,1,0
208,96,76350,2,0,B|224:40|280:24,1,107.999996704102,8|0
416,40,76766,5,4
416,40,76870,1,0
416,40,76975,1,0
416,40,77183,2,0,B|480:88|464:192|376:208,1,215.999993408203,12|4
256,144,77808,1,0
328,264,78016,1,8
296,280,78120,1,0
256,288,78225,1,0
96,312,78433,6,0,B|64:272|88:208,1,107.999996704102
184,64,78850,2,0,B|216:104|192:168,1,107.999996704102
88,210,79266,2,0,B|56:170|80:106,1,107.999996704102
184,64,79683,2,0,B|224:32|288:56,1,107.999996704102
392,144,80100,5,4
392,144,80204,1,0
392,144,80308,2,0,B|392:272,1,107.999996704102,0|12
296,352,80725,1,0
216,240,80933,1,4
144,120,81141,1,0
136,80,81245,1,0
128,40,81350,1,8
56,160,81558,1,0
104,296,81766,6,0,B|152:256|208:272,1,107.999996704102
256,152,82183,1,8
320,280,82391,2,0,B|368:312|432:288,1,107.999996704102
384,160,82808,1,0
320,32,83016,1,8
280,48,83120,1,0
240,64,83225,1,0
112,128,83433,5,4
112,128,83537,1,0
112,128,83641,2,0,B|120:192|176:216,1,107.999996704102,0|4
296,272,84058,1,0
328,136,84266,1,4
384,264,84475,1,0
264,192,84683,1,8
400,176,84891,1,0
480,40,85100,6,0,B|432:40|432:40|408:24|376:24,1,107.999996704102
144,184,85516,2,0,B|96:184|96:184|72:200|8:200,1,107.999996704102,8|0
24,40,85933,2,0,B|72:40|72:40|96:24|160:24,1,107.999996704102
368,184,86350,2,0,B|416:184|416:184|440:200|504:200,1,107.999996704102,8|0
448,336,86766,5,4
448,336,86870,1,0
448,336,86975,2,0,B|352:336|296:312,1,107.999996704102,0|8
200,312,87391,1,4
200,312,87495,1,0
200,312,87600,2,0,B|184:256|208:208,1,107.999996704102
232,72,88016,5,12
232,72,88120,1,0
232,72,88225,2,0,B|264:120|256:176,1,107.999996704102
312,184,88537,1,0
312,184,88641,2,0,B|344:232|336:288,1,107.999996704102,4|4
192,288,89058,1,0
192,288,89162,1,0
192,288,89266,2,0,B|160:240|168:184,1,107.999996704102,4|4
256,192,90100,12,4,91766
168,200,91975,6,0,B|192:256|248:280,1,107.999996704102,0|8
384,272,92391,1,0
392,128,92600,2,0,B|352:88|288:96,1,107.999996704102
152,80,93016,2,0,B|168:136|224:160,1,107.999996704102,8|0
224,296,93433,5,0
224,296,93537,1,0
224,296,93641,1,0
224,296,93850,2,0,B|168:304|112:272,1,107.999996704102,8|0
232,184,94266,1,0
376,192,94475,1,0
312,64,94683,5,8
264,72,94787,1,0
216,80,94891,1,0
80,104,95100,2,0,B|24:208|64:320,2,215.999993408203,0|8|0
216,80,96141,2,0,B|240:128|224:184,1,107.999996704102,0|8
360,128,96558,2,0,B|400:168|400:224,1,107.999996704102
264,280,96975,5,0
128,240,97183,1,8
24,144,97391,2,0,B|128:96,1,107.999996704102
128,240,97808,2,0,B|24:296,1,107.999996704102,0|8
128,240,98225,1,0
216,136,98433,5,4
216,136,98537,1,0
216,136,98641,2,0,B|280:168|256:240,1,107.999996704102,0|8
400,216,99058,2,0,B|384:280|424:320,1,107.999996704102
280,320,99475,2,0,B|160:320,1,107.999996704102,0|8
176,176,99891,2,0,B|296:176,1,107.999996704102
280,32,100308,1,0
392,112,100516,2,0,B|456:104|472:48,1,107.999996704102,8|0
392,112,100933,1,0
320,232,101141,1,0
224,336,101350,5,8
224,336,101454,1,0
224,336,101558,2,0,B|176:312|184:240,1,107.999996704102
256,120,101975,1,0
384,168,102183,2,0,B|440:192|448:248,1,107.999996704102,8|0
384,168,102600,1,0
256,232,102808,1,0
256,232,102912,1,0
256,232,103016,2,0,B|192:232|192:232|184:248|152:304|56:288,1,215.999993408203,8|0
96,152,103641,1,0
240,152,103850,6,0,B|200:112|224:48,1,107.999996704102,8|0
320,152,104266,2,0,B|360:112|336:48,1,107.999996704102,0|0
184,16,104683,2,0,B|144:64|160:128,1,107.999996704102,8|0
168,256,105100,2,0,B|216:232|248:224|248:224|304:224|376:280,1,215.999993408203,4|8
464,168,105725,1,0
464,120,105829,1,0
464,72,105933,1,0
328,88,106141,1,0
192,104,106350,5,8
192,104,106454,1,0
192,104,106558,2,0,B|144:72|88:64|88:64|56:88|40:160,1,215.999993408203
160,224,107183,2,0,B|184:272|248:288,1,107.999996704102,8|0
376,232,107600,2,0,B|352:184|288:160,1,107.999996704102
320,304,108016,2,0,B|344:352|408:368,1,107.999996704102,8|0
456,232,108433,5,0
456,232,108537,1,0
456,232,108641,2,0,B|444:108|312:88,1,215.999993408203
248,208,109266,2,0,B|192:184|192:120,1,107.999996704102
56,96,109683,1,8
192,48,109891,2,0,B|248:48|296:32|296:32|344:48|424:48,1,215.999993408203
376,184,110516,1,8
256,264,110725,1,0
256,120,110933,5,0
256,120,111037,1,0
256,120,111141,2,0,B|288:72|264:16,1,107.999996704102,0|8
152,96,111558,2,0,B|160:160|216:176,2,107.999996704102,0|4|0
104,232,112183,1,8
200,336,112391,1,0
344,336,112600,1,0
416,216,112808,2,0,B|368:184|312:200,2,107.999996704102,0|8|0
480,336,113433,5,0
360,272,113641,1,0
256,184,113850,1,8
152,88,114058,1,0
152,88,114162,1,0
152,88,114266,2,0,B|120:136|136:200,1,107.999996704102
158,294,114683,2,0,B|126:254|134:190,1,107.999996704102,8|0
256,291,115100,6,0,B|256:179,1,107.999996704102,0|0
364,183,115516,2,0,B|244:183,1,107.999996704102,8|0
256,76,115933,2,0,B|256:188,1,107.999996704102
148,184,116350,2,0,B|260:184,1,107.999996704102,8|0
152,280,116766,5,0
152,280,116870,1,0
152,280,116975,1,0
152,280,117079,1,0
153,280,117183,2,0,B|97:256|81:200,1,107.999996704102,0|0
72,168,117495,5,0
80,128,117600,1,0
104,96,117704,1,0
128,72,117808,1,0
160,48,117912,1,0
192,32,118016,1,0
232,24,118120,1,0
272,24,118225,1,0
256,136,118433,5,4
