osu file format v9

[General]
AudioFilename: Dramatical Mp3.mp3
AudioLeadIn: 2500
PreviewTime: 91350
Countdown: 0
SampleSet: Normal
StackLeniency: 0.7
Mode: 0
LetterboxInBreaks: 0

[Editor]
DistanceSpacing: 1.2
BeatDivisor: 2
GridSize: 8

[Metadata]
Title:AI CATCH (Short Ver.)
Artist:GOATBED
Creator:Konei
Version:Hard
Source:DRAMAtical Murder
Tags:DMMD yaoi game visual novel boys love Nitro+Chiral opening Doraton tutuhaha nanda2009

[Difficulty]
HPDrainRate:6
CircleSize:4
OverallDifficulty:6
ApproachRate:7
SliderMultiplier:1.5
SliderTickRate:1

[Events]
//Background and Video events
Video,-2100,"Dramatical video.avi"
0,0,"Drama BG 2.jpg"
//Break Periods
//Storyboard Layer 0 (Background)
//Storyboard Layer 1 (Fail)
//Storyboard Layer 2 (Pass)
//Storyboard Layer 3 (Foreground)
//Storyboard Sound Samples
//Background Colour Transformations
3,100,163,162,255

[TimingPoints]
100,416.666666666667,4,2,1,60,1,0
6766,-100,4,1,1,56,0,1
18433,-100,4,1,1,51,0,0
20100,-100,4,2,1,69,0,0
27808,-100,4,2,0,45,0,0
28225,-100,4,2,1,69,0,0
28850,-100,4,2,0,45,0,0
29266,-100,4,2,1,69,0,0
32808,-90.9090909090909,4,2,1,69,0,0
37391,-90.9090909090909,4,2,1,50,0,0
38225,-90.9090909090909,4,2,1,69,0,0
43433,-90.9090909090909,4,2,1,50,0,0
44058,-90.9090909090909,4,2,1,69,0,0
45725,-90.9090909090909,4,2,1,50,0,0
46766,-100,4,2,1,53,0,0
47808,-125,4,2,1,53,0,0
53433,-125,4,1,1,25,0,0
60100,-125,4,1,0,25,0,0
73433,-90.9090909090909,4,2,1,45,0,0
88641,-90.9090909090909,4,2,1,55,0,0
91766,-90.9090909090909,4,1,1,57,0,1
115516,-90.9090909090909,4,1,1,47,0,1
115933,-90.9090909090909,4,1,1,37,0,1
118433,-100,4,2,0,41,0,0

[Colours]
Combo1 : 58,50,218
Combo2 : 58,141,233
Combo3 : 139,32,210
Combo4 : 106,223,200
SliderBoarder : 255,255,255

[HitObjects]
144,192,100,1,2
144,192,308,1,0
232,192,516,2,0,B|328:192,2,75,8|0|0
188,112,1141,1,0
280,112,1350,1,8
384,264,1766,6,0,B|384:352,2,75,0|0|8
384,176,2391,2,0,B|384:128,2,37.5
296,208,2808,2,0,B|200:208,1,75,0|8
104,344,3433,5,2
96,256,3641,1,0
112,216,3745,1,0
136,176,3850,1,8
224,152,4058,1,0
224,240,4266,1,0
224,240,4370,1,0
224,240,4475,1,0
304,208,4683,2,0,B|352:144,1,75,8|0
256,192,5100,12,4,6766
256,192,7183,6,0,B|312:248|400:232,1,150,8|0
352,152,7808,1,0
256,192,8016,2,0,B|200:136|112:152,1,150,8|0
160,232,8641,1,0
80,280,8850,2,0,B|136:336|224:320,1,150,8|0
218,320,9475,1,0
304,320,9683,5,8
304,320,9787,1,0
304,320,9891,1,0
376,264,10100,2,0,B|432:208|416:120,1,150,4|8
336,168,10725,1,0
296,88,10933,2,0,B|240:144|256:232,1,150,0|8
208,304,11558,2,0,B|290:319|346:263,1,150
416,320,12183,5,8
416,232,12391,1,0
448,152,12600,2,0,B|472:120|464:80,1,75
376,72,13016,2,0,B|352:104|360:144,1,75,8|0
360,143,13329,1,4
360,143,13433,1,0
272,160,13641,6,0,B|192:152|144:80,1,150
80,176,14266,2,0,B|160:184|208:256,1,150,0|8
296,248,14891,1,0
384,264,15100,2,0,B|424:264|456:296,1,75
448,200,15516,2,0,B|408:200|376:168,1,75,8|0
408,88,15933,2,0,B|448:88|480:120,1,75
476,116,16350,1,8
448,200,16558,5,0
448,288,16766,2,0,B|408:304|368:296,1,75
288,304,17183,2,0,B|272:264|280:224,1,75,8|0
280,144,17600,2,0,B|320:128|360:136,1,75
440,144,18016,2,0,B|456:184|448:224,1,75,8|0
256,192,18433,12,4,20100
192,88,20516,5,8
120,144,20725,1,0
104,232,20933,2,0,B|176:264,1,75
264,280,21350,2,0,B|320:224,1,75,8|0
240,184,21766,6,0,B|240:144|264:112,1,75,0|0
352,120,22183,2,0,B|352:80|328:48,1,75,8|0
416,40,22600,2,0,B|408:80|440:112,1,75
376,184,23016,1,8
296,152,23225,2,0,B|264:128|216:120,1,75,0|4
152,168,23641,5,0
88,232,23850,1,8
136,312,24058,1,0
224,296,24266,1,0
232,208,24475,1,0
320,208,24683,2,0,B|320:312,1,75,8|0
408,280,25100,2,0,B|464:264|464:264|480:224|440:176,2,150,0|8|0
424,368,26141,1,0
344,320,26350,5,8
344,320,26558,1,0
344,320,26766,2,0,B|264:304|240:224,2,150,4|8|8
392,240,27808,1,8
392,240,28016,1,8
320,176,28225,1,0
320,176,28433,6,0,B|264:108|320:31,1,150,0|8
376,104,29058,1,8
432,32,29266,2,0,B|488:100|432:177,1,150,0|8
376,104,29891,1,0
376,104,30100,22,0,B|264:224,1,150,0|8
248,128,30725,1,0
216,48,30933,2,0,B|104:168,1,150,0|8
152,240,31558,1,0
240,216,31766,6,0,B|320:216,2,75,2|0|0
152,240,32391,2,0,B|64:240,2,75,0|2|0
176,336,33016,1,0
272,304,33225,1,0
280,208,33433,6,0,B|304:152|272:88|216:80,2,165.000005035401,0|8|0
216,280,34475,1,0
152,209,34683,2,0,B|128:153|160:89|216:81,2,165.000005035401,8|0|8
56,200,35725,1,0
56,296,35933,1,0
128,360,36141,2,0,B|224:360,1,82.5000025177003,0|8
192,264,36558,2,0,B|288:264,1,82.4999975413085,0|4
256,56,37183,1,8
256,56,37600,6,0,B|352:56,2,82.5000025177003,0|0|8
288,248,38433,2,0,B|216:248,3,41.2499987706542
192,112,39058,2,0,B|104:152,2,82.4999975413085
288,112,39683,2,0,B|368:152,1,82.4999975413085,8|0
456,112,40100,6,0,B|504:192|432:264,2,165.000005035401,6|8|0
360,104,41141,1,0
264,112,41350,2,0,B|216:192|288:264,2,165.000005035401,8|0|8
168,136,42391,1,0
168,232,42600,1,0
216,320,42808,1,0
120,328,43016,2,0,B|56:272,1,82.4999975413085,8|0
56,176,43433,2,0,B|112:176,3,41.2499987706542,6|0|0|0
56,176,44266,1,8
232,264,44683,6,0,B|208:328|128:328|104:256,1,165.000005035401,8|4
56,176,45308,1,0
136,120,45516,1,8
232,152,45725,1,0
328,152,45933,2,0,B|328:208,6,41.2499987706542,0|0|0|0|8|0|0
416,120,46766,6,0,B|408:72|360:64,1,75,6|0
280,64,47183,1,8
192,64,47391,1,0
104,64,47600,2,0,B|24:80|8:168,1,150,0|8
144,208,48433,6,0,B|224:208,3,60,0|0|8|0
256,160,49266,2,0,B|336:160,3,60,0|0|8|0
312,88,50100,2,0,B|352:88,4,30,0|0|0|0|8
240,88,50725,5,0
184,136,50934,1,0
240,184,51142,1,0
296,136,51350,1,8
440,104,51766,6,0,B|472:120|472:176,1,60
408,192,52183,1,8
368,256,52391,2,0,B|400:272|408:320,2,60
304,288,53016,2,0,B|280:312|232:288,1,60,8|0
192,248,53433,5,0
72,176,53850,1,0
192,96,54266,1,0
312,176,54683,1,0
192,96,55100,5,0
72,176,55516,1,0
192,248,55933,1,0
312,176,56350,1,0
432,88,56766,6,0,B|372:68|312:88,1,120,4|8
240,104,57391,1,0
192,160,57600,1,0
240,216,57808,1,0
288,160,58016,1,8
280,16,58433,6,0,B|344:40|360:104,2,120,0|8|0
288,128,59579,2,0,B|216:200,1,90
168,240,60100,6,0,B|136:184|72:176,2,120,4|8|0
136,304,61141,1,0
200,336,61350,1,8
344,328,61766,6,0,B|408:368,2,60,0|0|8
296,264,62391,1,0
336,200,62600,2,0,B|392:144,2,60,0|0|8
464,136,63433,6,0,B|432:80|360:80,1,120,0|8
292,72,64058,1,0
220,80,64266,2,0,B|84:112,1,120,0|8
120,248,65100,5,0
160,304,65308,1,0
200,248,65516,1,8
160,192,65725,1,0
232,176,65933,2,0,B|304:136,3,60,0|0|8|8
360,144,66766,6,0,B|360:24,1,120,4|8
216,32,67600,2,0,B|216:160,1,120,0|8
288,280,68433,2,0,B|288:152,1,120,0|8
136,168,69266,2,0,B|136:296,1,120,0|8
288,280,70100,6,0,B|352:304|360:376,2,120,4|8|0
224,248,71141,1,0
288,208,71350,2,0,B|328:144,1,60,8|0
256,192,71766,12,4,73433
176,280,73850,6,0,B|280:280,1,82.4999975413085,4|0
256,184,74266,1,4
352,200,74475,1,0
384,240,74579,1,0
416,280,74683,1,8
464,192,74891,1,0
464,96,75100,6,0,B|400:40|296:64,1,164.999995082617,0|8
208,64,75725,2,0,B|120:112,1,82.5000025177003
64,176,76141,1,0
88,272,76350,5,8
184,272,76558,1,0
208,176,76766,1,4
304,176,76975,2,0,B|344:264,1,82.4999975413085,0|4
432,224,77391,2,0,B|392:144,1,82.4999975413085,0|4
336,80,77808,1,0
288,64,77912,1,0
240,56,78016,1,8
152,96,78225,1,0
120,192,78433,6,0,B|64:296,1,82.4999975413085,0|0
176,248,78850,2,0,B|144:336,1,82.4999975413085,8|0
240,288,79266,2,0,B|240:376,1,82.4999975413085
320,304,79683,2,0,B|344:400,1,82.4999975413085,8|0
408,312,80100,5,4
424,112,80516,1,4
256,208,80933,1,4
192,128,81141,1,0
152,96,81245,1,0
104,80,81350,1,8
56,168,81558,1,0
80,264,81766,6,0,B|96:304|136:328,1,82.5000025177003
168,232,82183,1,8
248,296,82391,1,0
256,208,82600,2,0,B|352:184,1,82.5000025177003
432,160,83016,2,0,B|440:112|408:80,1,82.5000025177003,8|0
312,64,83433,6,0,B|272:40|232:48,1,82.5000025177003,4|0
208,144,83850,2,0,B|168:120|128:128,1,82.5000025177003,4|0
96,224,84266,2,0,B|56:200|16:208,1,82.5000025177003,4|0
48,304,84683,1,8
96,320,84787,1,0
144,336,84891,1,0
240,272,85100,6,0,B|280:240|264:200|264:200|352:200,1,165.000005035401,0|8
496,72,85933,2,0,B|456:104|472:144|472:144|384:144,1,165.000005035401,0|8
256,296,86766,5,4
256,296,86975,1,4
96,184,87391,1,4
96,184,87600,1,4
256,72,88016,1,4
256,72,88225,1,4
416,184,88641,5,4
416,184,88850,1,4
256,192,89266,1,4
256,192,89475,1,4
256,192,90100,12,4,91766
176,240,92183,5,8
272,240,92391,2,0,B|352:288,2,82.4999975413085
288,144,93016,2,0,B|344:72,1,82.4999975413085,8|0
240,64,93433,5,0
144,96,93641,1,0
64,152,93850,2,0,B|96:248,2,82.4999975413085,8|0|0
160,184,94475,1,0
248,144,94683,2,0,B|248:248,1,82.4999975413085,8|0
240,328,95100,5,0
336,296,95308,1,0
400,224,95516,1,8
400,224,95725,2,0,B|472:176|464:80,1,165.000005035401
376,120,96350,1,8
288,72,96558,2,0,B|248:48|208:72,1,82.5000025177003
112,80,96975,5,0
120,176,97183,2,0,B|168:192|192:224,1,82.4999975413085,8|0
88,216,97600,2,0,B|112:256|112:296,1,82.4999975413085
48,216,98016,2,0,B|32:264|0:288,1,82.4999975413085,8|0
80,352,98433,5,4
176,352,98641,1,0
232,264,98850,2,0,B|328:264,1,82.4999975413085,8|0
312,168,99266,1,0
216,168,99475,1,0
120,168,99683,2,0,B|88:144|88:96,1,82.5000025177003,8|0
184,96,100100,5,0
280,80,100308,1,0
376,112,100516,1,8
440,184,100725,2,0,B|480:104|440:24,1,165.000005035401,0|0
376,112,101350,1,8
280,80,101558,1,0
184,56,101766,6,0,B|96:56,1,82.5000025177003
104,152,102183,2,0,B|192:152,1,82.5000025177003,8|0
192,248,102600,2,0,B|168:272|112:296|64:280|40:256,2,165.000005035401,0|8|0
256,320,103641,1,0
328,248,103850,5,8
392,328,104058,1,0
448,248,104266,1,0
392,168,104475,1,0
392,72,104683,2,0,B|296:40,1,82.5000025177003,8|0
216,64,105100,6,0,B|140:42|140:42|92:43|70:85,1,165.000005035401,4|8
152,136,105725,1,0
104,224,105933,1,0
152,312,106141,1,0
248,280,106350,2,0,B|296:256|328:312|328:312|392:288,2,165.000005035401,8|0|8
248,184,107391,6,0,B|264:144|304:128,1,82.4999975413085
216,88,107808,2,0,B|248:56|296:48,1,82.4999975413085,0|8
384,56,108225,1,0
448,128,108433,6,0,B|504:200|448:280,2,165.000005035401,0|8|0
352,160,109475,1,0
320,256,109683,1,8
280,344,109891,1,0
112,232,110308,1,0
200,192,110516,1,8
360,72,110933,6,0,B|320:48|272:76,1,82.5000025177003,0|0
184,80,111350,1,8
88,112,111558,1,0
16,184,111766,2,0,B|-8:240|48:288|16:344,1,165.000005035401,4|8
112,352,112391,1,0
208,352,112600,1,0
160,264,112808,1,0
160,168,113016,6,0,B|248:216,1,82.5000025177003,8|0
328,208,113433,2,0,B|368:200|408:216|408:216|448:136,1,165.000005035401,0|8
400,48,114058,1,0
304,72,114266,1,0
208,72,114475,1,0
112,48,114683,1,8
256,184,115100,6,0,B|256:288,1,82.4999975413085,0|0
160,272,115516,2,0,B|160:176,1,82.4999975413085,8|0
160,88,115933,2,0,B|256:88,1,82.5000025177003,0|0
256,192,116350,12,4,118433
