osu file format v7

[General]
AudioFilename: Atashinchi no Danshi - GIRL NEXT DOOR - Infinity.mp3
AudioLeadIn: 0
PreviewTime: 84234
Countdown: 0
SampleSet: Normal
StackLeniency: 0.7
Mode: 0
LetterboxInBreaks: 1

[Editor]
DistanceSpacing: 0.800000011920929
BeatDivisor: 3
GridSize: 8

[Metadata]
Title:Infinity
Artist:GIRL NEXT DOOR
Creator:haisha_
Version:Normal
Source:Atashinchi No Danshi
Tags:jpop jdrama

[Difficulty]
HPDrainRate:5
CircleSize:4
OverallDifficulty:5
SliderMultiplier:0.9
SliderTickRate:1

[Events]
//Background and Video events
0,0,"Atashinchi-no-Danshi.png"
Video,1474,"Girl Next Door - INFINITY.avi"
//Break Periods
2,117283,129354
2,215255,226918
//Storyboard Layer 0 (Background)
//Storyboard Layer 1 (Fail)
//Storyboard Layer 2 (Pass)
//Storyboard Layer 3 (Foreground)
//Storyboard Sound Samples
//Background Colour Transformations
3,100,255,255,255

[TimingPoints]
17478,408.21880527963,4,1,0,100,1,0
29730,-100,4,1,0,50,0,0
30547,-100,4,1,0,100,0,0
54836,-100,4,2,0,100,0,0
58101,-100,4,1,0,100,0,0
84431,-100,4,1,0,100,0,1
87493,-100,4,2,0,100,0,1
90759,-100,4,1,0,100,0,1
116681,-100,4,1,0,100,0,0
153012,-100,4,2,0,100,0,0
156074,-100,4,1,0,100,0,0
182404,-100,4,1,0,100,0,1
185466,-100,4,2,0,100,0,1
188731,-100,4,1,0,100,0,1
214653,-100,4,1,0,100,0,0
240983,-100,4,1,0,52,0,0

[Colours]
Combo1 : 255,175,55
Combo2 : 40,251,40
Combo3 : 37,216,254
Combo4 : 255,70,163

[HitObjects]
120,160,17477,2,0,B|216:160,2,90
120,160,18498,1,0
120,160,18702,1,8
120,256,19110,1,0
120,256,19519,2,0,B|240:256,1,90
256,256,20131,2,0,B|320:256,1,45,0|8
400,256,20743,6,0,B|400:160,1,90
400,72,21560,2,0,B|272:72,1,90
310,72,22172,1,0
264,72,22376,2,0,B|160:72,1,90
80,72,23193,1,0
80,72,23397,2,8,B|80:152,1,45,0|8
256,208,24009,12,8,25234
256,208,25642,12,8,26867
128,104,27275,5,0
384,104,28091,1,0
256,296,28908,1,0
256,200,29316,1,0
256,104,29724,5,0
256,104,30030,1,0
256,104,30336,1,0
256,208,30541,12,8,31765
88,192,32582,6,0,B|104:136|184:120,1,90
242,128,33398,2,0,B|304:152|296:208,1,90
200,200,34214,2,0,B|96:200,2,90
200,200,35235,1,0
200,200,35439,1,8
296,200,35847,6,0,B|296:280,1,45
296,288,36256,2,0,B|344:336|392:264,1,90
376,240,36868,2,0,B|376:144,2,90
80,96,39113,5,0
128,96,39317,1,0
176,96,39521,2,0,B|232:152|160:192,1,90
136,176,40134,2,0,B|136:288,1,90
232,264,40950,2,0,B|304:296|400:232,1,135,0|8
362,253,41767,1,8
362,253,41971,1,8
360,160,42379,6,0,B|248:160,2,90
256,208,43604,12,0,45236
88,128,45645,5,0
160,72,46053,1,8
232,128,46461,1,0
160,184,46869,2,0,B|160:296,1,90,8|0
200,288,47482,2,0,B|256:320|312:256,1,90
320,256,48094,2,0,B|320:184,1,45,8|0
320,160,48502,1,0
320,64,48910,5,0
320,64,49114,1,0
320,64,49319,2,0,B|208:64,1,90,8|0
184,64,49931,1,0
88,64,50339,1,0
256,208,50747,12,0,51768
224,96,52176,5,0
312,72,52584,1,8
384,128,52993,1,0
384,128,53197,2,0,B|384:248,1,90,0|0
256,208,54013,12,0,55034
96,96,55442,5,0
144,96,55646,2,0,B|208:80|248:128,1,90
296,176,56462,1,2
296,264,56871,1,2
256,208,57279,12,0,58299
256,96,58708,5,0
304,80,58912,1,0
352,96,59116,1,8
368,144,59320,1,0
368,192,59524,1,0
368,192,59728,5,4
256,288,60340,5,0
208,304,60545,1,0
160,288,60749,1,8
144,240,60953,1,0
144,192,61157,1,0
144,192,61361,5,4
256,96,61973,5,0
256,96,62177,1,0
256,96,62382,2,0,B|256:176,3,45,8|0|0|0
256,208,63198,12,8,64831
88,96,65239,6,0,B|120:40|200:88,1,90
200,104,65851,1,0
200,152,66056,1,8
200,200,66260,2,8,B|200:256,1,45,0|0
312,245,66872,6,0,B|312:200,1,45
312,152,67280,1,0
312,104,67484,1,0
336,64,67688,1,8
384,48,67893,2,0,B|480:56|464:152,1,135
464,184,68709,6,0,B|464:216|424:224,1,45,0|8
392,208,69117,2,0,B|352:216|368:256,2,45
256,208,69730,12,0,70954
168,144,71362,6,0,B|96:88,2,90
256,192,72587,1,8
344,144,72995,6,0,B|416:88,2,90
256,192,74220,1,8
256,96,74628,6,0,B|256:-16,2,90
256,192,75853,1,8
256,208,76261,12,0,77486
168,240,77894,6,0,B|96:296,2,90
256,192,79119,1,8
344,240,79527,6,0,B|416:296,2,90
256,192,80751,1,8
256,288,81160,6,0,B|256:400,2,90
256,192,82384,1,8
256,208,82793,12,0,84017
72,160,84425,6,0,B|64:96|160:80,1,90,0|8
160,112,85038,1,0
160,160,85242,2,0,B|272:160,1,90,0|8
296,160,85854,1,0
344,160,86058,6,0,B|384:216|336:256,1,90,0|8
248,248,86875,1,0
152,248,87283,1,8
152,152,87691,6,0,B|344:152,1,180,2|2
332,152,88712,1,8
332,152,88916,1,8
336,248,89324,6,2,B|264:320|168:280,1,180
170,281,90345,1,8
170,281,90549,1,8
112,208,90957,6,0,B|80:160,2,45,0|0|8
208,192,91773,2,0,B|216:144,2,45,0|0|8
264,264,92590,2,0,B|320:256,2,45,0|0|8
168,280,93406,1,0
168,280,93814,1,8
256,208,94223,12,0,97080
136,128,97488,6,0,B|240:128,1,90,0|8
224,216,98305,2,0,B|224:104,1,90,0|8
224,126,99121,1,0
320,128,99529,1,8
368,128,99734,1,0
416,128,99938,1,0
416,224,100346,5,8
320,224,100754,2,0,B|168:224|168:224|176:224,1,135
185,224,101571,1,0
256,208,101673,12,0,103612
200,128,104020,6,0,B|248:80|296:128|296:128|304:128,1,90,0|8
376,144,104836,1,0
336,224,105245,1,8
264,288,105653,6,0,B|224:336|168:288,1,90,0|8
192,208,106469,1,0
104,168,106877,1,8
256,208,107286,12,0,110143
88,160,110551,6,0,B|184:88,1,90
200,120,111164,1,0
256,192,111572,1,0
320,256,111980,6,0,B|408:208,1,90
392,168,112592,1,0
392,168,112797,1,0
392,168,113205,1,0
256,208,113613,12,4,117083
288,88,130554,6,0,B|288:168,1,45
288,176,130962,2,0,B|176:176,1,90
152,176,131575,1,0
152,272,131983,1,0
248,272,132391,2,0,B|328:312|368:232,1,135,0|8
363,240,133208,1,8
363,240,133412,1,8
360,144,133820,6,0,B|256:144,1,90
176,144,134636,2,0,B|176:248,2,90
176,96,135657,2,0,B|264:16|336:96,1,180
333,93,136677,1,8
336,184,137086,5,0
336,184,137290,1,0
336,184,137494,2,0,B|320:248|232:224,1,90
224,232,138106,1,0
128,232,138514,1,0
128,136,138923,2,0,B|288:136,1,135,0|8
312,136,139739,1,8
360,136,139943,6,0,B|400:192|360:248|360:248|368:248,1,90
336,256,140555,2,0,B|288:224|240:224,1,90
176,280,141372,1,0
104,224,141780,1,0
256,208,142188,12,0,143209
112,104,143617,6,0,B|176:104,1,45
200,104,144025,1,0
296,104,144434,1,0
296,104,144638,2,0,B|296:200,1,90
296,288,145454,2,0,B|248:352|152:296,1,135,0|8
144,272,146271,1,8
144,224,146475,1,8
144,176,146679,1,0
144,128,146883,6,0,B|200:128,1,45
240,128,147291,2,0,B|240:240,1,90
264,256,147903,2,0,B|392:224,1,90
440,208,148720,2,0,B|336:104,1,135,0|8
344,112,149536,1,8
344,112,149740,1,8
88,144,150149,6,0,B|112:88|176:96,1,90
192,176,150965,1,0
192,264,151373,1,0
256,328,151781,2,0,B|312:320|336:272,1,90
424,280,152598,1,8
424,280,152802,1,8
424,280,153006,6,0,B|424:152,1,90
424,144,153618,2,0,B|368:96|312:80,1,90
304,80,154231,1,2
256,96,154435,2,0,B|208:112|160:168|160:168|160:168,1,90,2|0
256,208,155251,12,0,156272
104,128,156680,6,0,B|56:192,5,45
256,128,158313,6,0,B|256:192,5,45
408,128,159946,6,0,B|456:192,2,45
360,128,160558,1,0
312,128,160762,1,0
264,128,160966,1,0
216,128,161171,2,0,B|152:128|144:224,1,90
152,224,161783,2,0,B|232:320|328:256|328:256|336:256,1,180
313,263,162803,1,8
408,264,163212,6,0,B|408:152,2,90
312,264,164436,2,0,B|176:264,1,90,0|8
128,264,165253,2,0,B|128:144,1,90,0|8
128,174,165865,1,0
264,72,166477,6,0,B|264:144,1,45
264,160,166886,2,0,B|264:224,1,45,8|0
264,248,167294,2,0,B|264:320,2,45
256,208,167906,12,0,168927
176,248,169335,6,0,B|48:248,2,90
256,192,170560,1,8
352,192,170968,6,0,B|472:192,2,90
256,192,172192,1,8
176,136,172601,6,0,B|48:136,2,90
256,192,173825,1,8
256,208,174234,12,0,175458
336,248,175866,6,0,B|464:248,2,90
256,192,177091,1,8
160,192,177499,6,0,B|40:192,2,90
256,192,178724,1,8
336,136,179132,6,0,B|464:136,2,90
256,192,180357,1,8
256,208,180765,12,0,181990
440,160,182398,6,0,B|448:96|352:80,1,90,0|8
352,112,183010,1,0
352,160,183214,2,0,B|240:160,1,90,0|8
216,160,183827,1,0
168,160,184031,6,0,B|128:216|176:256,1,90,0|8
264,248,184847,1,0
360,248,185255,1,8
360,152,185664,6,2,B|168:152,1,180
180,152,186684,1,8
180,152,186888,1,8
176,248,187297,6,2,B|248:320|344:280,1,180
342,281,188317,1,8
342,281,188521,1,8
400,208,188929,6,0,B|432:160,2,45,0|0|8
304,192,189746,2,0,B|296:144,2,45,0|0|8
248,264,190562,2,0,B|192:256,2,45,0|0|8
344,280,191379,1,0
344,280,191787,1,8
256,208,192195,12,0,195053
376,128,195461,6,0,B|272:128,1,90,0|8
288,216,196277,2,0,B|288:104,1,90,0|8
288,126,197094,1,0
192,128,197502,1,8
144,128,197706,1,0
96,128,197910,1,0
96,224,198318,5,8
192,224,198727,2,0,B|344:224|344:224|336:224,1,135
327,224,199543,1,0
256,208,199645,12,0,201584
312,128,201992,6,0,B|264:80|216:128|216:128|208:128,1,90,0|8
136,144,202809,1,0
176,224,203217,1,8
248,288,203625,6,0,B|288:336|344:288,1,90,0|8
320,208,204442,1,0
408,168,204850,1,8
256,208,205258,12,0,208116
424,160,208524,6,0,B|328:88,1,90
312,120,209136,1,0
256,192,209544,1,0
192,256,209953,6,0,B|104:208,1,90
112,168,210565,1,0
112,168,210769,1,0
112,168,211177,1,0
256,208,211586,12,4,215055
96,176,228118,6,0,B|160:112|224:184,1,135
216,176,228935,1,0
256,264,229343,1,12
297,173,229751,6,0,B|352:112|416:176,1,135
416,176,230568,1,0
376,264,230976,1,12
280,264,231384,6,0,B|128:264,1,135
145,264,232201,1,0
145,264,232609,1,12
256,208,233017,12,0,234242
416,208,234650,6,0,B|352:272|288:200,1,135
297,210,235466,1,0
256,120,235875,1,12
214,210,236283,6,0,B|160:272|96:208,1,135
97,209,237099,1,0
136,120,237507,1,12
232,120,237916,6,0,B|384:120,1,135
367,120,238732,1,0
367,120,239140,1,12
256,208,239549,12,0,240773
256,200,241181,5,4
