osu file format v7

[General]
AudioFilename: Atashinchi no Danshi - GIRL NEXT DOOR - Infinity.mp3
AudioLeadIn: 0
PreviewTime: 84429
Countdown: 0
SampleSet: Normal
StackLeniency: 0.7
Mode: 0
LetterboxInBreaks: 1

[Editor]
Bookmarks: 17399,136291
DistanceSpacing: 0.800000011920929
BeatDivisor: 4
GridSize: 8

[Metadata]
Title:Infinity
Artist:GIRL NEXT DOOR
Creator:haisha_
Version:Hard
Source:Atashinchi No Danshi
Tags:jpop jdrama

[Difficulty]
HPDrainRate:6
CircleSize:5
OverallDifficulty:7
SliderMultiplier:1.4
SliderTickRate:2

[Events]
//Background and Video events
0,0,"Atashinchi-no-Danshi.png"
Video,1474,"Girl Next Door - INFINITY.avi"
//Break Periods
2,116466,129246
2,214847,225586
//Storyboard Layer 0 (Background)
//Storyboard Layer 1 (Fail)
//Storyboard Layer 2 (Pass)
//Storyboard Layer 3 (Foreground)
//Storyboard Sound Samples
//Background Colour Transformations
3,100,255,255,255

[TimingPoints]
17478,408.21880527963,4,1,0,100,1,0
29657,-100,4,1,0,49,0,0
30473,-100,4,1,0,100,0,0
54976,-100,4,2,0,100,0,0
57017,-100,4,1,0,100,0,0
70269,-200,4,1,0,100,0,0
84327,-100,4,1,0,100,0,1
87637,-100,4,2,0,100,0,1
90903,-100,4,1,0,100,0,1
102334,-100,4,2,0,100,0,1
102538,-100,4,1,0,100,0,1
107208,-200,4,1,0,100,0,1
108152,-100,4,1,0,100,0,1
108637,-200,4,1,0,100,0,1
109580,-100,4,1,0,100,0,1
116272,-100,4,1,0,100,0,0
131524,-100,4,1,0,51,0,0
131933,-100,4,1,0,73,0,0
132341,-100,4,1,0,100,0,0
139894,-100,4,2,0,100,0,0
141935,-100,4,1,0,100,0,0
152934,-100,4,2,0,100,0,0
156224,-100,4,1,0,100,0,0
167628,-200,4,1,0,75,0,0
169288,-200,4,1,0,100,0,0
180515,-100,4,1,0,100,0,0
182407,-100,4,1,0,100,0,1
185619,-100,4,2,0,100,0,1
188885,-100,4,1,0,100,0,1
200316,-100,4,2,0,100,0,1
200826,-100,4,1,0,100,0,1
205179,-200,4,1,0,100,0,1
206098,-100,4,1,0,100,0,1
206608,-200,4,1,0,100,0,1
208343,-100,4,1,0,100,0,1
214245,-100,4,1,0,100,0,0
241098,-100,4,1,0,49,0,0

[Colours]
Combo1 : 255,175,55
Combo2 : 40,251,40
Combo3 : 37,216,254
Combo4 : 255,70,163

[HitObjects]
104,280,17477,2,0,B|272:280,1,140
248,217,18090,2,0,B|248:128,2,70,0|0|8
248,216,18702,1,8
384,216,19110,6,0,B|408:128|304:96,1,140
264,104,19723,1,0
200,104,19927,2,0,B|112:104,2,70,0|8|8
264,104,20539,1,0
312,144,20743,5,0
328,208,20947,1,0
280,248,21151,2,0,B|216:296,2,70
328,208,21764,1,8
328,208,21968,1,8
392,208,22172,1,0
456,208,22376,6,0,B|456:352,2,140
456,144,23397,1,8
456,144,23601,1,8
256,208,24009,12,8,25030
256,192,25234,5,8
256,208,25438,12,8,26867
56,64,27275,5,0
256,192,28091,1,0
456,64,28908,1,0
312,64,29316,1,0
312,192,29724,5,0
312,192,30030,1,0
312,192,30336,1,0
256,208,30541,12,0,31765
256,192,32173,5,0
128,200,32582,6,0,B|128:104,1,70
128,64,32990,2,0,B|208:64|240:160,1,130
256,192,33602,1,0
288,248,33806,2,0,B|344:320,2,70
256,192,34419,2,0,B|104:192,1,130,0|0
72,152,35031,5,8
112,104,35235,1,8
176,120,35439,1,0
240,104,35643,1,0
296,136,35847,6,0,B|376:176,1,70
392,224,36256,2,0,B|368:312,2,70
400,160,36868,2,0,B|248:160,1,140
216,208,37480,1,0
224,272,37684,1,0
224,272,38093,5,8
224,272,38297,1,8
280,312,38501,1,8
344,288,38705,2,0,B|400:240,1,70
352,192,39113,6,0,B|288:248,2,70
408,152,39725,1,0
408,152,39930,1,0
448,208,40134,2,0,B|448:360,2,140
256,208,41358,5,8
256,208,41562,1,8
256,208,41767,1,8
192,208,41971,6,0,B|192:304,1,70
256,272,42379,2,0,B|256:368,2,70
320,272,42991,2,0,B|320:184,1,70
256,208,43399,12,0,44624
256,184,44828,5,0
256,184,45032,1,8
256,184,45236,1,8
384,176,45645,6,0,B|384:280,1,70
384,312,46053,2,0,B|312:344|232:272,1,140
200,248,46665,1,0
208,184,46869,1,0
256,136,47073,1,0
304,184,47277,1,0
304,248,47482,1,0
256,296,47686,1,0
232,232,47890,2,8,B|136:232,1,70,8|8
296,232,48298,2,8,B|400:232,1,70
432,232,48706,6,0,B|432:152,3,70
432,96,49523,1,0
368,96,49727,1,0
304,96,49931,5,0
176,96,50339,1,0
176,224,50747,2,0,B|240:272|320:216,1,140
368,200,51360,1,8
368,136,51564,1,8
368,72,51768,1,8
368,72,51972,1,0
304,72,52176,6,0,B|304:176,1,70
440,144,52584,2,0,B|352:144,1,70
368,280,52993,2,0,B|368:192,1,70
232,208,53401,2,0,B|305:208,1,70
368,208,53809,1,0
368,144,54013,2,0,B|208:144,1,140
160,144,54625,1,8
160,144,54830,1,8
96,144,55034,6,2,B|96:312,1,140
144,328,55646,2,2,B|216:384|288:320,1,140
240,272,56258,1,0
216,208,56462,2,2,B|288:160|376:224,1,140
256,208,57279,12,0,58299
80,200,58708,6,0,B|112:136,1,70
176,136,59116,2,0,B|200:208,2,70,8|0|0
144,80,59728,2,0,B|216:24|272:80,1,140,0|0
312,128,60340,5,8
360,80,60545,1,0
408,128,60749,1,0
360,176,60953,1,0
360,176,61157,2,0,B|360:280,1,70
328,304,61565,1,8
280,256,61769,1,0
232,304,61973,5,0
232,304,62177,1,0
168,296,62382,2,0,B|112:208,1,70,8|0
184,200,62790,2,0,B|184:120,1,70,0|0
248,128,63198,2,0,B|272:56,1,70,8|0
328,32,63606,1,0
384,64,63810,6,0,B|392:216,1,140
352,256,64423,1,8
288,272,64627,1,0
232,240,64831,1,0
184,200,65035,1,0
128,168,65239,6,0,B|160:80,1,70,8|0
216,104,65647,2,0,B|248:192,2,70,0|0|8
168,56,66260,2,0,B|232:-8|320:56,1,140
320,104,66872,6,0,B|272:176,2,70,8|0|0
384,104,67484,2,0,B|432:176,1,70,0|8
384,216,67893,2,0,B|336:272|248:224,1,140
208,184,68505,6,0,B|112:184,1,70,8|0
136,48,68913,2,0,B|136:128,1,70,0|0
0,120,69321,2,0,B|88:120,1,70,8|0
136,120,69730,2,0,B|136:288,1,140,0|0
200,280,70342,2,0,B|264:296|296:224,1,105
80,64,71362,6,0,B|120:192,1,105
110,164,72179,1,0
110,164,72383,1,0
110,164,72587,1,8
432,64,72995,6,0,B|392:192,1,105
402,164,73812,1,0
402,164,74016,1,0
402,164,74220,1,8
256,56,74628,6,0,B|256:190,1,105
256,161,75445,1,0
256,161,75649,1,0
256,161,75853,1,8
256,208,76261,12,0,77486
432,320,77894,6,0,B|392:192,1,105
402,220,78710,1,0
402,220,78914,1,0
402,220,79119,1,8
80,320,79527,6,0,B|120:192,1,105
110,220,80343,1,0
110,220,80547,1,0
110,220,80751,1,8
256,328,81160,6,0,B|256:194,1,105
256,222,81976,1,0
256,222,82180,1,0
256,222,82384,1,8
256,208,82793,12,8,84017
96,104,84425,6,0,B|144:192,1,70
192,192,84834,1,8
216,216,84936,1,0
216,248,85038,1,0
232,312,85242,2,0,B|320:264,1,70
360,296,85650,2,0,B|416:216,1,70,8|0
408,176,86058,5,0
384,144,86160,1,0
352,144,86262,1,0
288,144,86466,2,0,B|288:224,2,70,8|0|0
224,144,87079,2,0,B|192:232,1,70,0|8
136,232,87487,1,0
136,232,87691,6,2,B|192:304|256:320|400:312,1,280
392,248,88712,1,8
392,248,88916,1,8
392,248,89120,1,8
392,184,89324,6,2,B|336:112|272:96|128:104,1,280
137,103,90345,1,8
137,103,90549,1,8
168,160,90753,1,8
224,192,90957,6,0,B|184:264,2,70
256,136,91569,1,0
288,120,91671,1,0
320,136,91773,1,8
352,192,91977,1,0
400,232,92182,1,0
400,296,92386,1,0
352,336,92590,6,0,B|256:336,1,70
264,272,92998,2,0,B|360:272,1,70
352,208,93406,2,0,B|272:208,3,70,8|0|0|0
216,208,94223,1,0
152,208,94427,1,0
88,208,94631,1,0
88,208,94835,1,0
256,208,95039,12,8,97080
56,208,97488,6,0,B|96:152|184:152,1,140
224,200,98101,1,0
288,184,98305,1,0
304,152,98407,1,0
336,144,98509,1,0
376,192,98713,2,0,B|328:256,1,70,8|0
296,304,99121,6,0,B|376:368,1,70
408,320,99529,1,0
432,296,99632,1,0
440,264,99734,1,0
432,200,99938,1,0
416,136,100142,1,0
368,96,100346,1,8
368,96,100550,1,0
304,88,100754,6,0,B|264:160|296:224,1,140
295,222,101366,1,0
240,256,101571,2,0,B|280:320|224:392,1,140
184,336,102183,1,0
128,304,102387,6,0,B|96:224|136:152,1,140,2|0
160,112,102999,1,0
224,128,103203,1,8
288,144,103408,6,0,B|288:240,2,70
288,80,104020,2,0,B|360:64|424:112,1,140
420,109,104632,1,0
420,109,104836,1,0
384,160,105040,2,0,B|296:192,1,70,0|8
256,192,105449,1,0
256,192,105653,5,4
256,40,106061,1,4
472,192,106469,1,4
256,344,106877,1,4
40,192,107286,2,0,B|208:192,1,140,4|0
232,152,108306,6,0,B|312:104,1,70
336,160,108714,2,0,B|336:328,1,140,4|0
336,300,109939,1,8
336,300,110143,1,8
64,192,110551,6,0,B|152:216|208:144,1,140
224,104,111164,1,0
248,80,111266,1,0
280,72,111368,1,0
328,112,111572,1,0
328,176,111776,1,0
328,176,111980,5,0
200,176,112388,1,0
200,176,112592,1,0
200,176,112797,1,0
328,176,113205,1,0
256,208,113613,12,4,116266
296,88,130146,5,0
296,88,130554,5,0
280,152,130758,1,0
224,184,130962,2,0,B|168:256|240:328,1,140
222,308,131575,5,0
296,88,131983,1,0
224,304,132391,6,0,B|384:304,1,140
416,264,133003,2,0,B|336:200,1,70,8|0
440,200,133412,2,0,B|376:144,1,70
320,152,133820,5,0
320,216,134024,1,0
320,152,134228,1,0
320,88,134432,1,0
320,152,134636,1,0
320,152,134840,2,0,B|168:152,1,140
144,208,135453,1,0
144,208,135657,2,0,B|192:280|280:224,1,140
328,232,136269,2,0,B|328:336,1,70,8|0
392,288,136677,2,0,B|392:368,1,70
456,304,137086,6,0,B|456:224,1,70
448,168,137494,2,0,B|280:168,1,140
240,168,138106,2,0,B|184:240|256:328,1,140
288,336,138718,1,0
232,296,138923,2,0,B|72:296,1,140
64,240,139535,1,8
64,176,139739,1,0
118,136,139943,6,2,B|288:136,1,140
312,176,140555,1,2
312,240,140760,1,2
272,288,140964,1,0
240,304,141066,1,0
208,288,141168,1,0
160,248,141372,2,2,B|120:176|168:104,1,140
256,208,142188,12,8,143209
96,120,143617,6,0,B|96:224,1,70
144,232,144025,1,8
192,192,144229,1,0
240,232,144434,1,0
280,184,144638,6,0,B|280:80,2,70,0|8|0
320,232,145250,1,0
360,184,145454,1,0
400,232,145658,2,0,B|400:336,2,70,8|0|0
440,184,146271,2,0,B|440:88,1,70,0|8
440,48,146679,1,0
440,48,146883,5,0
376,64,147087,1,0
320,96,147291,1,8
272,136,147495,2,0,B|272:192|200:176,1,70
176,136,147903,2,0,B|112:208|184:272,2,140,0|0|0
224,184,148924,1,0
272,136,149128,1,0
296,160,149230,1,0
288,192,149332,1,8
224,184,149536,5,0
224,184,149740,1,0
224,184,149945,1,0
224,248,150149,6,0,B|328:248,1,70,8|0
360,248,150557,1,0
360,184,150761,1,0
360,120,150965,1,0
360,120,151169,1,0
232,120,151577,1,0
232,120,151986,1,0
232,256,152394,6,8,B|232:344,2,70
232,192,153006,2,2,B|296:136|360:192,1,140,2|0
368,256,153618,2,0,B|472:256,1,70
480,208,154027,2,0,B|520:128|432:96,1,140
376,120,154639,2,0,B|339:198,1,70
256,208,155047,12,4,156272
48,168,156680,6,0,B|144:144,1,70
184,160,157088,2,0,B|256:200,2,70,8|0|0
120,152,157701,2,0,B|64:216|128:280,1,140
184,256,158313,2,0,B|240:208,1,70,8|0
280,256,158721,2,0,B|280:336,1,70
344,320,159129,1,8
392,280,159334,2,0,B|464:216|392:152,1,140
336,160,159946,6,0,B|232:160,1,70,8|0
264,296,160354,2,0,B|264:215,1,70
128,224,160762,2,0,B|232:224,1,70,8|0
200,160,161171,2,0,B|192:40|344:48,1,210
400,72,161987,2,0,B|344:144,1,70
432,144,162395,2,8,B|376:216,1,70,8|0
389,199,162803,1,0
127,196,163212,6,0,B|216:248,1,70,8|0
128,272,163620,2,0,B|208:320,1,70
256,312,164028,1,8
256,312,164232,2,4,B|344:312|344:208,1,140
304,176,164844,5,8
248,144,165049,1,0
192,176,165253,1,0
248,216,165457,2,0,B|248:312,1,70,0|8
312,304,165865,2,4,B|392:304|424:224,1,140
424,168,166477,6,0,B|320:168,1,70,8|0
352,32,166886,2,0,B|352:112,1,70
216,104,167294,2,0,B|320:104,1,70,8|0
352,104,167702,2,0,B|392:192|352:328,1,210
64,296,169335,6,0,B|192:296,1,105
232,296,170151,1,0
296,296,170355,1,0
296,296,170560,1,8
448,192,170968,6,0,B|320:192,1,105
280,192,171784,1,0
216,192,171988,1,0
216,192,172192,1,8
64,88,172601,6,0,B|192:88,1,105
232,88,173417,1,0
296,88,173621,1,0
296,88,173825,1,8
256,208,174234,12,0,175458
448,296,175866,6,0,B|320:296,1,105
280,296,176683,1,0
216,296,176887,1,0
216,296,177091,1,8
64,192,177499,6,0,B|192:192,1,105
232,192,178316,1,0
296,192,178520,1,0
296,192,178724,1,8
448,88,179132,6,0,B|320:88,1,105
280,88,179949,1,0
216,88,180153,1,0
216,88,180357,1,8
256,208,180765,12,0,181990
416,104,182398,6,0,B|368:192,1,70
320,192,182806,1,8
296,216,182908,1,0
296,248,183010,1,0
280,312,183214,2,0,B|192:264,1,70
152,296,183623,2,0,B|96:216,1,70,8|0
104,176,184031,5,0
128,152,184133,1,0
160,144,184235,1,0
224,144,184439,2,0,B|224:224,2,70,8|0|0
288,144,185051,2,0,B|320:232,1,70,0|8
376,232,185460,1,0
376,232,185664,6,2,B|320:304|256:320|112:312,1,280
120,248,186684,1,8
120,248,186888,1,8
120,248,187092,1,8
120,184,187297,6,2,B|176:112|240:96|384:104,1,280
375,103,188317,1,8
375,103,188521,1,8
344,160,188725,1,8
288,192,188929,6,0,B|328:264,2,70
256,136,189542,1,0
224,120,189644,1,0
192,136,189746,1,8
160,192,189950,1,0
112,232,190154,1,0
112,296,190358,1,0
160,336,190562,6,0,B|256:336,1,70
248,272,190970,2,0,B|152:272,1,70
160,208,191379,2,0,B|240:208,3,70,8|0|0|0
296,208,192195,1,0
360,208,192399,1,0
424,208,192603,1,0
424,208,192807,1,0
256,208,193012,12,8,195053
456,208,195461,6,0,B|416:152|328:152,1,140
288,200,196073,1,0
224,184,196277,1,0
208,152,196379,1,0
176,144,196481,1,0
136,192,196686,2,0,B|184:256,1,70,8|0
216,304,197094,6,0,B|136:368,1,70
104,320,197502,1,0
80,296,197604,1,0
72,264,197706,1,0
80,200,197910,1,0
96,136,198114,1,0
144,96,198318,1,8
144,96,198523,1,0
208,88,198727,6,0,B|248:160|216:224,1,140
217,222,199339,1,0
272,256,199543,2,0,B|232:320|288:392,1,140
328,336,200155,1,0
384,304,200360,6,0,B|416:224|376:152,1,140,2|0
352,112,200972,1,0
288,128,201176,1,8
224,144,201380,6,0,B|224:240,2,70
224,80,201992,2,0,B|152:64|88:112,1,140
91,109,202605,1,0
91,109,202809,1,0
128,160,203013,2,0,B|216:192,1,70,0|8
256,192,203421,1,0
256,192,203625,5,4
256,40,204033,1,4
40,192,204442,1,4
256,344,204850,1,4
472,192,205258,2,0,B|304:192,1,140,4|0
280,152,206279,6,0,B|200:104,1,70
176,160,206687,2,0,B|176:328,1,140,4|0
176,300,207912,1,0
176,300,208116,1,0
448,192,208524,6,0,B|360:216|304:144,1,140
288,104,209136,1,0
264,80,209238,1,0
232,72,209340,1,0
184,112,209544,1,0
184,176,209749,1,0
184,176,209953,5,0
312,176,210361,1,0
312,176,210565,1,0
312,176,210769,1,0
184,176,211177,1,0
256,208,211586,12,4,214647
256,208,226486,12,0,227710
64,96,228118,6,0,B|128:176,1,70
104,216,228527,2,8,B|176:192,1,70,8|0
160,128,228935,1,0
224,128,229139,1,0
240,160,229241,1,0
256,192,229343,1,8
320,192,229547,1,0
384,192,229751,6,0,B|408:272,1,70
392,328,230159,2,0,B|296:328,1,70,8|0
256,320,230568,1,0
256,256,230772,1,0
232,232,230874,1,0
208,208,230976,1,8
208,144,231180,1,0
264,120,231384,6,0,B|344:120,1,70
320,184,231792,1,8
368,224,231996,1,0
416,176,232201,1,0
400,112,232405,1,0
368,88,232507,1,0
336,104,232609,1,8
272,120,232813,1,0
216,80,233017,6,0,B|152:136|208:224,1,140
256,176,233629,1,0
320,184,233833,2,0,B|384:256|288:328,1,140,0|0
256,280,234446,1,0
256,208,234650,12,0,235875
256,192,236079,5,0
256,208,236283,12,0,237507
256,192,237712,5,0
216,136,237916,6,0,B|152:192|224:256,1,140,0|8
256,192,238528,1,0
296,248,238732,2,0,B|355:190|288:120,1,140,0|8
256,192,239344,1,0
256,208,239549,12,4,241181
