osu file format v7

[General]
AudioFilename: Atashinchi no Danshi - GIRL NEXT DOOR - Infinity.mp3
AudioLeadIn: 0
PreviewTime: 84234
Countdown: 0
SampleSet: Normal
StackLeniency: 0.7
Mode: 0
LetterboxInBreaks: 1

[Editor]
DistanceSpacing: 0.800000011920929
BeatDivisor: 1
GridSize: 8

[Metadata]
Title:Infinity
Artist:GIRL NEXT DOOR
Creator:haisha_
Version:Easy
Source:Atashinchi No Danshi
Tags:jpop jdrama

[Difficulty]
HPDrainRate:3
CircleSize:4
OverallDifficulty:3
SliderMultiplier:0.7
SliderTickRate:1

[Events]
//Background and Video events
0,0,"Atashinchi-no-Danshi.png"
Video,1474,"Girl Next Door - INFINITY.avi"
//Break Periods
2,71562,82985
//Storyboard Layer 0 (Background)
//Storyboard Layer 1 (Fail)
//Storyboard Layer 2 (Pass)
//Storyboard Layer 3 (Foreground)
//Storyboard Sound Samples
//Background Colour Transformations
3,100,255,255,255

[TimingPoints]
17478,408.21880527963,4,1,0,100,1,0
29730,-100,4,1,0,50,0,0
30547,-100,4,1,0,100,0,0
54836,-100,4,2,0,100,0,0
58101,-100,4,1,0,100,0,0
84431,-100,4,1,0,100,0,1
87493,-100,4,2,0,100,0,1
90759,-100,4,1,0,100,0,1
116681,-100,4,1,0,100,0,0

[Colours]
Combo1 : 255,175,55
Combo2 : 40,251,40
Combo3 : 37,216,254
Combo4 : 255,70,163

[HitObjects]
72,144,17478,2,0,B|144:112|224:152,1,140
248,208,18702,1,8
296,264,19110,6,0,B|376:280|432:232,1,140
428,234,20335,1,8
256,208,20743,12,0,23601
256,120,24009,5,0
256,192,24417,1,0
256,264,24825,2,0,B|352:264,1,70,0|8
400,264,25642,2,0,B|440:200|400:120,1,140
328,128,26867,6,0,B|224:128,1,70,8|0
128,192,28091,1,0
256,288,28908,1,0
256,208,29724,12,0,32173
80,144,32582,6,0,B|144:64|224:144,1,140
240,192,33806,1,0
256,264,34214,1,0
320,312,34623,2,0,B|368:232,1,70,0|8
392,184,35439,2,0,B|328:120,1,70,0|0
288,80,36256,6,0,B|216:48|152:104,1,140
157,99,37480,1,0
104,152,37888,2,0,B|104:248,1,70,0|8
176,256,38705,2,0,B|280:256,1,70
208,184,39521,5,0
144,136,39930,1,8
104,200,40338,2,0,B|144:296|264:240,2,140
104,128,42379,1,0
176,128,42787,1,8
256,208,43195,12,0,45236
80,120,45645,5,0
80,120,46053,1,8
80,120,46461,2,0,B|184:120,1,70
224,120,47277,2,0,B|224:208,1,70,0|8
224,264,48094,2,0,B|320:264,1,70
368,264,48910,6,0,B|440:192|352:112,2,140
296,264,50951,1,0
296,192,51360,1,0
296,120,51768,1,8
224,120,52176,6,0,B|144:120,2,70
296,120,53401,2,0,B|296:264,1,140,0|0
224,264,54625,1,0
152,264,55034,2,2,B|152:96,1,140
224,128,56258,1,8
296,128,56667,2,0,B|296:232,1,70,2|0
256,208,57483,12,0,59932
88,144,60340,6,0,B|160:72|272:144,1,140
256,184,61565,1,8
293,253,61973,2,0,B|368:288|424:224,1,140
256,208,63198,12,0,64831
424,144,65239,6,0,B|336:72|240:144,1,140
256,184,66464,1,8
218,253,66872,2,0,B|144:288|88:224,1,140
88,152,68097,1,8
256,208,68505,12,0,71362
96,120,84425,6,0,B|272:120,1,140
216,192,85650,1,8
192,264,86058,2,0,B|360:264,1,140
392,216,87283,1,8
432,152,87691,6,2,B|392:88|288:64,1,140
248,72,88916,1,8
176,72,89324,2,2,B|101:82|61:146,1,140
104,208,90549,1,8
176,168,90957,6,0,B|176:320,1,140
248,288,92182,1,8
312,256,92590,2,0,B|312:96,1,140
248,80,93814,1,8
256,208,94223,12,0,97080
136,168,97488,6,0,B|168:272,2,70
208,160,98713,1,8
280,168,99121,2,0,B|248:256,1,70
320,272,99938,1,0
392,256,100346,1,8
392,176,100754,6,0,B|352:64|200:64,1,210
160,88,102387,2,0,B|128:216|248:288,1,210
304,256,104020,6,0,B|384:224|360:136,1,140
288,144,105245,1,8
216,144,105653,2,0,B|112:144,2,70
288,144,106877,1,0
256,208,107286,12,0,110143
152,120,110551,6,0,B|224:256,1,140
256,304,111776,1,0
294,243,112184,2,0,B|360:120,1,140
360,120,113409,1,0
256,208,113817,12,4,117083
