osu file format v14

[General]
AudioFilename: gfriend-rough.mp3
AudioLeadIn: 0
PreviewTime: 51162
Countdown: 0
SampleSet: Soft
StackLeniency: 0.7
Mode: 0
LetterboxInBreaks: 0
WidescreenStoryboard: 0

[Editor]
Bookmarks: 8841,68841,77412
DistanceSpacing: 1.3
BeatDivisor: 8
GridSize: 4
TimelineZoom: 2.599999

[Metadata]
Title:Rough
TitleUnicode:시간을 달려서
Artist:GFRIEND
ArtistUnicode:여자친구
Creator:Norman
Version:Run Through Time
Source:
Tags:소원 예린 은하 유주 신비 엄지 SNOWFLAKE 쏘스뮤직 kpop
BeatmapID:888840
BeatmapSetID:409464

[Difficulty]
HPDrainRate:7
CircleSize:4
OverallDifficulty:8
ApproachRate:9.3
SliderMultiplier:3.59999990463257
SliderTickRate:2

[Events]
//Background and Video events
0,0,"rough.jpg",0,0
Video,-336,"pv.avi"
//Break Periods
2,69041,76858
2,129041,136858
2,154755,160430
//Storyboard Layer 0 (Background)
//Storyboard Layer 1 (Fail)
//Storyboard Layer 2 (Pass)
//Storyboard Layer 3 (Foreground)
//Storyboard Sound Samples

[TimingPoints]
270,535.714285714286,4,2,0,100,1,0
8841,-133.333333333333,4,2,0,70,0,0
15270,-133.333333333333,4,2,0,80,0,0
17145,-133.333333333333,4,2,0,60,0,0
18216,-133.333333333333,4,2,0,50,0,0
18350,-133.333333333333,4,2,0,60,0,0
18752,-133.333333333333,4,2,0,50,0,0
18886,-133.333333333333,4,2,0,60,0,0
22502,-133.333333333333,4,2,0,50,0,0
22636,-133.333333333333,4,2,0,60,0,0
23037,-133.333333333333,4,2,0,50,0,0
23171,-133.333333333333,4,2,0,60,0,0
25046,-133.333333333333,4,2,0,40,0,0
25180,-133.333333333333,4,2,0,60,0,0
26787,-133.333333333333,4,2,0,50,0,0
26921,-133.333333333333,4,2,0,60,0,0
27323,-133.333333333333,4,2,0,50,0,0
27457,-133.333333333333,4,2,0,60,0,0
31073,-133.333333333333,4,2,0,50,0,0
31207,-133.333333333333,4,2,0,60,0,0
31609,-133.333333333333,4,2,0,50,0,0
31877,-133.333333333333,4,2,0,60,0,0
33752,-133.333333333333,4,2,0,40,0,0
34555,-133.333333333333,4,2,0,60,0,0
35359,-133.333333333333,4,2,0,50,0,0
35493,-133.333333333333,4,2,0,60,0,0
35895,-133.333333333333,4,2,0,50,0,0
36162,-133.333333333333,4,2,0,60,0,0
39645,-133.333333333333,4,2,0,50,0,0
39778,-133.333333333333,4,2,0,60,0,0
40180,-133.333333333333,4,2,0,50,0,0
40448,-133.333333333333,4,2,0,60,0,0
41252,-133.333333333333,4,2,0,50,0,0
41520,-133.333333333333,4,2,0,60,0,0
44466,-133.333333333333,4,2,0,50,0,0
44734,-133.333333333333,4,2,0,60,0,0
46207,-133.333333333333,4,2,0,50,0,0
46341,-133.333333333333,4,2,0,60,0,0
46609,-133.333333333333,4,2,0,50,0,0
47145,-133.333333333333,4,2,0,60,0,0
48752,-133.333333333333,4,2,0,50,0,0
49020,-133.333333333333,4,2,0,60,0,0
49287,-133.333333333333,4,2,0,50,0,0
51028,-133.333333333333,4,2,0,70,0,0
51430,-133.333333333333,4,2,0,60,0,0
51698,-100,4,2,0,80,0,1
68841,-100,4,2,0,80,0,0
77412,-133.333333333333,4,2,0,70,0,0
77680,-133.333333333333,4,2,0,50,0,0
78216,-133.333333333333,4,2,0,40,0,0
78350,-133.333333333333,4,2,0,50,0,0
78752,-133.333333333333,4,2,0,40,0,0
78886,-133.333333333333,4,2,0,50,0,0
81698,-133.333333333333,4,2,0,60,0,0
82502,-133.333333333333,4,2,0,50,0,0
82636,-133.333333333333,4,2,0,60,0,0
83037,-133.333333333333,4,2,0,50,0,0
83171,-133.333333333333,4,2,0,60,0,0
84109,-133.333333333333,4,2,0,50,0,0
84243,-133.333333333333,4,2,0,60,0,0
86787,-133.333333333333,4,2,0,50,0,0
86921,-133.333333333333,4,2,0,60,0,0
87323,-133.333333333333,4,2,0,50,0,0
87457,-133.333333333333,4,2,0,60,0,0
91073,-133.333333333333,4,2,0,50,0,0
91207,-133.333333333333,4,2,0,60,0,0
91609,-133.333333333333,4,2,0,50,0,0
91877,-133.333333333333,4,2,0,60,0,0
93752,-133.333333333333,4,2,0,40,0,0
94555,-133.333333333333,4,2,0,60,0,0
95359,-133.333333333333,4,2,0,50,0,0
95493,-133.333333333333,4,2,0,60,0,0
95895,-133.333333333333,4,2,0,50,0,0
96162,-133.333333333333,4,2,0,60,0,0
99645,-133.333333333333,4,2,0,50,0,0
99778,-133.333333333333,4,2,0,60,0,0
100180,-133.333333333333,4,2,0,50,0,0
100314,-133.333333333333,4,2,0,60,0,0
101252,-133.333333333333,4,2,0,50,0,0
101520,-133.333333333333,4,2,0,60,0,0
103662,-133.333333333333,4,2,0,50,0,0
103930,-133.333333333333,4,2,0,60,0,0
104466,-133.333333333333,4,2,0,50,0,0
104734,-133.333333333333,4,2,0,60,0,0
106073,-133.333333333333,4,2,0,50,0,0
106207,-133.333333333333,4,2,0,60,0,0
106609,-133.333333333333,4,2,0,50,0,0
106877,-133.333333333333,4,2,0,60,0,0
108752,-133.333333333333,4,2,0,50,0,0
109020,-133.333333333333,4,2,0,60,0,0
109287,-133.333333333333,4,2,0,50,0,0
111028,-133.333333333333,4,2,0,70,0,0
111430,-133.333333333333,4,2,0,60,0,0
111698,-100,4,2,0,80,0,1
128841,-200,4,2,0,80,0,0
137412,-200,4,2,0,60,0,0
137948,-200,4,2,0,40,0,0
138082,-200,4,2,0,60,0,0
139020,-200,4,2,0,40,0,0
139153,-200,4,2,0,60,0,0
140091,-200,4,2,0,40,0,0
140225,-200,4,2,0,60,0,0
142234,-200,4,2,0,40,0,0
142368,-200,4,2,0,60,0,0
143305,-200,4,2,0,40,0,0
143439,-200,4,2,0,60,0,0
144377,-200,4,2,0,40,0,0
144511,-200,4,2,0,60,0,0
145180,-133.333333333333,4,2,0,70,0,0
145314,-133.333333333333,4,2,0,50,0,0
145448,-133.333333333333,4,2,0,70,0,0
145582,-133.333333333333,4,2,0,50,0,0
145716,-133.333333333333,4,2,0,70,0,0
145850,-133.333333333333,4,2,0,50,0,0
145984,-133.333333333333,4,2,0,60,0,0
146520,-133.333333333333,4,2,0,50,0,0
146653,-133.333333333333,4,2,0,60,0,0
147323,-133.333333333333,4,2,0,50,0,0
147457,-133.333333333333,4,2,0,60,0,0
149198,-133.333333333333,4,2,0,40,0,0
149332,-133.333333333333,4,2,0,60,0,0
149466,-133.333333333333,4,2,0,40,0,0
149734,-133.333333333333,4,2,0,60,0,0
151073,-133.333333333333,4,2,0,50,0,0
151207,-133.333333333333,4,2,0,60,0,0
152412,-133.333333333333,4,2,0,70,0,0
152680,-100,4,2,0,70,0,0
153484,-200,4,2,0,80,0,0
153886,-100,4,2,0,80,0,0
154287,-100,4,2,0,60,0,0
154555,-100,4,2,0,50,0,0
160984,-142.857142857143,4,2,0,60,0,0
161520,-125,4,2,0,50,0,0
161787,-111.111111111111,4,2,0,70,0,0
162055,-111.111111111111,4,2,0,80,0,0
162323,-111.111111111111,4,2,0,70,0,0
162591,-111.111111111111,4,2,0,80,0,0
163127,-100,4,2,0,80,0,1
180270,-166.666666666667,4,2,0,60,0,0
186430,-166.666666666667,4,2,0,50,0,0
186698,-125,4,2,0,70,0,0
188841,-200,4,2,0,45,0,0
189377,-90.9090909090909,4,2,0,80,0,1
197412,-100,4,2,0,80,0,0

[Colours]
Combo1 : 179,179,102
Combo2 : 192,192,192
Combo3 : 0,85,170
Combo4 : 174,94,94

[HitObjects]
104,172,8841,6,0,B|115:123|83:59|83:59|140:80|176:32|240:64,1,270.000010299683,4|8,0:0|0:0,0:0:0:0:
388,108,9645,1,0,1:0:0:0:
396,268,9912,2,0,L|400:348,2,67.5000025749208
388,108,10448,1,8,0:0:0:0:
252,196,10716,1,0,0:0:0:0:
172,200,10850,1,0,0:0:0:0:
92,204,10984,5,0,1:0:0:0:
396,268,11252,1,0,0:0:0:0:
384,24,11519,1,8,0:0:0:0:
140,36,11787,1,0,0:0:0:0:
144,116,11921,1,0,0:0:0:0:
148,196,12055,2,0,L|152:296,2,67.5000025749208
140,36,12591,1,8,0:0:0:0:
288,104,12859,1,0,0:0:0:0:
436,36,13127,6,0,P|452:100|404:236,1,202.500007724762,0|0,1:0|0:0,0:0:0:0:
344,296,13662,1,8,0:0:0:0:
268,152,13930,1,0,1:0:0:0:
188,144,14064,1,0,0:0:0:0:
116,180,14198,2,0,P|80:184|36:176,2,67.5000025749208
84,20,14734,1,8,0:0:0:0:
236,76,15002,1,0,0:0:0:0:
268,152,15136,1,0,0:0:0:0:
304,224,15269,6,0,P|368:196|484:248,1,202.500007724762,0|0,1:0|1:0,0:0:0:0:
482,246,15805,1,0,1:0:0:0:
164,276,16207,1,0,1:0:0:0:
236,76,16341,1,0,1:0:0:0:
104,64,16609,1,0,1:0:0:0:
20,164,16877,1,0,1:0:0:0:
20,164,17145,1,0,1:0:0:0:
24,244,17278,1,0,1:0:0:0:
28,324,17412,6,0,B|96:340|96:316|168:328,1,135.000005149842,4|0,0:0|0:0,0:0:0:0:
336,360,17948,1,8,3:0:0:0:
424,344,18082,1,0,0:0:0:0:
476,272,18216,2,0,P|480:240|480:204,1,67.5000025749208,8|0,3:0|0:0,0:0:0:0:
352,96,18484,2,0,P|348:128|348:164,1,67.5000025749208
356,244,18752,1,8,3:0:0:0:
292,292,18886,2,0,L|192:288,1,67.5000025749208,0|8,0:0|3:0,0:0:0:0:
96,192,19153,2,0,L|196:188,1,67.5000025749208,0|2,0:0|0:0,0:0:0:0:
288,32,19421,1,0,0:0:0:0:
288,32,19555,6,0,P|316:92|316:188,1,135.000005149842,0|0,1:0|0:0,0:0:0:0:
192,348,20091,1,8,3:0:0:0:
120,312,20225,2,0,P|88:308|36:316,1,67.5000025749208
192,264,20493,1,2,0:0:0:0:
244,200,20627,2,0,P|248:168|240:116,1,67.5000025749208
220,56,20894,1,2,0:0:0:0:
60,60,21162,1,8,3:0:0:0:
64,224,21430,1,0,0:0:0:0:
136,260,21564,1,0,0:0:0:0:
208,292,21698,6,0,B|220:240|196:212|196:212|236:168,1,135.000005149842,0|0,1:0|0:0,0:0:0:0:
292,120,22100,1,0,0:0:0:0:
368,148,22234,2,0,P|404:152|436:148,1,67.5000025749208,8|0,3:0|0:0,0:0:0:0:
324,44,22502,2,0,P|288:40|256:44,1,67.5000025749208,8|0,3:0|0:0,0:0:0:0:
96,80,22769,2,0,L|92:168,1,67.5000025749208
88,228,23037,1,8,3:0:0:0:
164,196,23171,2,0,P|196:188|240:188,1,67.5000025749208,0|0,0:0|1:0,0:0:0:0:
108,312,23439,2,0,P|74:311|41:302,1,67.5000025749208,0|2,0:0|0:0,0:0:0:0:
120,124,23707,1,0,0:0:0:0:
120,124,23841,6,0,P|180:104|252:104,1,135.000005149842,0|0,1:0|0:0,0:0:0:0:
476,120,24243,1,0,0:0:0:0:
476,120,24377,2,0,L|472:216,1,67.5000025749208,0|0,1:0|0:0,0:0:0:0:
356,40,24644,2,0,L|360:136,1,67.5000025749208,2|2,0:0|0:0,0:0:0:0:
236,72,24912,1,2,0:0:0:0:
164,108,25046,1,2,3:0:0:0:
92,72,25180,1,2,0:0:0:0:
24,116,25314,1,0,0:0:0:0:
16,196,25448,2,0,P|16:268|36:336,1,135.000005149842,2|0,0:0|0:0,0:0:0:0:
108,360,25850,1,0,0:0:0:0:
75,124,25984,6,0,P|140:107|208:108,1,135.000005149842,0|0,1:0|0:0,0:0:0:0:
376,168,26386,1,0,0:0:0:0:
376,168,26453,1,0,0:0:0:0:
376,168,26519,2,0,B|388:220|360:236|380:304,1,135.000005149842,8|0,3:0|0:0,0:0:0:0:
428,364,26921,1,0,0:0:0:0:
228,280,27055,2,0,P|196:280|160:288,1,67.5000025749208,2|0,0:0|0:0,0:0:0:0:
84,320,27323,1,8,3:0:0:0:
32,256,27457,2,0,L|28:168,1,67.5000025749208,0|0,0:0|1:0,0:0:0:0:
160,48,27725,2,0,L|156:115,1,67.5000025749208
152,196,27993,1,0,0:0:0:0:
228,164,28127,6,0,P|292:152|368:172,1,135.000005149842,0|0,1:0|0:0,0:0:0:0:
288,344,28528,1,0,0:0:0:0:
208,332,28662,2,0,L|128:324,1,67.5000025749208,8|0,3:0|0:0,0:0:0:0:
292,216,28930,1,0,0:0:0:0:
292,216,29064,2,0,L|372:208,1,67.5000025749208,2|0,0:0|0:0,0:0:0:0:
408,144,29332,2,0,P|412:108|408:64,1,67.5000025749208,0|2,0:0|0:0,0:0:0:0:
352,20,29600,1,0,0:0:0:0:
212,108,29734,2,0,B|156:128|156:128|60:108,1,135.000005149842,8|0,3:0|0:0,0:0:0:0:
4,92,30136,1,0,0:0:0:0:
12,284,30269,6,0,B|68:264|68:264|164:284,1,135.000005149842,0|0,1:0|0:0,0:0:0:0:
220,300,30671,1,0,0:0:0:0:
284,252,30805,2,0,B|304:184|260:184|284:120,1,135.000005149842,8|2,3:0|0:0,0:0:0:0:
304,40,31207,1,0,0:0:0:0:
384,44,31341,2,0,L|464:48,1,67.5000025749208
224,36,31609,1,8,3:0:0:0:
284,252,31877,1,0,1:0:0:0:
52,188,32144,1,0,0:0:0:0:
60,268,32278,1,0,0:0:0:0:
68,348,32412,5,2,0:0:0:0:
96,116,32680,1,2,0:0:0:0:
68,348,32948,1,0,1:0:0:0:
144,44,33216,1,2,0:0:0:0:
192,128,33350,1,8,3:0:0:0:
244,208,33484,2,0,L|240:292,1,67.5000025749208
384,376,33752,6,0,L|380:308,1,67.5000025749208,8|8,3:0|3:0,0:0:0:0:
480,136,34020,1,8,3:0:0:0:
472,232,34153,1,8,3:0:0:0:
316,112,34287,1,8,3:0:0:0:
304,20,34421,1,8,3:0:0:0:
124,180,34555,5,4,0:0:0:0:
80,216,35091,6,0,B|88:268|76:308|76:308|124:332,1,135.000005149842,0|8,1:0|3:0,0:0:0:0:
192,356,35493,1,0,0:0:0:0:
240,292,35627,2,0,P|244:256|244:224,1,67.5000025749208
240,144,35895,1,8,3:0:0:0:
484,104,36162,1,8,3:0:0:0:
408,332,36430,1,2,0:0:0:0:
392,252,36564,1,2,0:0:0:0:
376,172,36698,5,0,1:0:0:0:
56,104,36966,1,0,0:0:0:0:
308,160,37234,1,8,3:0:0:0:
120,356,37502,2,0,L|144:268,1,67.5000025749208,0|0,0:0|1:0,0:0:0:0:
164,204,37770,1,0,0:0:0:0:
188,116,37903,2,0,L|208:48,1,67.5000025749208,0|0,0:0|1:0,0:0:0:0:
476,176,38305,1,8,3:0:0:0:
234,347,38573,1,0,0:0:0:0:
388,109,38841,6,0,P|443:72|509:75,1,135.000005149842,0|0,1:0|0:0,0:0:0:0:
372,216,39377,2,0,P|312:187|281:128,1,135.000005149842,8|8,3:0|3:0,0:0:0:0:
264,48,39778,1,0,0:0:0:0:
104,60,39912,2,0,L|16:68,2,67.5000025749208,2|0|8,0:0|0:0|3:0,0:0:0:0:
264,48,40448,1,0,1:0:0:0:
212,356,40716,1,0,0:0:0:0:
204,276,40850,1,0,0:0:0:0:
196,196,40984,6,0,P|196:140|228:68,1,135.000005149842,0|8,1:0|3:0,0:0:0:0:
204,276,41519,1,0,1:0:0:0:
416,88,41787,1,0,0:0:0:0:
404,180,41921,1,2,0:0:0:0:
292,116,42055,1,0,0:0:0:0:
280,24,42189,1,0,0:0:0:0:
140,96,42323,2,0,L|136:168,1,67.5000025749208,2|0,0:0|0:0,0:0:0:0:
128,244,42591,1,0,1:0:0:0:
148,20,42859,1,0,0:0:0:0:
64,312,43127,6,0,B|120:348|184:320|184:320|224:304|260:316,1,202.500007724762,4|0,0:0|0:0,0:0:0:0:
336,344,43662,1,0,1:0:0:0:
416,204,43930,1,8,3:0:0:0:
364,52,44198,1,0,0:0:0:0:
284,60,44332,1,0,0:0:0:0:
204,68,44466,1,0,0:0:0:0:
300,268,44734,1,0,1:0:0:0:
64,248,45002,2,0,L|52:168,1,67.5000025749208,2|2,0:0|0:0,0:0:0:0:
60,100,45269,6,0,L|72:20,2,67.5000025749208,0|0|0,1:0|0:0|0:0,0:0:0:0:
260,96,45805,1,0,1:0:0:0:
164,272,46073,1,0,0:0:0:0:
236,308,46207,1,8,3:0:0:0:
316,300,46341,2,0,P|352:296|388:304,2,67.5000025749208,0|0|8,0:0|0:0|3:0,0:0:0:0:
100,328,46877,1,0,1:0:0:0:
92,48,47144,1,0,0:0:0:0:
168,80,47278,1,0,0:0:0:0:
244,48,47412,6,0,P|276:44|312:48,1,67.5000025749208,0|0,1:0|0:0,0:0:0:0:
476,88,47680,2,0,L|472:176,1,67.5000025749208
290,279,47948,2,0,L|284:212,1,67.5000007867814,2|0,0:0|0:0,0:0:0:0:
276,124,48216,1,0,0:0:0:0:
80,208,48484,1,2,0:0:0:0:
68,288,48618,1,0,0:0:0:0:
56,368,48752,1,8,3:0:0:0:
92,128,49019,1,0,1:0:0:0:
282,280,49287,1,2,0:0:0:0:
364,288,49421,1,2,0:0:0:0:
444,296,49555,5,4,3:0:0:0:
384,52,49823,1,0,0:0:0:0:
282,280,50091,1,0,0:0:0:0:
488,152,50359,1,0,0:0:0:0:
264,124,50627,2,0,B|164:128|176:188|76:192,1,202.500007724762,0|0,0:0|1:0,0:0:0:0:
36,200,51095,1,0,1:0:0:0:
0,180,51162,1,0,1:0:0:0:
68,20,51430,5,0,1:0:0:0:
96,104,51564,1,0,1:0:0:0:
77,191,51698,6,0,P|72:240|80:300,1,90,4|0,0:0|0:0,0:0:0:0:
160,364,51966,1,2,0:0:0:0:
356,236,52100,2,0,L|352:112,1,90,0|0,0:0|1:0,0:0:0:0:
152,28,52368,2,0,L|149:117,1,90,0|2,0:0|0:0,0:0:0:0:
140,236,52636,1,0,1:0:0:0:
232,308,52769,2,0,P|276:316|320:312,1,90,0|2,0:0|0:0,0:0:0:0:
432,276,53037,1,0,1:0:0:0:
288,48,53305,2,0,B|240:40|200:64|200:64|160:44|112:56,1,180,0|0,1:0|0:0,0:0:0:0:
8,104,53707,1,0,0:0:0:0:
64,332,53841,6,0,P|116:336|164:328,1,90,0|0,1:0|0:0,0:0:0:0:
268,300,54109,1,2,0:0:0:0:
108,86,54243,2,0,L|108:176,1,90,0|0,0:0|1:0,0:0:0:0:
372,248,54511,2,0,P|408:210|433:168,1,90,0|2,0:0|0:0,0:0:0:0:
64,64,54778,1,0,1:0:0:0:
64,64,54912,2,0,L|64:154,1,90,2|0,0:0|0:0,0:0:0:0:
64,332,55180,2,0,B|112:344|152:328|152:328|199:311|244:324,1,180,0|0,1:0|1:0,0:0:0:0:
472,360,55716,1,2,0:0:0:0:
400,136,55984,6,0,B|384:88|404:36|404:36|372:48|328:44,1,180,0|2,1:0|0:0,0:0:0:0:
112,136,56519,2,0,B|128:88|108:36|108:36|140:48|184:44,1,180,0|2,1:0|0:0,0:0:0:0:
256,136,56921,1,0,0:0:0:0:
256,252,57055,2,0,L|256:344,1,90,0|0,1:0|0:0,0:0:0:0:
140,368,57323,1,0,1:0:0:0:
28,328,57457,1,0,0:0:0:0:
8,212,57591,1,0,1:0:0:0:
372,368,57859,1,2,0:0:0:0:
484,328,57993,1,0,0:0:0:0:
504,212,58127,5,0,1:0:0:0:
256,24,58394,1,0,1:0:0:0:
136,224,58662,1,0,1:0:0:0:
184,332,58796,1,0,0:0:0:0:
300,316,58930,1,2,0:0:0:0:
316,200,59064,1,0,1:0:0:0:
216,136,59198,5,0,1:0:0:0:
136,224,59332,1,8,3:0:0:0:
32,172,59466,1,2,0:0:0:0:
52,56,59600,1,0,1:0:0:0:
164,24,59734,2,0,P|212:32|260:56,1,90,8|0,3:0|0:0,0:0:0:0:
300,316,60002,1,0,1:0:0:0:
408,364,60136,1,2,0:0:0:0:
488,284,60269,6,0,P|496:232|496:168,1,90,4|0,0:0|0:0,0:0:0:0:
324,36,60537,1,2,0:0:0:0:
324,36,60671,2,0,P|326:80|333:125,1,90,0|0,0:0|1:0,0:0:0:0:
360,240,60939,1,0,0:0:0:0:
244,236,61073,2,0,L|154:232,1,90,2|0,0:0|1:0,0:0:0:0:
47,22,61341,2,0,L|44:112,1,90,2|0,0:0|0:0,0:0:0:0:
36,228,61609,1,0,1:0:0:0:
232,352,61877,1,0,1:0:0:0:
476,228,62144,1,2,0:0:0:0:
492,112,62278,1,2,0:0:0:0:
416,24,62412,6,0,P|324:24|256:76,1,180,0|2,1:0|0:0,0:0:0:0:
256,192,62814,1,0,0:0:0:0:
256,75,62948,2,0,P|184:24|96:24,1,180,0|2,1:0|0:0,0:0:0:0:
4,100,63350,1,0,1:0:0:0:
52,208,63484,2,0,L|44:312,1,90,0|2,0:0|0:0,0:0:0:0:
232,376,63752,2,0,L|224:272,1,90,0|0,1:0|0:0,0:0:0:0:
204,92,64019,1,0,1:0:0:0:
300,28,64153,1,0,0:0:0:0:
412,60,64287,1,2,0:0:0:0:
460,168,64421,1,0,0:0:0:0:
460,168,64488,1,0,0:0:0:0:
460,168,64555,6,0,P|468:220|464:272,1,90,0|0,1:0|0:0,0:0:0:0:
428,368,64823,1,2,0:0:0:0:
88,240,65091,2,0,L|192:228,1,90,0|0,1:0|0:0,0:0:0:0:
296,220,65359,1,2,0:0:0:0:
232,35,65493,1,0,1:0:0:0:
232,35,65627,2,0,P|223:79|228:124,1,90,0|2,0:0|0:0,0:0:0:0:
368,312,65895,2,0,L|480:304,1,90,0|0,1:0|0:0,0:0:0:0:
296,220,66162,1,0,1:0:0:0:
236,320,66296,1,0,0:0:0:0:
120,296,66430,1,2,0:0:0:0:
116,180,66564,1,2,0:0:0:0:
220,128,66698,5,8,3:0:0:0:
368,312,66966,1,0,1:0:0:0:
456,236,67100,1,0,1:0:0:0:
480,120,67234,2,0,P|484:76|480:24,1,90,8|0,3:0|0:0,0:0:0:0:
112,76,67502,1,0,1:0:0:0:
84,188,67636,1,0,1:0:0:0:
120,296,67770,2,0,L|236:288,1,90,8|0,3:0|1:0,0:0:0:0:
476,276,68037,1,0,1:0:0:0:
400,44,68171,1,0,1:0:0:0:
208,184,68305,2,0,P|140:192|52:108,1,180,8|0,3:0|1:0,0:0:0:0:
164,76,68707,1,0,1:0:0:0:
80,300,68841,5,4,0:0:0:0:
84,116,77412,5,2,0:0:0:0:
92,128,77680,2,0,B|104:172|88:232|88:232|120:212,1,135.000005149842
196,184,78082,1,0,0:0:0:0:
280,204,78216,1,8,3:0:0:0:
340,268,78350,1,0,0:0:0:0:
340,356,78484,2,0,P|384:296|444:268,1,135.000005149842,0|8,0:0|3:0,0:0:0:0:
492,200,78886,2,0,L|496:120,1,67.5000025749208,0|0,0:0|1:0,0:0:0:0:
348,36,79153,2,0,L|352:116,1,67.5000025749208,0|2,0:0|0:0,0:0:0:0:
212,204,79421,1,0,0:0:0:0:
212,204,79555,6,0,P|148:208|72:172,1,135.000005149842,0|0,1:0|0:0,0:0:0:0:
20,120,79957,2,0,L|16:32,1,67.5000025749208
347,141,80225,2,0,P|324:166|296:184,1,67.5000025749208
28,268,80493,2,0,L|24:180,1,67.5000025749208,0|0,1:0|0:0,0:0:0:0:
264,32,80761,1,0,0:0:0:0:
264,32,80894,2,0,L|268:99,1,67.5000025749208,0|0,1:0|0:0,0:0:0:0:
272,188,81162,1,8,3:0:0:0:
296,272,81296,1,0,0:0:0:0:
368,324,81430,2,0,B|432:316|432:352|500:344,1,135.000005149842
476,80,81966,6,0,P|476:120|480:152,1,67.5000025749208
496,236,82234,1,0,1:0:0:0:
336,40,82368,1,0,0:0:0:0:
248,52,82502,2,0,P|214:55|180:55,1,67.5000025749208,8|0,3:0|0:0,0:0:0:0:
4,192,82769,2,0,P|37:188|71:188,1,67.5000025749208
156,204,83037,1,8,3:0:0:0:
143,53,83171,2,0,L|132:120,1,67.5000025749208,0|0,0:0|1:0,0:0:0:0:
100,272,83439,2,0,L|112:348,1,67.5000025749208
248,224,83707,1,0,0:0:0:0:
320,272,83841,6,0,P|384:296|464:268,1,135.000005149842,0|8,1:0|3:0,0:0:0:0:
392,64,84243,1,0,0:0:0:0:
388,152,84377,1,0,1:0:0:0:
212,104,84511,1,0,0:0:0:0:
208,16,84644,1,0,0:0:0:0:
35,65,84778,2,0,L|31:161,1,67.5000025749208,2|0,0:0|0:0,0:0:0:0:
160,292,85046,1,0,0:0:0:0:
160,292,85180,2,0,L|164:388,1,67.5000025749208,2|0,0:0|0:0,0:0:0:0:
28,220,85448,1,0,1:0:0:0:
162,359,85582,1,0,0:0:0:0:
217,173,85716,2,0,L|219:105,1,67.5000025749208
292,282,85984,6,0,B|344:308|392:292|392:292|416:268,1,135.000005149842,0|0,1:0|0:0,0:0:0:0:
476,68,86519,2,0,B|424:42|376:58|376:58|352:82,1,135.000005149842,0|8,1:0|3:0,0:0:0:0:
300,148,86921,1,0,0:0:0:0:
99,91,87055,2,0,P|93:58|91:25,1,67.5000025749208
176,48,87323,1,8,3:0:0:0:
220,188,87457,2,0,P|218:221|211:254,1,67.5000025749208,0|0,0:0|1:0,0:0:0:0:
40,356,87725,2,0,P|33:322|31:289,1,67.5000025749208,0|2,0:0|0:0,0:0:0:0:
20,132,87993,1,0,0:0:0:0:
162,201,88127,6,0,B|228:220|232:184|296:200,1,135.000005149842,0|0,1:0|0:0,0:0:0:0:
376,228,88528,1,0,0:0:0:0:
432,160,88662,2,0,P|432:124|428:88,1,67.5000025749208,0|0,1:0|0:0,0:0:0:0:
308,288,88930,1,0,0:0:0:0:
500,328,89064,2,0,L|496:244,1,67.5000025749208,2|0,0:0|0:0,0:0:0:0:
216,268,89332,1,0,0:0:0:0:
404,308,89466,2,0,L|400:224,1,67.5000025749208,2|0,0:0|0:0,0:0:0:0:
288,84,89734,2,0,B|232:68|232:68|156:80,1,135.000005149842,0|0,1:0|0:0,0:0:0:0:
72,100,90136,1,0,0:0:0:0:
136,336,90269,6,0,B|136:304|152:280|152:280|140:204,1,135.000005149842,0|0,1:0|0:0,0:0:0:0:
376,48,90805,2,0,B|376:80|360:104|360:104|372:180,1,135.000005149842,0|8,1:0|3:0,0:0:0:0:
388,268,91207,1,0,0:0:0:0:
440,340,91341,2,0,P|472:339|508:348,2,67.5000025749208,0|0|8,0:0|0:0|3:0,0:0:0:0:
196,364,91877,1,0,1:0:0:0:
288,136,92144,1,0,0:0:0:0:
300,224,92278,1,0,0:0:0:0:
312,312,92412,5,2,0:0:0:0:
276,48,92680,1,2,0:0:0:0:
66,212,92948,1,0,1:0:0:0:
312,312,93216,1,2,0:0:0:0:
400,300,93350,1,8,3:0:0:0:
488,288,93484,2,0,L|476:200,1,67.5000025749208
278,69,93752,6,0,L|288:136,1,67.5000025749208,8|8,3:0|3:0,0:0:0:0:
300,224,94019,1,8,3:0:0:0:
464,136,94153,1,8,3:0:0:0:
312,312,94287,1,8,3:0:0:0:
452,48,94421,1,8,3:0:0:0:
153,58,94555,5,4,0:0:0:0:
108,88,95091,6,0,B|92:156|124:156|108:224,1,135.000005149842,0|8,1:0|3:0,0:0:0:0:
88,308,95493,1,0,0:0:0:0:
200,120,95627,2,0,P|236:112|272:112,1,67.5000025749208
356,120,95894,1,8,3:0:0:0:
488,336,96162,2,0,P|452:344|416:344,1,67.5000025749208,8|0,3:0|0:0,0:0:0:0:
332,332,96430,2,0,P|297:317|268:297,1,67.5000025749208,2|0,0:0|0:0,0:0:0:0:
200,120,96698,6,0,P|132:112|72:140,1,135.000005149842,0|0,1:0|0:0,0:0:0:0:
4,196,97100,1,0,0:0:0:0:
56,268,97234,2,0,B|60:300|60:300|56:336,1,67.5000025749208,0|0,1:0|0:0,0:0:0:0:
256,376,97502,1,0,0:0:0:0:
256,376,97636,2,0,L|252:308,1,67.5000025749208,0|0,1:0|0:0,0:0:0:0:
200,120,97903,1,0,0:0:0:0:
200,120,98037,2,0,L|196:52,1,67.5000025749208,0|0,1:0|0:0,0:0:0:0:
152,244,98305,1,8,3:0:0:0:
392,96,98573,1,0,0:0:0:0:
400,377,98841,6,0,B|352:360|352:360|256:376,1,135.000005149842,0|0,1:0|0:0,0:0:0:0:
21,240,99377,2,0,B|69:257|69:257|152:244,1,135.000005149842,0|8,1:0|3:0,0:0:0:0:
256,112,99778,1,0,0:0:0:0:
256,112,99912,2,0,L|252:24,1,67.5000025749208,2|0,0:0|0:0,0:0:0:0:
380,252,100180,2,0,L|383:184,1,67.5000025749208,8|0,3:0|0:0,0:0:0:0:
155,311,100448,2,0,L|152:244,1,67.5000025749208,0|0,1:0|0:0,0:0:0:0:
36,24,100716,2,0,L|32:91,1,67.5000025749208
21,240,100984,6,0,B|69:257|69:257|152:244,1,135.000005149842,0|8,1:0|3:0,0:0:0:0:
412,216,101519,1,0,1:0:0:0:
260,20,101787,1,0,0:0:0:0:
268,108,101921,1,0,1:0:0:0:
80,160,102055,1,0,0:0:0:0:
88,72,102189,1,0,0:0:0:0:
276,196,102323,2,0,L|284:284,1,67.5000025749208,0|0,1:0|0:0,0:0:0:0:
65,315,102591,2,0,L|72:248,1,67.5000025749208,8|0,3:0|0:0,0:0:0:0:
260,20,102859,2,0,L|268:108,1,67.5000025749208
32,324,103127,6,0,B|96:308|96:308|164:324,1,135.000005149842,4|0,0:0|0:0,0:0:0:0:
420,376,103662,1,8,3:0:0:0:
488,120,103930,1,0,1:0:0:0:
404,92,104064,1,0,0:0:0:0:
316,104,104198,2,0,P|280:108|248:104,2,67.5000025749208,0|0|8,0:0|0:0|3:0,0:0:0:0:
392,328,104734,1,0,1:0:0:0:
308,356,104868,1,0,0:0:0:0:
220,344,105002,2,0,P|184:340|152:344,1,67.5000025749208,2|0,0:0|0:0,0:0:0:0:
4,368,105269,6,0,P|0:292|12:204,1,135.000005149842,0|0,1:0|0:0,0:0:0:0:
208,24,105805,2,0,P|212:100|200:188,1,135.000005149842,0|8,1:0|3:0,0:0:0:0:
172,316,106207,1,0,1:0:0:0:
172,316,106341,2,0,L|260:312,1,67.5000025749208
468,308,106609,1,8,3:0:0:0:
460,48,106877,1,0,1:0:0:0:
200,56,107144,1,0,0:0:0:0:
112,60,107278,1,0,0:0:0:0:
24,64,107412,6,0,P|20:104|24:148,1,67.5000025749208,0|0,1:0|0:0,0:0:0:0:
216,216,107680,2,0,P|217:182|213:148,1,67.5000025749208
200,56,107948,1,0,1:0:0:0:
45,342,108216,1,0,1:0:0:0:
132,364,108350,1,0,0:0:0:0:
212,324,108484,2,0,P|245:320|279:321,2,67.5000025749208,2|0|8,0:0|0:0|3:0,0:0:0:0:
112,60,109019,1,0,1:0:0:0:
400,60,109287,1,2,0:0:0:0:
408,148,109421,1,2,0:0:0:0:
416,236,109555,5,4,3:0:0:0:
151,28,109823,1,0,0:0:0:0:
245,354,110091,1,0,0:0:0:0:
359,36,110359,1,0,0:0:0:0:
81,224,110627,2,0,B|72:276|104:284|92:356|92:356|96:336|112:308|132:304,1,202.500007724762,0|0,0:0|1:0,0:0:0:0:
168,292,111095,1,0,1:0:0:0:
208,304,111162,1,0,1:0:0:0:
428,364,111430,5,0,1:0:0:0:
476,292,111564,1,0,1:0:0:0:
435,199,111698,6,0,P|431:155|435:110,1,90,4|0,0:0|0:0,0:0:0:0:
344,276,111966,1,2,0:0:0:0:
92,196,112100,2,0,P|47:192|2:196,1,90,0|0,0:0|1:0,0:0:0:0:
176,360,112368,2,0,P|220:363|265:359,1,90,0|2,0:0|0:0,0:0:0:0:
344,276,112636,1,0,1:0:0:0:
192,32,112769,2,0,L|188:121,1,90,0|2,0:0|0:0,0:0:0:0:
176,360,113037,1,0,1:0:0:0:
392,240,113305,2,0,B|404:180|380:180|400:128|400:128|380:156|344:160,1,180,0|0,1:0|0:0,0:0:0:0:
312,48,113707,1,0,0:0:0:0:
240,272,113841,6,0,P|232:316|232:364,1,90,0|0,1:0|0:0,0:0:0:0:
344,328,114109,1,2,0:0:0:0:
196,44,114243,2,0,L|84:40,1,90,0|0,0:0|1:0,0:0:0:0:
32,280,114511,2,0,L|144:276,1,90,0|2,0:0|0:0,0:0:0:0:
376,260,114778,1,0,1:0:0:0:
376,260,114912,2,0,P|373:215|376:170,1,90,2|0,0:0|0:0,0:0:0:0:
412,56,115180,2,0,B|352:36|300:76|300:76|272:96|236:92,1,180,0|0,1:0|1:0,0:0:0:0:
12,56,115716,1,2,0:0:0:0:
0,300,115984,6,0,B|44:280|60:236|60:236|100:224|148:248,1,180,0|2,1:0|0:0,0:0:0:0:
512,300,116519,2,0,B|468:280|452:236|452:236|412:224|365:247,1,180,0|2,1:0|0:0,0:0:0:0:
256,292,116921,1,0,0:0:0:0:
256,176,117055,2,0,L|256:80,1,90,0|0,1:0|0:0,0:0:0:0:
156,24,117323,1,0,1:0:0:0:
40,52,117457,1,0,0:0:0:0:
8,164,117591,1,0,1:0:0:0:
304,375,117859,1,2,0:0:0:0:
224,292,117993,1,0,1:0:0:0:
256,176,118127,6,0,B|248:108|280:108|280:52|276:32|260:16|236:36|244:56,1,180,0|0,1:0|1:0,0:0:0:0:
56,288,118662,1,0,1:0:0:0:
456,288,118930,1,0,0:0:0:0:
468,172,119064,1,0,0:0:0:0:
376,100,119198,5,0,1:0:0:0:
340,296,119332,1,8,3:0:0:0:
260,76,119466,1,2,0:0:0:0:
184,300,119600,1,0,1:0:0:0:
112,72,119734,1,8,3:0:0:0:
296,188,119868,1,0,0:0:0:0:
64,192,120002,2,0,P|48:232|44:280,1,90,0|2,1:0|0:0,0:0:0:0:
272,368,120269,6,0,L|388:360,1,90,4|0,0:0|0:0,0:0:0:0:
456,288,120537,1,2,0:0:0:0:
352,24,120671,2,0,P|342:67|343:112,1,90,0|0,0:0|1:0,0:0:0:0:
456,288,120939,2,0,P|465:244|464:199,1,90,0|2,0:0|0:0,0:0:0:0:
232,112,121207,1,0,1:0:0:0:
232,112,121341,2,0,L|140:108,1,90,2|0,0:0|0:0,0:0:0:0:
24,104,121609,1,0,1:0:0:0:
156,364,121877,1,0,1:0:0:0:
344,120,122144,1,2,0:0:0:0:
232,112,122278,1,2,0:0:0:0:
116,104,122412,6,0,B|96:160|116:220|116:220|108:200|84:216|60:216,1,180,0|2,1:0|0:0,0:0:0:0:
316,164,122814,1,0,0:0:0:0:
316,164,122948,2,0,B|364:148|412:168|412:168|448:156|448:156|488:176,1,180,0|2,1:0|0:0,0:0:0:0:
348,360,123350,1,0,0:0:0:0:
348,360,123484,2,0,L|356:264,1,90,0|2,0:0|0:0,0:0:0:0:
376,44,123752,1,0,1:0:0:0:
88,177,124019,1,0,0:0:0:0:
44,284,124153,1,0,0:0:0:0:
140,352,124287,1,2,0:0:0:0:
244,300,124421,1,0,0:0:0:0:
348,360,124555,6,0,B|376:368|376:368|404:356|404:356|436:360|464:356|464:356|456:328|460:296,1,180,0|2,1:0|0:0,1:0:0:0:
480,64,125091,1,0,1:0:0:0:
480,64,125225,2,0,L|356:68,1,90,0|2,0:0|0:0,0:0:0:0:
96,76,125493,2,0,P|88:120|92:168,1,90,0|0,1:0|0:0,0:0:0:0:
104,284,125761,1,2,0:0:0:0:
104,284,125894,2,0,L|208:280,1,90,0|0,1:0|0:0,0:0:0:0:
312,280,126162,1,0,1:0:0:0:
356,72,126296,1,0,0:0:0:0:
428,276,126430,1,2,0:0:0:0:
220,76,126564,1,2,0:0:0:0:
16,279,126698,6,0,P|16:324|28:368,1,90,8|0,3:0|0:0,0:0:0:0:
184,168,126966,1,0,1:0:0:0:
4,104,127100,1,0,1:0:0:0:
164,304,127234,2,0,P|204:312|256:312,1,90,8|0,3:0|0:0,0:0:0:0:
152,100,127502,1,0,1:0:0:0:
16,279,127636,1,0,1:0:0:0:
404,232,127769,2,0,L|400:142,1,90,0|0,3:0|1:0,0:0:0:0:
276,28,128037,1,0,1:0:0:0:
144,228,128171,1,0,1:0:0:0:
356,328,128305,2,0,P|400:336|452:328,1,90,8|0,3:0|0:0,0:0:0:0:
396,24,128573,1,0,1:0:0:0:
64,36,128707,1,0,1:0:0:0:
241,318,128841,5,4,0:0:0:0:
132,112,137412,5,2,0:0:0:0:
152,152,137680,2,0,L|148:248,1,90,0|8,0:0|0:0,0:0:0:0:
100,348,138216,1,2,0:0:0:0:
100,348,138350,2,0,P|160:356|228:324,1,135
440,88,139020,1,8,0:0:0:0:
404,200,139287,1,2,0:0:0:0:
488,280,139555,6,0,P|488:324|484:372,1,90
324,116,140091,2,0,P|319:69|320:26,1,90,8|0,0:0|0:0,0:0:0:0:
160,280,140627,2,0,L|156:369,1,90
52,180,141162,2,0,P|92:148|216:144,1,180,2|2,0:0|0:0,0:0:0:0:
316,204,141966,5,0,0:0:0:0:
412,140,142234,2,0,P|416:92|412:44,1,90,8|2,0:0|0:0,0:0:0:0:
412,140,142636,2,0,B|456:160|500:148|500:148|476:220|512:220|496:280,1,225,0|8,0:0|0:0,0:0:0:0:
420,372,143573,1,2,0:0:0:0:
244,188,143841,5,0,0:0:0:0:
220,304,144109,1,0,0:0:0:0:
12,104,144377,1,8,0:0:0:0:
128,80,144645,1,0,0:0:0:0:
16,276,144912,2,0,P|8:316|8:356,1,67.5
32,380,145180,6,0,L|112:376,1,67.5000025749208,0|8,1:0|3:0,0:0:0:0:
252,216,145448,2,0,L|248:144,1,67.5000025749208,0|8,1:0|3:0,0:0:0:0:
464,304,145716,2,0,L|460:376,1,67.5000025749208,0|8,1:0|3:0,0:0:0:0:
353,82,145984,6,0,P|409:46|476:43,1,135.000005149842,4|2,0:0|0:0,0:0:0:0:
456,180,146386,1,0,0:0:0:0:
320,216,146520,2,0,P|260:185|224:128,1,135.000005149842,8|0,3:0|1:0,0:0:0:0:
80,32,146921,1,0,0:0:0:0:
80,32,147055,2,0,L|72:104,1,67.5000025749208,2|0,0:0|0:0,0:0:0:0:
88,260,147323,2,0,L|96:332,1,67.5000025749208,8|0,3:0|0:0,0:0:0:0:
224,168,147591,2,0,B|280:148|304:184|356:160,1,135.000005149842,0|2,1:0|0:0,0:0:0:0:
440,128,147993,1,2,0:0:0:0:
468,316,148127,6,0,B|476:368|476:368|440:356|392:372,1,135.000005149842,0|2,1:0|0:0,0:0:0:0:
308,380,148528,1,0,0:0:0:0:
104,324,148662,2,0,L|100:240,1,67.5000025749208,0|0,1:0|0:0,0:0:0:0:
96,168,148930,1,2,0:0:0:0:
256,32,149198,1,8,3:0:0:0:
344,40,149332,1,0,0:0:0:0:
432,48,149466,5,8,3:0:0:0:
316,304,149734,1,0,1:0:0:0:
240,348,149868,1,2,0:0:0:0:
172,296,150002,1,2,0:0:0:0:
96,340,150136,1,2,0:0:0:0:
28,284,150270,6,0,B|8:240|16:196|16:196|60:176,1,135.000005149842,0|0,1:0|0:0,0:0:0:0:
144,164,150671,1,0,0:0:0:0:
344,21,150805,2,0,B|364:65|356:109|356:109|316:128,1,135.000005149842,0|8,1:0|3:0,0:0:0:0:
232,148,151207,1,0,0:0:0:0:
336,344,151341,2,0,L|424:340,1,67.5000025749208,2|0,0:0|0:0,0:0:0:0:
512,180,151609,2,0,L|424:176,1,67.5000025749208,0|0,1:0|0:0,0:0:0:0:
264,16,151877,1,8,3:0:0:0:
40,120,152145,1,0,0:0:0:0:
60,244,152278,1,0,0:0:0:0:
80,364,152412,6,0,B|128:348|128:348|180:352,1,101.250003862381,0|0,1:0|0:0,0:0:0:0:
316,272,152680,6,0,P|324:208|312:136,1,135,2|0,0:0|0:0,0:0:0:0:
156,32,152948,2,0,P|148:88|160:168,1,135,2|0,0:0|0:0,0:0:0:0:
340,204,153216,2,0,L|476:200,1,135,2|0,0:0|0:0,0:0:0:0:
159,165,153484,6,0,P|112:200|160:240,1,135,2|0,0:0|1:0,0:0:0:0:
200,236,153953,1,0,1:0:0:0:
248,228,154020,6,0,L|244:328,1,90,0|0,1:0|0:0,0:0:0:0:
468,372,154287,1,0,1:0:0:0:
500,168,154421,1,0,1:0:0:0:
348,24,154555,5,4,1:0:0:0:
32,136,160984,6,0,L|48:108,3,31.4999990386963,8|0|0|0,3:0|0:0|0:0|0:0,0:0:0:0:
76,76,161252,2,0,L|104:60,3,31.4999990386963,8|0|0|0,3:0|0:0|0:0|0:0,0:0:0:0:
152,52,161520,6,0,L|216:52,3,35.9999990463257,8|0|0|0,3:0|0:0|3:0|0:0,0:0:0:0:
240,64,161787,2,0,L|288:88,3,40.4999976911546,8|0|0|0,3:0|0:0|0:0|0:0,0:0:0:0:
312,104,162055,5,8,3:0:0:0:
336,144,162122,1,0,0:0:0:0:
324,188,162189,1,0,0:0:0:0:
320,236,162256,1,0,0:0:0:0:
336,280,162323,1,8,3:0:0:0:
376,308,162390,1,0,0:0:0:0:
424,308,162457,1,0,0:0:0:0:
468,288,162524,1,0,0:0:0:0:
480,244,162591,2,0,B|464:148|464:148|480:84,1,161.999995056153,8|0,2:0|0:0,0:0:0:0:
492,44,163127,6,0,P|448:52|400:48,1,90,4|0,0:0|0:0,0:0:0:0:
288,32,163394,1,2,0:0:0:0:
316,264,163528,2,0,L|320:356,1,90,0|0,0:0|1:0,0:0:0:0:
428,304,163796,1,0,0:0:0:0:
204,226,163930,2,0,L|207:315,1,90,2|0,0:0|1:0,0:0:0:0:
424,188,164198,2,0,B|440:120|420:64|420:64|348:60,1,180,0|0,0:0|1:0,0:0:0:0:
248,56,164600,1,0,0:0:0:0:
372,280,164734,2,0,P|416:292|464:288,1,90,0|0,1:0|0:0,0:0:0:0:
136,84,165002,2,0,P|94:100|60:129,1,90
424,188,165269,6,0,L|432:96,1,90,0|0,1:0|0:0,0:0:0:0:
156,196,165537,1,2,0:0:0:0:
156,196,165671,2,0,L|159:285,1,90,0|0,0:0|1:0,0:0:0:0:
252,124,165939,1,0,0:0:0:0:
368,108,166073,2,0,B|412:100|464:116,1,90,2|0,0:0|1:0,0:0:0:0:
396,372,166341,1,2,0:0:0:0:
488,300,166475,1,0,0:0:0:0:
380,256,166609,2,0,L|272:248,1,90,0|0,1:0|0:0,0:0:0:0:
443,99,166877,2,0,P|463:139|472:184,1,90,0|0,1:0|0:0,0:0:0:0:
188,356,167144,2,0,P|196:311|216:271,1,90,2|0,0:0|0:0,0:0:0:0:
352,36,167412,6,0,B|284:24|240:72|240:72|216:68|216:68|184:72,1,180,0|2,1:0|0:0,0:0:0:0:
357,322,167948,2,0,P|360:232|332:148,1,180,0|2,1:0|0:0,0:0:0:0:
276,44,168350,1,0,0:0:0:0:
160,52,168484,2,0,L|56:60,1,90,0|0,1:0|0:0,0:0:0:0:
24,168,168752,1,0,1:0:0:0:
92,264,168886,1,0,0:0:0:0:
52,372,169019,1,0,1:0:0:0:
280,168,169287,1,2,0:0:0:0:
312,280,169421,1,0,0:0:0:0:
396,200,169555,6,0,B|408:132|376:96|376:96|424:40,1,180,0|0,1:0|1:0,0:0:0:0:
428,368,170091,1,0,1:0:0:0:
428,368,170225,2,0,P|384:372|336:360,1,90,0|2,0:0|0:0,0:0:0:0:
228,320,170493,1,0,1:0:0:0:
204,40,170627,5,0,1:0:0:0:
260,144,170761,1,8,3:0:0:0:
168,216,170894,1,2,0:0:0:0:
228,320,171028,1,0,1:0:0:0:
204,40,171162,5,8,3:0:0:0:
228,320,171296,1,0,0:0:0:0:
76,284,171430,1,0,1:0:0:0:
260,144,171564,1,2,0:0:0:0:
376,352,171698,6,0,P|420:364|468:360,1,90,4|0,0:0|0:0,0:0:0:0:
432,248,171966,1,2,0:0:0:0:
216,230,172100,2,0,L|228:320,1,90,0|0,0:0|1:0,0:0:0:0:
448,132,172368,2,0,L|459:42,1,90,0|2,0:0|0:0,0:0:0:0:
432,248,172636,1,0,1:0:0:0:
267,121,172769,2,0,P|223:111|178:115,1,90,2|0,0:0|0:0,0:0:0:0:
58,286,173037,2,0,P|138:324|228:319,1,180,0|0,1:0|1:0,0:0:0:0:
464,16,173573,1,2,0:0:0:0:
448,132,173707,1,2,0:0:0:0:
432,248,173841,6,0,B|376:252|376:232|316:236|316:236|344:232|362:197,1,180,0|2,1:0|0:0,0:0:0:0:
199,39,174377,2,0,P|154:31|109:35,1,90,0|0,1:0|0:0,0:0:0:0:
0,76,174644,1,2,0:0:0:0:
308,84,174778,1,0,1:0:0:0:
144,348,174912,2,0,L|148:248,1,90,0|2,0:0|0:0,0:0:0:0:
152,140,175180,1,0,1:0:0:0:
329,251,175314,1,0,0:0:0:0:
444,236,175448,2,0,P|448:192|444:144,1,90,0|0,1:0|0:0,0:0:0:0:
212,264,175716,2,0,P|208:308|212:356,1,90,2|0,0:0|0:0,0:0:0:0:
380,48,175984,6,0,P|296:16|208:28,1,180,0|2,1:0|0:0,0:0:0:0:
268,272,176386,1,0,0:0:0:0:
268,272,176519,2,0,L|280:156,1,90,0|0,1:0|0:0,0:0:0:0:
292,68,176787,1,2,0:0:0:0:
140,304,176921,2,0,P|100:304|48:292,1,90,0|0,1:0|0:0,0:0:0:0:
16,96,177189,1,2,0:0:0:0:
16,96,177323,2,0,P|56:96|108:108,1,90,0|0,1:0|0:0,0:0:0:0:
344,160,177591,2,0,B|372:104|344:36|344:36|396:48,1,180,0|2,1:0|0:0,0:0:0:0:
512,72,177993,1,2,0:0:0:0:
263,232,178127,6,0,P|219:240|175:233,1,90,8|0,3:0|0:0,0:0:0:0:
24,192,178394,1,0,1:0:0:0:
56,348,178528,1,0,1:0:0:0:
220,124,178662,2,0,L|216:28,1,90,8|0,3:0|0:0,0:0:0:0:
44,24,178930,1,0,1:0:0:0:
24,192,179064,1,0,1:0:0:0:
336,140,179198,2,0,P|384:132|428:140,1,90,8|0,3:0|1:0,0:0:0:0:
388,316,179466,1,0,1:0:0:0:
220,124,179600,1,0,1:0:0:0:
112,344,179734,2,0,B|60:328|60:328|16:344|16:344|-8:308|0:264,1,180,8|0,3:0|1:0,0:0:0:0:
216,70,180269,6,0,P|220:97|220:123,1,53.9999983520508,2|0,0:0|0:0,0:0:0:0:
27,138,180537,2,0,P|23:164|23:191,1,53.9999983520508,2|0,0:0|0:0,0:0:0:0:
216,200,180805,2,0,P|212:226|205:252,1,53.9999983520508,10|0,0:0|0:0,0:0:0:0:
32,268,181073,2,0,P|35:294|42:320,1,53.9999983520508,2|0,0:0|0:0,0:0:0:0:
64,352,181274,1,0,0:0:0:0:
64,352,181341,2,0,B|116:336|120:360|172:352,1,107.999996704102,2|2,0:0|0:0,0:0:0:0:
304,280,181877,2,0,L|300:226,1,53.9999983520508,8|0,0:0|0:0,0:0:0:0:
440,352,182144,2,0,L|444:296,1,53.9999983520508
464,40,182412,6,0,P|437:32|411:29,1,53.9999983520508,2|0,0:0|0:0,0:0:0:0:
396,202,182680,2,0,P|369:209|343:212,1,53.9999983520508,2|0,0:0|0:0,0:0:0:0:
336,32,182948,2,0,P|309:36|283:44,1,53.9999983520508,10|0,0:0|0:0,0:0:0:0:
268,208,183216,2,0,P|241:203|215:195,1,53.9999983520508,2|0,0:0|0:0,0:0:0:0:
180,176,183417,1,0,0:0:0:0:
180,176,183484,2,0,B|164:232|192:232|176:304,1,107.999996704102,2|2,0:0|0:0,0:0:0:0:
60,376,184019,1,8,0:0:0:0:
0,236,184287,1,0,0:0:0:0:
48,92,184555,6,0,P|84:52|132:28,1,107.999996704102,10|2,0:0|0:0,0:0:0:0:
233,182,185091,2,0,L|180:176,1,53.9999983520508,10|0,0:0|0:0,0:0:0:0:
360,44,185359,2,0,L|306:50,1,53.9999983520508,2|0,0:0|0:0,0:0:0:0:
452,188,185627,2,0,P|460:220|464:256,1,53.9999983520508,10|0,0:0|0:0,0:0:0:0:
280,360,185894,2,0,P|284:333|290:307,1,53.9999983520508,2|0,0:0|0:0,0:0:0:0:
464,324,186162,1,8,0:0:0:0:
312,228,186296,1,0,0:0:0:0:
148,288,186430,1,0,1:0:0:0:
112,296,186497,1,0,1:0:0:0:
76,296,186564,1,0,1:0:0:0:
40,288,186631,1,0,1:0:0:0:
8,264,186698,6,0,L|4:160,1,72,2|0,0:0|0:0,0:0:0:0:
232,268,186966,1,0,1:0:0:0:
4,108,187100,2,0,L|0:8,1,72,2|0,0:0|0:0,0:0:0:0:
232,268,187368,1,0,1:0:0:0:
456,36,187502,5,2,0:0:0:0:
452,84,187569,1,0,1:0:0:0:
448,132,187636,1,0,1:0:0:0:
444,180,187703,1,0,1:0:0:0:
440,228,187769,1,4,3:0:0:0:
328,188,187903,1,8,3:0:0:0:
352,332,188037,1,4,3:0:0:0:
320,184,188171,1,8,3:0:0:0:
216,356,188305,1,4,3:0:0:0:
312,180,188439,1,8,3:0:0:0:
80,344,188573,1,4,3:0:0:0:
304,176,188707,1,8,3:0:0:0:
4,232,188841,6,0,B|-4:172|-4:172|4:124|4:124|12:136|12:152,1,135
11,148,189310,1,2,0:0:0:0:
11,148,189377,6,0,P|48:152|112:136,1,99.0000030212403,4|0,0:0|0:0,0:0:0:0:
224,84,189644,1,2,0:0:0:0:
248,304,189778,1,0,1:0:0:0:
248,304,189845,1,0,0:0:0:0:
248,304,189912,2,0,B|296:316|296:292|348:304,1,99.0000030212403,2|0,0:0|0:0,0:0:0:0:
472,332,190180,2,0,B|488:272|456:232|456:232|424:188|436:144,1,198.000006042481,0|0,1:0|1:0,0:0:0:0:
96,56,190716,1,2,0:0:0:0:
224,84,190850,1,2,0:0:0:0:
136,184,190984,6,0,B|124:240|160:256|136:320|136:320|136:288|120:264,1,198.000006042481,0|2,1:0|0:0,0:0:0:0:
4,324,191386,1,0,0:0:0:0:
96,56,191519,2,0,B|168:36|224:84|224:84|248:104|280:104,1,198.000000797272,0|2,1:0|0:0,0:0:0:0:
508,52,191921,1,0,1:0:0:0:
508,52,192055,2,0,P|516:100|512:152,1,99.0000030212403,0|2,0:0|0:0,0:0:0:0:
248,328,192323,2,0,P|244:278|252:230,1,99.0000030212403,0|0,1:0|0:0,0:0:0:0:
280,104,192591,1,0,1:0:0:0:
472,272,192725,1,0,0:0:0:0:
376,16,192859,1,2,0:0:0:0:
376,356,192993,1,0,0:0:0:0:
81,186,193127,6,0,B|72:128|100:100|72:48|72:48|88:76|116:80,1,198.000006042481,0|2,1:0|0:0,0:0:0:0:
404,140,193662,1,0,1:0:0:0:
404,140,193796,2,0,P|408:192|404:240,1,99.0000030212403,0|2,0:0|0:0,0:0:0:0:
308,328,194064,2,0,L|204:324,1,99.0000030212403,0|0,1:0|0:0,0:0:0:0:
91,93,194332,2,0,L|88:192,1,99.0000030212403,2|0,0:0|1:0,0:0:0:0:
80,320,194600,1,0,0:0:0:0:
284,140,194734,2,0,P|288:92|284:40,1,99.0000030212403,0|0,1:0|0:0,0:0:0:0:
164,92,195002,1,2,0:0:0:0:
404,92,195136,1,2,0:0:0:0:
284,299,195269,6,0,L|140:292,1,99.0000030212403,8|0,3:0|0:0,0:0:0:0:
0,284,195537,1,0,1:0:0:0:
100,128,195671,1,0,1:0:0:0:
292,192,195805,2,0,P|295:142|289:93,1,99.0000030212403,8|0,3:0|0:0,0:0:0:0:
40,44,196073,1,0,1:0:0:0:
0,284,196207,1,0,1:0:0:0:
248,300,196341,2,0,L|346:295,1,99.0000030212403,8|0,3:0|1:0,0:0:0:0:
476,100,196609,1,0,1:0:0:0:
264,28,196743,1,0,1:0:0:0:
248,356,196877,5,8,3:0:0:0:
384,40,197011,1,2,0:0:0:0:
90,217,197144,1,2,0:0:0:0:
432,248,197278,1,2,0:0:0:0:
173,21,197412,5,4,0:0:0:0:
