osu file format v14

[General]
AudioFilename: gfriend-rough.mp3
AudioLeadIn: 0
PreviewTime: 51162
Countdown: 0
SampleSet: Soft
StackLeniency: 0.7
Mode: 0
LetterboxInBreaks: 0
WidescreenStoryboard: 1

[Editor]
Bookmarks: 8841,53171,68841,77412
DistanceSpacing: 1
BeatDivisor: 4
GridSize: 4
TimelineZoom: 1.8

[Metadata]
Title:Rough
TitleUnicode:시간을 달려서
Artist:GFRIEND
ArtistUnicode:여자친구
Creator:Norman
Version:Normal
Source:
Tags:소원 예린 은하 유주 신비 엄지 SNOWFLAKE 쏘스뮤직 kpop
BeatmapID:915063
BeatmapSetID:409464

[Difficulty]
HPDrainRate:3
CircleSize:3.4
OverallDifficulty:3.5
ApproachRate:5
SliderMultiplier:1.59999990463257
SliderTickRate:1

[Events]
//Background and Video events
0,0,"rough.jpg",0,0
Video,-336,"pv.avi"
//Break Periods
2,69040,76212
2,129040,136212
2,154754,159784
//Storyboard Layer 0 (Background)
//Storyboard Layer 1 (Fail)
//Storyboard Layer 2 (Pass)
//Storyboard Layer 3 (Foreground)
//Storyboard Sound Samples

[TimingPoints]
270,535.714285714286,4,2,0,100,1,0
8841,-100,4,2,0,70,0,0
15270,-100,4,2,0,80,0,0
17145,-100,4,2,0,60,0,0
18216,-100,4,2,0,50,0,0
18350,-100,4,2,0,60,0,0
18752,-100,4,2,0,50,0,0
18886,-100,4,2,0,60,0,0
22502,-100,4,2,0,50,0,0
22636,-100,4,2,0,60,0,0
23037,-100,4,2,0,50,0,0
23171,-100,4,2,0,60,0,0
25046,-100,4,2,0,40,0,0
25180,-100,4,2,0,60,0,0
26787,-100,4,2,0,50,0,0
26921,-100,4,2,0,60,0,0
27323,-100,4,2,0,50,0,0
27457,-100,4,2,0,60,0,0
31073,-100,4,2,0,50,0,0
31207,-100,4,2,0,60,0,0
31609,-100,4,2,0,50,0,0
31877,-100,4,2,0,60,0,0
33752,-100,4,2,0,40,0,0
34555,-100,4,2,0,60,0,0
35359,-100,4,2,0,50,0,0
35493,-100,4,2,0,60,0,0
35895,-100,4,2,0,50,0,0
36162,-100,4,2,0,60,0,0
39645,-100,4,2,0,50,0,0
39778,-100,4,2,0,60,0,0
40180,-100,4,2,0,50,0,0
40448,-100,4,2,0,60,0,0
41252,-100,4,2,0,50,0,0
41520,-100,4,2,0,60,0,0
44466,-100,4,2,0,50,0,0
44734,-100,4,2,0,60,0,0
46207,-100,4,2,0,50,0,0
46341,-100,4,2,0,60,0,0
46609,-100,4,2,0,50,0,0
47145,-100,4,2,0,60,0,0
48752,-100,4,2,0,50,0,0
49020,-100,4,2,0,60,0,0
49287,-100,4,2,0,50,0,0
51028,-100,4,2,0,70,0,0
51430,-100,4,2,0,60,0,0
51698,-100,4,2,0,80,0,1
68841,-100,4,2,0,80,0,0
77412,-100,4,2,0,70,0,0
77680,-100,4,2,0,50,0,0
78216,-100,4,2,0,40,0,0
78350,-100,4,2,0,50,0,0
78752,-100,4,2,0,40,0,0
78886,-100,4,2,0,50,0,0
81698,-100,4,2,0,60,0,0
82502,-100,4,2,0,50,0,0
82636,-100,4,2,0,60,0,0
83037,-100,4,2,0,50,0,0
83171,-100,4,2,0,60,0,0
84109,-100,4,2,0,50,0,0
84243,-100,4,2,0,60,0,0
86787,-100,4,2,0,50,0,0
86921,-100,4,2,0,60,0,0
87323,-100,4,2,0,50,0,0
87457,-100,4,2,0,60,0,0
91073,-100,4,2,0,50,0,0
91207,-100,4,2,0,60,0,0
91609,-100,4,2,0,50,0,0
91877,-100,4,2,0,60,0,0
93752,-100,4,2,0,40,0,0
94555,-100,4,2,0,60,0,0
95359,-100,4,2,0,50,0,0
95493,-100,4,2,0,60,0,0
95895,-100,4,2,0,50,0,0
96162,-100,4,2,0,60,0,0
99645,-100,4,2,0,50,0,0
99778,-100,4,2,0,60,0,0
100180,-100,4,2,0,50,0,0
100314,-100,4,2,0,60,0,0
101252,-100,4,2,0,50,0,0
101520,-100,4,2,0,60,0,0
103662,-100,4,2,0,50,0,0
103930,-100,4,2,0,60,0,0
104466,-100,4,2,0,50,0,0
104734,-100,4,2,0,60,0,0
106073,-100,4,2,0,50,0,0
106207,-100,4,2,0,60,0,0
106609,-100,4,2,0,50,0,0
106877,-100,4,2,0,60,0,0
108752,-100,4,2,0,50,0,0
109020,-100,4,2,0,60,0,0
109287,-100,4,2,0,50,0,0
111028,-100,4,2,0,70,0,0
111430,-100,4,2,0,60,0,0
111698,-100,4,2,0,80,0,1
128841,-100,4,2,0,80,0,0
137412,-100,4,2,0,60,0,0
137948,-100,4,2,0,40,0,0
138082,-100,4,2,0,60,0,0
139020,-100,4,2,0,40,0,0
139153,-100,4,2,0,60,0,0
140091,-100,4,2,0,40,0,0
140225,-100,4,2,0,60,0,0
142234,-100,4,2,0,40,0,0
142368,-100,4,2,0,60,0,0
143305,-100,4,2,0,40,0,0
143439,-100,4,2,0,60,0,0
144377,-100,4,2,0,40,0,0
144511,-100,4,2,0,60,0,0
145180,-100,4,2,0,70,0,0
145314,-100,4,2,0,50,0,0
145448,-100,4,2,0,70,0,0
145582,-100,4,2,0,50,0,0
145716,-100,4,2,0,70,0,0
145850,-100,4,2,0,50,0,0
145984,-100,4,2,0,60,0,0
146520,-100,4,2,0,50,0,0
146653,-100,4,2,0,60,0,0
147323,-100,4,2,0,50,0,0
147457,-100,4,2,0,60,0,0
149198,-100,4,2,0,40,0,0
149332,-100,4,2,0,60,0,0
149466,-100,4,2,0,40,0,0
149734,-100,4,2,0,60,0,0
151073,-100,4,2,0,50,0,0
151207,-100,4,2,0,60,0,0
152412,-100,4,2,0,70,0,0
152680,-100,4,2,0,70,0,0
153484,-100,4,2,0,80,0,0
153886,-100,4,2,0,80,0,0
154287,-100,4,2,0,60,0,0
154555,-100,4,2,0,50,0,0
160984,-100,4,2,0,60,0,0
161520,-100,4,2,0,50,0,0
161787,-100,4,2,0,70,0,0
162055,-100,4,2,0,80,0,0
162323,-100,4,2,0,70,0,0
162591,-100,4,2,0,80,0,0
163127,-100,4,2,0,80,0,1
180270,-100,4,2,0,60,0,0
186430,-100,4,2,0,50,0,0
186698,-100,4,2,0,70,0,0
188841,-100,4,2,0,45,0,0
189377,-100,4,2,0,80,0,1
197412,-100,4,2,0,80,0,0

[Colours]
Combo1 : 179,179,102
Combo2 : 192,192,192
Combo3 : 0,85,170
Combo4 : 174,94,94

[HitObjects]
96,144,8841,6,0,B|176:124|176:164|256:144,1,159.999990463257,4|8,0:0|0:0,0:0:0:0:
332,120,9645,1,0,1:0:0:0:
412,124,9912,2,0,L|492:128,2,79.9999952316285,0|0|8,0:0|0:0|0:0,0:0:0:0:
368,192,10716,1,0,0:0:0:0:
436,236,10984,6,0,P|360:272|292:224,1,159.999990463257,0|8,1:0|0:0,0:0:0:0:
220,236,11787,2,0,P|151:271|83:234,1,159.999990463257,0|0,0:0|0:0,0:0:0:0:
152,192,12591,2,0,P|156:152|152:108,1,79.9999952316285,8|0,0:0|0:0,0:0:0:0:
136,32,13127,6,0,L|304:28,1,159.999990463257,0|8,1:0|0:0,0:0:0:0:
376,24,13930,1,0,1:0:0:0:
456,20,14198,2,0,B|456:68|416:92|416:92|448:76|488:92,1,159.999990463257,0|8,0:0|0:0,0:0:0:0:
452,164,15002,1,0,0:0:0:0:
388,212,15270,6,0,P|376:252|380:332,1,119.999992847443,0|0,1:0|1:0,0:0:0:0:
388,368,15805,2,0,P|324:348|252:360,1,119.999992847443,0|0,1:0|1:0,0:0:0:0:
232,364,16341,2,0,P|192:372|152:372,1,79.9999952316285,0|0,1:0|1:0,0:0:0:0:
72,364,16877,1,0,1:0:0:0:
44,288,17145,2,0,L|40:232,1,39.9999976158143,0|0,1:0|1:0,0:0:0:0:
36,208,17412,6,0,P|88:208|180:136,1,159.999990463257,4|8,0:0|3:0,0:0:0:0:
220,84,18216,2,0,B|264:68|316:88|316:88|308:56|324:28,1,159.999990463257,8|8,3:0|3:0,0:0:0:0:
392,68,19020,1,8,3:0:0:0:
468,44,19287,1,2,0:0:0:0:
452,124,19555,6,0,B|432:200|468:200|452:284,1,159.999990463257,0|8,1:0|3:0,0:0:0:0:
340,324,20493,2,0,B|280:308|280:308|224:324,1,119.999992847443,2|2,0:0|0:0,0:0:0:0:
148,348,21162,1,8,3:0:0:0:
88,292,21430,2,0,P|84:252|88:212,1,79.9999952316285,0|0,0:0|1:0,0:0:0:0:
112,52,22234,5,8,3:0:0:0:
192,68,22502,2,0,B|268:76|268:40|352:48,1,159.999990463257,8|8,3:0|3:0,0:0:0:0:
428,68,23305,2,0,L|436:152,1,79.9999952316285,0|2,1:0|0:0,0:0:0:0:
428,228,23841,6,0,L|420:307,1,79.9999952316285,0|0,1:0|0:0,0:0:0:0:
356,352,24377,2,0,P|304:368|236:356,1,119.999992847443,0|2,1:0|0:0,0:0:0:0:
124,328,25180,1,2,0:0:0:0:
88,256,25448,2,0,P|84:216|88:176,1,79.9999952316285,2|0,0:0|0:0,0:0:0:0:
64,100,25984,6,0,B|108:88|144:120|144:120|128:88|144:48,1,159.999990463257,0|8,1:0|3:0,0:0:0:0:
216,84,26787,1,8,3:0:0:0:
288,48,27055,2,0,P|328:40|368:44,1,79.9999952316285,2|8,0:0|3:0,0:0:0:0:
440,80,27591,2,0,B|464:160|420:160|440:240,1,159.999990463257,0|0,1:0|1:0,0:0:0:0:
456,316,28395,5,0,0:0:0:0:
380,336,28662,2,0,B|328:348|328:348|252:332,1,119.999992847443,8|2,3:0|0:0,0:0:0:0:
148,304,29466,2,0,L|144:224,1,79.9999952316285,2|8,0:0|3:0,0:0:0:0:
136,144,30002,1,0,0:0:0:0:
88,80,30270,6,0,P|144:64|216:128,1,159.999990463257,0|8,1:0|3:0,0:0:0:0:
264,192,31073,2,0,B|344:216|344:172|424:192,1,159.999990463257,2|8,0:0|3:0,0:0:0:0:
480,248,31877,2,0,P|484:288|484:328,1,79.9999952316285,0|0,1:0|0:0,0:0:0:0:
416,372,32412,6,0,L|336:376,2,79.9999952316285,2|2|0,0:0|0:0|1:0,0:0:0:0:
484,327,33216,2,0,P|496:252|484:168,1,159.999990463257,2|8,0:0|3:0,0:0:0:0:
456,96,34020,1,8,3:0:0:0:
396,44,34287,1,8,3:0:0:0:
316,40,34555,6,0,B|244:36|240:80|160:72,1,159.999990463257,4|0,0:0|1:0,0:0:0:0:
80,64,35359,1,8,3:0:0:0:
40,132,35627,2,0,P|32:172|32:212,2,79.9999952316285,0|8|8,0:0|3:0|3:0,0:0:0:0:
80,64,36430,1,2,0:0:0:0:
161,72,36698,6,0,B|224:80|224:80|316:52,1,159.999990463257,0|8,1:0|3:0,0:0:0:0:
432,16,37636,2,0,P|432:72|408:136,1,119.999992847443,0|0,1:0|1:0,0:0:0:0:
364,196,38305,1,8,3:0:0:0:
288,220,38573,1,0,0:0:0:0:
208,204,38841,6,0,B|128:188|128:232|48:204,1,159.999990463257,0|8,1:0|3:0,0:0:0:0:
4,140,39645,1,8,3:0:0:0:
4,140,39912,2,0,L|0:52,1,79.9999952316285,2|8,0:0|3:0,0:0:0:0:
76,32,40448,2,0,P|116:24|156:28,1,79.9999952316285,0|0,1:0|0:0,0:0:0:0:
232,48,40984,5,0,1:0:0:0:
308,28,41252,2,0,P|347:24|386:32,1,79.9999952316285,8|0,3:0|1:0,0:0:0:0:
480,108,41921,2,0,P|500:164|500:224,1,119.999992847443,2|2,0:0|0:0,0:0:0:0:
472,300,42591,2,0,L|388:296,1,79.9999952316285,0|0,1:0|0:0,0:0:0:0:
324,256,43127,6,0,B|308:288|316:316|316:316|268:304|268:328|216:316,1,159.999990463257,4|0,0:0|1:0,0:0:0:0:
144,292,43930,2,0,P|112:268|72:156,1,159.999990463257,8|0,3:0|0:0,0:0:0:0:
76,80,44734,1,0,1:0:0:0:
132,24,45002,1,2,0:0:0:0:
212,40,45270,6,0,B|284:64|296:20|368:52,1,159.999990463257,0|0,1:0|1:0,0:0:0:0:
432,100,46073,2,0,B|436:160|436:160|424:204|424:204|428:260,1,159.999990463257,0|8,0:0|3:0,0:0:0:0:
436,340,46877,1,0,1:0:0:0:
356,348,47145,1,0,0:0:0:0:
280,324,47412,6,0,P|252:300|228:256,1,79.9999952316285,0|0,1:0|0:0,0:0:0:0:
212,184,47948,2,0,P|218:147|244:104,1,79.9999952316285,2|0,0:0|0:0,0:0:0:0:
304,60,48484,2,0,P|338:47|388:48,2,79.9999952316285,2|8|0,0:0|3:0|1:0,0:0:0:0:
239,110,49287,1,2,0:0:0:0:
239,110,49555,6,0,B|196:116|176:148|176:148|140:96|80:108|40:144|52:212|84:256|160:228|160:228|120:292|176:348,1,479.999971389771,4|0,3:0|1:0,0:0:0:0:
224,280,51430,1,0,1:0:0:0:
300,304,51698,6,0,P|340:312|380:308,1,79.9999952316285,4|2,0:0|0:0,0:0:0:0:
452,276,52234,2,0,L|448:128,2,119.999992847443,0|0|0,1:0|1:0|1:0,0:0:0:0:
378,308,53305,2,0,P|340:304|300:312,1,79.9999952316285,0|0,1:0|0:0,0:0:0:0:
224,336,53841,5,0,1:0:0:0:
152,376,54109,1,2,0:0:0:0:
92,320,54377,2,0,P|68:272|56:208,2,119.999992847443,0|0|0,1:0|1:0|1:0,0:0:0:0:
152,376,55448,2,0,L|236:372,1,79.9999952316285,0|2,1:0|0:0,0:0:0:0:
312,372,55984,6,0,B|312:320|268:300|268:300|300:312|336:296,1,159.999990463257,0|0,1:0|1:0,0:0:0:0:
296,224,56787,1,2,0:0:0:0:
252,156,57055,2,0,P|244:120|248:76,2,79.9999952316285,0|0|0,1:0|1:0|1:0,0:0:0:0:
324,116,57859,1,2,0:0:0:0:
324,196,58127,6,0,P|264:240|188:212,1,159.999990463257,0|0,1:0|1:0,0:0:0:0:
136,152,58930,1,2,0:0:0:0:
104,80,59198,2,0,B|72:104|72:104|56:144,1,79.9999952316285,0|2,1:0|0:0,0:0:0:0:
48,220,59734,2,0,B|52:248|52:248|64:264|64:264|68:300,1,79.9999952316285,8|0,3:0|1:0,0:0:0:0:
120,356,60270,6,0,B|192:376|200:324|276:348,1,159.999990463257,4|0,0:0|1:0,0:0:0:0:
392,316,61207,2,0,P|408:240|396:164,1,119.999992847443,0|0,1:0|1:0,0:0:0:0:
392,120,61877,1,0,1:0:0:0:
340,56,62145,1,2,0:0:0:0:
260,60,62412,6,0,B|200:64|200:64|168:84|168:84|104:88,1,159.999990463257,0|0,1:0|1:0,0:0:0:0:
24,92,63216,1,2,0:0:0:0:
28,172,63484,2,0,L|32:264,1,79.9999952316285,0|0,0:0|1:0,0:0:0:0:
36,332,64020,1,0,1:0:0:0:
104,288,64287,1,2,0:0:0:0:
177,249,64555,6,0,P|176:326|112:368,2,159.999990463257,0|0|0,1:0|1:0|0:0,0:0:0:0:
136,180,65895,1,0,1:0:0:0:
160,104,66162,2,0,P|176:68|204:36,1,79.9999952316285,0|2,1:0|0:0,0:0:0:0:
280,20,66698,6,0,L|364:16,1,79.9999952316285,8|0,3:0|1:0,0:0:0:0:
380,96,67234,2,0,L|300:99,1,79.9999952316285,8|0,3:0|1:0,0:0:0:0:
320,180,67770,2,0,L|399:176,1,79.9999952316285,8|0,3:0|1:0,0:0:0:0:
418,256,68305,2,0,L|339:260,2,79.9999952316285,8|0|4,3:0|1:0|0:0,0:0:0:0:
124,92,77412,6,0,P|130:38|198:74,1,159.999990463257,2|0,0:0|0:0,0:0:0:0:
178,152,78216,1,8,3:0:0:0:
160,228,78484,2,0,P|160:272|168:312,1,79.9999952316285,0|8,0:0|3:0,0:0:0:0:
216,368,79020,1,0,1:0:0:0:
296,368,79287,1,2,0:0:0:0:
345,307,79555,6,0,P|360:232|356:148,1,159.999990463257,0|0,1:0|0:0,0:0:0:0:
256,80,80493,2,0,L|136:76,1,119.999992847443,0|0,1:0|1:0,0:0:0:0:
64,36,81162,2,0,P|56:76|68:120,1,79.9999952316285,8|0,3:0|0:0,0:0:0:0:
96,188,81698,6,0,B|120:248|104:296|104:296|152:276,1,159.999990463257,0|0,0:0|1:0,0:0:0:0:
224,248,82502,1,8,3:0:0:0:
304,260,82770,2,0,L|392:332,2,79.9999952316285,0|8|0,0:0|3:0|1:0,0:0:0:0:
272,184,83573,1,0,0:0:0:0:
316,116,83841,6,0,P|280:104|236:112,1,79.9999952316285,0|8,1:0|3:0,0:0:0:0:
163,136,84377,2,0,P|105:147|48:132,1,119.999992847443,0|2,1:0|0:0,0:0:0:0:
108,28,85180,1,2,0:0:0:0:
184,56,85448,2,0,P|220:76|244:112,1,79.9999952316285,0|0,1:0|0:0,0:0:0:0:
304,160,85984,6,0,B|384:184|384:136|460:160,1,159.999990463257,0|0,1:0|1:0,0:0:0:0:
424,232,86787,1,8,3:0:0:0:
476,292,87055,2,0,P|480:328|476:372,2,79.9999952316285,0|8|0,0:0|3:0|1:0,0:0:0:0:
424,232,87859,1,2,0:0:0:0:
344,224,88127,6,0,B|288:220|288:220|236:232|236:232|184:228,1,159.999990463257,0|0,1:0|1:0,0:0:0:0:
85,160,89064,2,0,P|67:217|76:276,1,119.999992847443,2|2,0:0|0:0,0:0:0:0:
116,348,89734,1,0,1:0:0:0:
192,368,90002,1,0,0:0:0:0:
256,320,90270,6,0,B|276:244|236:244|256:160,1,159.999990463257,0|0,1:0|1:0,0:0:0:0:
324,120,91073,2,0,P|256:84|188:120,1,159.999990463257,8|8,3:0|3:0,0:0:0:0:
144,188,91877,1,0,1:0:0:0:
144,268,92145,1,0,0:0:0:0:
216,304,92412,6,0,B|252:316|252:316|296:316,2,79.9999952316285,2|2|0,0:0|0:0|1:0,0:0:0:0:
144,268,93216,2,0,B|144:188|144:188|136:156|136:156|136:108,1,159.999990463257,2|8,0:0|3:0,0:0:0:0:
136,28,94020,1,8,3:0:0:0:
216,20,94287,1,8,3:0:0:0:
296,28,94555,6,0,B|340:28|368:60|368:60|408:44|448:60,1,159.999990463257,4|0,0:0|1:0,0:0:0:0:
408,132,95359,1,8,3:0:0:0:
412,212,95627,2,0,L|416:300,1,79.9999952316285,0|8,0:0|3:0,0:0:0:0:
456,360,96162,2,0,B|396:388|352:340|352:340|288:348,1,159.999990463257,8|0,3:0|1:0,0:0:0:0:
228,344,96966,6,0,L|136:336,1,79.9999952316285,0|0,0:0|1:0,0:0:0:0:
28,352,97636,2,0,P|32:292|68:244,1,119.999992847443,0|0,1:0|1:0,0:0:0:0:
136,204,98305,2,0,P|140:164|136:120,1,79.9999952316285,8|0,3:0|0:0,0:0:0:0:
92,56,98841,6,0,B|128:36|168:52|168:52|204:64|248:48,1,159.999990463257,0|0,1:0|1:0,0:0:0:0:
324,24,99645,1,8,3:0:0:0:
376,84,99912,2,0,L|384:172,1,79.9999952316285,2|8,0:0|3:0,0:0:0:0:
464,156,100448,2,0,L|456:76,2,79.9999952316285,0|0|0,1:0|0:0|1:0,0:0:0:0:
464,236,101252,6,0,L|456:315,1,79.9999952316285,8|0,3:0|1:0,0:0:0:0:
340,348,101921,2,0,B|280:336|280:336|220:348,1,119.999992847443,0|0,1:0|1:0,0:0:0:0:
144,364,102591,1,8,3:0:0:0:
64,348,102859,1,0,0:0:0:0:
24,276,103127,6,0,B|4:196|48:192|32:112,1,159.999990463257,4|8,0:0|3:0,0:0:0:0:
4,44,103930,2,0,P|56:40|116:120,1,159.999990463257,0|8,1:0|3:0,0:0:0:0:
116,200,104734,1,0,1:0:0:0:
148,272,105002,1,2,0:0:0:0:
228,260,105270,6,0,B|304:248|316:304|384:292,1,159.999990463257,0|0,1:0|1:0,0:0:0:0:
428,360,106073,2,0,P|464:292|428:224,1,159.999990463257,8|8,3:0|3:0,0:0:0:0:
364,172,106877,1,0,1:0:0:0:
372,92,107145,1,0,0:0:0:0:
300,56,107412,6,0,P|260:48|220:48,1,79.9999952316285,0|0,1:0|0:0,0:0:0:0:
144,64,107948,2,0,P|108:83|77:109,1,79.9999952316285,0|0,1:0|1:0,0:0:0:0:
32,176,108484,1,2,0:0:0:0:
36,256,108752,2,0,L|40:344,1,79.9999952316285,8|0,3:0|1:0,0:0:0:0:
116,364,109287,1,2,0:0:0:0:
192,332,109555,6,0,B|256:304|320:328|320:328|268:288|256:240|260:192|288:156|348:132|420:156|432:232,1,479.999971389771,4|0,3:0|1:0,0:0:0:0:
352,240,111430,1,0,1:0:0:0:
396,304,111698,6,0,B|436:324|480:300|480:300,1,79.9999952316285,4|2,0:0|0:0,0:0:0:0:
432,232,112234,2,0,L|428:88,2,119.999992847443,0|0|0,1:0|1:0|1:0,0:0:0:0:
396,304,113305,1,0,1:0:0:0:
328,344,113573,1,0,0:0:0:0:
252,320,113841,6,0,P|216:316|172:320,1,79.9999952316285,0|2,1:0|0:0,0:0:0:0:
100,356,114377,2,0,B|84:308|108:272|108:272|80:240,2,119.999992847443,0|0|0,1:0|1:0|1:0,0:0:0:0:
172,319,115448,1,0,1:0:0:0:
244,356,115716,1,2,0:0:0:0:
316,320,115984,6,0,B|340:236|300:236|316:160,1,159.999990463257,0|0,1:0|1:0,0:0:0:0:
336,84,116787,1,2,0:0:0:0:
416,88,117055,2,0,L|500:92,2,79.9999952316285,0|0|0,1:0|1:0|1:0,0:0:0:0:
336,84,117859,1,2,0:0:0:0:
272,36,118127,6,0,P|260:116|352:160,1,159.999990463257,0|0,1:0|1:0,0:0:0:0:
392,192,118930,1,0,0:0:0:0:
400,272,119198,2,0,B|404:312|404:312|392:360,1,79.9999952316285,0|2,1:0|0:0,0:0:0:0:
316,356,119734,2,0,B|284:356|284:356|268:364|268:364|236:364,1,79.9999952316285,8|0,3:0|1:0,0:0:0:0:
156,364,120270,5,4,0:0:0:0:
88,320,120537,1,2,0:0:0:0:
52,248,120805,2,0,P|44:180|48:128,2,119.999992847443,0|0|0,1:0|1:0|1:0,0:0:0:0:
132,252,121877,2,0,P|164:244|212:244,1,79.9999952316285,0|2,1:0|0:0,0:0:0:0:
284,276,122412,6,0,P|344:292|444:280,1,159.999990463257,0|0,1:0|1:0,0:0:0:0:
512,244,123216,1,2,0:0:0:0:
508,164,123484,2,0,L|504:84,2,79.9999952316285,0|0|0,0:0|1:0|0:0,0:0:0:0:
512,244,124287,1,2,0:0:0:0:
440,281,124555,6,0,P|400:276|316:192,1,159.999990463257,0|0,1:0|1:0,0:0:0:0:
304,116,125359,1,2,0:0:0:0:
232,76,125627,2,0,P|192:72|148:80,1,79.9999952316285,0|0,0:0|1:0,0:0:0:0:
76,108,126162,2,0,P|44:133|19:170,1,79.9999952316285,0|2,1:0|0:0,0:0:0:0:
24,244,126698,6,0,L|28:332,1,79.9999952316285,8|0,3:0|1:0,0:0:0:0:
108,316,127234,2,0,L|104:228,1,79.9999952316285,8|0,3:0|1:0,0:0:0:0:
184,232,127770,2,0,L|188:320,1,79.9999952316285,0|0,3:0|1:0,0:0:0:0:
268,304,128305,2,0,L|264:216,2,79.9999952316285,8|0|4,3:0|1:0|0:0,0:0:0:0:
96,144,137412,6,0,B|172:120|172:168|252:144,1,159.999990463257,2|8,0:0|0:0,0:0:0:0:
300,76,138216,2,0,P|336:144|300:212,1,159.999990463257,2|0,0:0|0:0,0:0:0:0:
244,268,139020,1,8,0:0:0:0:
256,348,139287,1,2,0:0:0:0:
336,360,139555,6,0,P|376:360|416:356,1,79.9999952316285,0|0,0:0|0:0,0:0:0:0:
468,296,140091,2,0,P|468:256|464:216,1,79.9999952316285,8|0,0:0|0:0,0:0:0:0:
416,152,140627,2,0,B|336:136|328:168|256:156,1,159.999990463257,0|2,0:0|0:0,0:0:0:0:
112,92,141698,6,0,B|76:140|100:200|100:200|80:248,1,159.999990463257,2|8,0:0|0:0,0:0:0:0:
28,304,142502,2,0,B|68:336|116:316|116:316|112:352|136:380,1,159.999990463257,2|0,0:0|0:0,0:0:0:0:
196,328,143305,1,8,0:0:0:0:
268,360,143573,1,2,0:0:0:0:
340,328,143841,6,0,P|348:292|352:248,1,79.9999952316285,0|0,0:0|0:0,0:0:0:0:
348,168,144377,2,0,P|340:131|325:90,1,79.9999952316285,8|0,0:0|0:0,0:0:0:0:
276,28,144912,1,0,0:0:0:0:
196,36,145180,2,0,L|96:48,2,79.9999952316285,0|0|0,1:0|1:0|1:0,0:0:0:0:
244,100,145984,6,0,B|248:152|248:152|220:208|252:256,1,159.999990463257,4|8,0:0|3:0,0:0:0:0:
316,204,146787,1,0,1:0:0:0:
388,164,147055,2,0,P|428:160|468:164,1,79.9999952316285,2|8,0:0|3:0,0:0:0:0:
468,244,147591,2,0,P|428:248|388:244,1,79.9999952316285,0|2,1:0|0:0,0:0:0:0:
316,204,148127,6,0,B|240:184|236:220|156:204,1,159.999990463257,0|0,1:0|1:0,0:0:0:0:
80,180,148930,1,2,0:0:0:0:
40,112,149198,2,0,P|36:72|40:24,1,79.9999952316285,8|8,3:0|3:0,0:0:0:0:
120,32,149734,2,0,P|122:71|118:111,1,79.9999952316285,0|2,1:0|0:0,0:0:0:0:
80,180,150270,6,0,B|80:252|80:252|120:240|168:264,1,159.999990463257,0|0,1:0|1:0,0:0:0:0:
240,292,151073,1,8,3:0:0:0:
316,264,151341,2,0,P|352:256|400:256,1,79.9999952316285,2|0,0:0|1:0,0:0:0:0:
472,284,151877,2,0,L|468:368,2,79.9999952316285,8|0|0,3:0|0:0|1:0,0:0:0:0:
476,204,152680,5,2,0:0:0:0:
464,124,152948,1,2,0:0:0:0:
404,72,153216,1,2,0:0:0:0:
324,56,153484,2,0,B|244:48|240:96|168:88,1,159.999990463257,2|0,0:0|1:0,0:0:0:0:
104,136,154287,2,0,B|96:176|96:176|96:224,1,79.9999952316285,0|4,1:0|1:0,0:0:0:0:
216,48,160984,6,0,L|120:60,1,79.9999952316285,8|8,3:0|3:0,0:0:0:0:
68,100,161520,2,0,P|60:140|60:184,1,79.9999952316285,8|8,3:0|3:0,0:0:0:0:
76,256,162055,2,0,P|98:289|129:321,1,79.9999952316285,8|8,3:0|3:0,0:0:0:0:
196,360,162591,1,8,2:0:0:0:
308,244,163127,6,0,L|304:144,1,79.9999952316285,4|2,0:0|0:0,0:0:0:0:
272,92,163662,2,0,B|312:80|344:96|344:96|384:60,2,119.999992847443,0|0|0,1:0|1:0|1:0,0:0:0:0:
196,120,164734,1,0,1:0:0:0:
116,108,165002,1,0,0:0:0:0:
52,56,165270,6,0,P|36:92|36:132,1,79.9999952316285,0|2,1:0|0:0,0:0:0:0:
64,208,165805,2,0,P|76:260|72:328,2,119.999992847443,0|0|0,1:0|1:0|1:0,0:0:0:0:
36,132,166877,1,0,1:0:0:0:
116,108,167145,1,2,0:0:0:0:
196,120,167412,6,0,B|276:140|276:96|356:120,1,159.999990463257,0|0,1:0|1:0,0:0:0:0:
428,144,168216,1,2,0:0:0:0:
496,100,168484,2,0,L|500:20,2,79.9999952316285,0|0|0,1:0|1:0|1:0,0:0:0:0:
428,144,169287,1,2,0:0:0:0:
432,224,169555,6,0,L|436:304,1,79.9999952316285,0|0,1:0|1:0,0:0:0:0:
372,356,170091,2,0,P|332:364|292:360,1,79.9999952316285,0|2,1:0|0:0,0:0:0:0:
224,320,170627,2,0,B|180:300|180:300|140:300,1,79.9999952316285,0|2,1:0|0:0,0:0:0:0:
68,284,171162,2,0,B|56:244|56:244|60:196,1,79.9999952316285,8|0,3:0|1:0,0:0:0:0:
68,124,171698,5,4,0:0:0:0:
116,60,171966,1,2,0:0:0:0:
196,72,172234,2,0,B|256:88|260:56|314:71,2,119.999992847443,0|0|0,1:0|1:0|1:0,0:0:0:0:
115,60,173305,2,0,P|120:100|148:136,1,79.9999952316285,0|2,1:0|0:0,0:0:0:0:
192,196,173841,6,0,P|132:184|40:216,1,159.999990463257,0|0,1:0|1:0,0:0:0:0:
0,284,174645,1,2,0:0:0:0:
40,352,174912,2,0,P|80:360|120:360,2,79.9999952316285,0|0|0,0:0|1:0|1:0,0:0:0:0:
0,284,175716,1,2,0:0:0:0:
4,204,175984,6,0,L|8:112,1,79.9999952316285,0|2,1:0|0:0,0:0:0:0:
12,44,176520,1,0,1:0:0:0:
80,88,176787,1,2,0:0:0:0:
148,44,177055,2,0,P|188:36|228:40,1,79.9999952316285,0|0,0:0|1:0,0:0:0:0:
304,68,177591,2,0,P|337:90|363:121,1,79.9999952316285,0|2,1:0|0:0,0:0:0:0:
376,200,178127,6,0,L|380:300,1,79.9999952316285,8|0,3:0|1:0,0:0:0:0:
300,300,178662,2,0,L|296:220,1,79.9999952316285,8|0,3:0|1:0,0:0:0:0:
216,240,179198,2,0,L|220:320,1,79.9999952316285,8|0,3:0|1:0,0:0:0:0:
139,339,179734,2,0,L|136:260,1,79.9999952316285,8|0,3:0|1:0,0:0:0:0:
132,180,180270,6,0,B|136:104|88:48|88:48|160:72|184:24|264:48,1,319.999980926514,2|2,0:0|0:0,0:0:0:0:
352,180,181877,2,0,P|352:216|360:264,1,79.9999952316285,8|0,0:0|0:0,0:0:0:0:
412,320,182412,6,0,B|344:364|292:304|292:304|248:316|248:316|184:276|116:308,1,319.999980926514,2|2,0:0|0:0,0:0:0:0:
40,340,183752,1,2,0:0:0:0:
12,264,184020,2,0,P|4:220|8:172,1,79.9999952316285,8|0,0:0|0:0,0:0:0:0:
16,104,184555,6,0,L|184:80,1,159.999990463257,10|10,0:0|0:0,0:0:0:0:
337,81,185627,2,0,L|496:104,1,159.999990463257,10|8,0:0|0:0,0:0:0:0:
512,184,186430,1,0,1:0:0:0:
456,240,186698,6,0,B|440:304|472:304|456:358,2,119.999992847443,2|2|2,0:0|0:0|0:0,0:0:0:0:
512,184,187770,2,0,B|456:140|400:184|400:184|376:152|376:152|304:176|304:128|216:164,1,319.999980926514,4|0,3:0|0:0,0:0:0:0:
72,220,189377,6,0,B|76:296|76:296|64:344,2,119.999992847443,4|0|0,0:0|1:0|1:0,0:0:0:0:
64,140,190448,1,0,1:0:0:0:
96,68,190716,1,2,0:0:0:0:
176,80,190984,2,0,B|244:96|264:40|332:56,2,159.999990463257,0|0|0,1:0|1:0|0:0,0:0:0:0:
96,68,192323,1,0,1:0:0:0:
64,140,192591,2,0,P|56:184|56:228,1,79.9999952316285,0|2,1:0|0:0,0:0:0:0:
80,296,193127,6,0,L|180:292,1,79.9999952316285,0|2,1:0|0:0,0:0:0:0:
220,237,193662,2,0,P|240:292|220:348,2,119.999992847443,0|0|0,1:0|1:0|1:0,0:0:0:0:
172,176,194734,1,0,1:0:0:0:
196,100,195002,1,2,0:0:0:0:
276,92,195270,6,0,L|368:84,1,79.9999952316285,8|0,3:0|1:0,0:0:0:0:
372,164,195805,2,0,L|292:170,1,79.9999952316285,8|0,3:0|1:0,0:0:0:0:
308,252,196341,2,0,L|387:245,1,79.9999952316285,8|0,3:0|1:0,0:0:0:0:
404,327,196877,2,0,L|324:333,2,79.9999952316285,8|2|4,3:0|0:0|0:0,0:0:0:0:
