osu file format v14

[General]
AudioFilename: gfriend-rough.mp3
AudioLeadIn: 0
PreviewTime: 51162
Countdown: 0
SampleSet: Soft
StackLeniency: 0.7
Mode: 0
LetterboxInBreaks: 0
WidescreenStoryboard: 1

[Editor]
Bookmarks: 8841,68841,77412,177323
DistanceSpacing: 1.2
BeatDivisor: 4
GridSize: 4
TimelineZoom: 2

[Metadata]
Title:Rough
TitleUnicode:시간을 달려서
Artist:GFRIEND
ArtistUnicode:여자친구
Creator:Norman
Version:Insane
Source:
Tags:소원 예린 은하 유주 신비 엄지 SNOWFLAKE 쏘스뮤직 kpop
BeatmapID:1049381
BeatmapSetID:409464

[Difficulty]
HPDrainRate:6
CircleSize:4
OverallDifficulty:7
ApproachRate:9
SliderMultiplier:3.09999990463257
SliderTickRate:2

[Events]
//Background and Video events
0,0,"rough.jpg",0,0
Video,-336,"pv.avi"
//Break Periods
2,69040,76812
2,129041,136812
2,154755,160384
//Storyboard Layer 0 (Background)
//Storyboard Layer 1 (Fail)
//Storyboard Layer 2 (Pass)
//Storyboard Layer 3 (Foreground)
//Storyboard Sound Samples

[TimingPoints]
270,535.714285714286,4,2,0,100,1,0
8841,-133.333333333333,4,2,0,70,0,0
15270,-133.333333333333,4,2,0,80,0,0
17145,-133.333333333333,4,2,0,60,0,0
18216,-133.333333333333,4,2,0,50,0,0
18350,-133.333333333333,4,2,0,60,0,0
18752,-133.333333333333,4,2,0,50,0,0
18886,-133.333333333333,4,2,0,60,0,0
22502,-133.333333333333,4,2,0,50,0,0
22636,-133.333333333333,4,2,0,60,0,0
23037,-133.333333333333,4,2,0,50,0,0
23171,-133.333333333333,4,2,0,60,0,0
25046,-133.333333333333,4,2,0,40,0,0
25180,-133.333333333333,4,2,0,60,0,0
26787,-133.333333333333,4,2,0,50,0,0
26921,-133.333333333333,4,2,0,60,0,0
27323,-133.333333333333,4,2,0,50,0,0
27457,-133.333333333333,4,2,0,60,0,0
31073,-133.333333333333,4,2,0,50,0,0
31207,-133.333333333333,4,2,0,60,0,0
31609,-133.333333333333,4,2,0,50,0,0
31877,-133.333333333333,4,2,0,60,0,0
33752,-133.333333333333,4,2,0,40,0,0
34555,-133.333333333333,4,2,0,60,0,0
35359,-133.333333333333,4,2,0,50,0,0
35493,-133.333333333333,4,2,0,60,0,0
35895,-133.333333333333,4,2,0,50,0,0
36162,-133.333333333333,4,2,0,60,0,0
39645,-133.333333333333,4,2,0,50,0,0
39778,-133.333333333333,4,2,0,60,0,0
40180,-133.333333333333,4,2,0,50,0,0
40448,-133.333333333333,4,2,0,60,0,0
41252,-133.333333333333,4,2,0,50,0,0
41520,-133.333333333333,4,2,0,60,0,0
44466,-133.333333333333,4,2,0,50,0,0
44734,-133.333333333333,4,2,0,60,0,0
46207,-133.333333333333,4,2,0,50,0,0
46341,-133.333333333333,4,2,0,60,0,0
46609,-133.333333333333,4,2,0,50,0,0
47145,-133.333333333333,4,2,0,60,0,0
48752,-133.333333333333,4,2,0,50,0,0
49020,-133.333333333333,4,2,0,60,0,0
49287,-133.333333333333,4,2,0,50,0,0
50627,-200,4,2,0,50,0,0
51028,-133.333333333333,4,2,0,70,0,0
51430,-133.333333333333,4,2,0,60,0,0
51698,-100,4,2,0,80,0,1
68841,-100,4,2,0,80,0,0
77412,-133.333333333333,4,2,0,70,0,0
77680,-133.333333333333,4,2,0,50,0,0
78216,-133.333333333333,4,2,0,40,0,0
78350,-133.333333333333,4,2,0,50,0,0
78752,-133.333333333333,4,2,0,40,0,0
78886,-133.333333333333,4,2,0,50,0,0
81698,-133.333333333333,4,2,0,60,0,0
82502,-133.333333333333,4,2,0,50,0,0
82636,-133.333333333333,4,2,0,60,0,0
83037,-133.333333333333,4,2,0,50,0,0
83171,-133.333333333333,4,2,0,60,0,0
84109,-133.333333333333,4,2,0,50,0,0
84243,-133.333333333333,4,2,0,60,0,0
86787,-133.333333333333,4,2,0,50,0,0
86921,-133.333333333333,4,2,0,60,0,0
87323,-133.333333333333,4,2,0,50,0,0
87457,-133.333333333333,4,2,0,60,0,0
91073,-133.333333333333,4,2,0,50,0,0
91207,-133.333333333333,4,2,0,60,0,0
91609,-133.333333333333,4,2,0,50,0,0
91877,-133.333333333333,4,2,0,60,0,0
93752,-133.333333333333,4,2,0,40,0,0
94555,-133.333333333333,4,2,0,60,0,0
95359,-133.333333333333,4,2,0,50,0,0
95493,-133.333333333333,4,2,0,60,0,0
95895,-133.333333333333,4,2,0,50,0,0
96162,-133.333333333333,4,2,0,60,0,0
99645,-133.333333333333,4,2,0,50,0,0
99778,-133.333333333333,4,2,0,60,0,0
100180,-133.333333333333,4,2,0,50,0,0
100314,-133.333333333333,4,2,0,60,0,0
101252,-133.333333333333,4,2,0,50,0,0
101520,-133.333333333333,4,2,0,60,0,0
103662,-133.333333333333,4,2,0,50,0,0
103930,-133.333333333333,4,2,0,60,0,0
104466,-133.333333333333,4,2,0,50,0,0
104734,-133.333333333333,4,2,0,60,0,0
106073,-133.333333333333,4,2,0,50,0,0
106207,-133.333333333333,4,2,0,60,0,0
106609,-133.333333333333,4,2,0,50,0,0
106877,-133.333333333333,4,2,0,60,0,0
108752,-133.333333333333,4,2,0,50,0,0
109020,-133.333333333333,4,2,0,60,0,0
109287,-133.333333333333,4,2,0,50,0,0
110627,-200,4,2,0,50,0,0
111028,-133.333333333333,4,2,0,70,0,0
111430,-133.333333333333,4,2,0,60,0,0
111698,-100,4,2,0,80,0,1
128841,-200,4,2,0,80,0,0
137412,-200,4,2,0,60,0,0
137948,-200,4,2,0,40,0,0
138082,-200,4,2,0,60,0,0
139020,-200,4,2,0,40,0,0
139153,-200,4,2,0,60,0,0
140091,-200,4,2,0,40,0,0
140225,-200,4,2,0,60,0,0
142234,-200,4,2,0,40,0,0
142368,-200,4,2,0,60,0,0
143305,-200,4,2,0,40,0,0
143439,-200,4,2,0,60,0,0
144377,-200,4,2,0,40,0,0
144511,-200,4,2,0,60,0,0
145180,-133.333333333333,4,2,0,70,0,0
145314,-133.333333333333,4,2,0,50,0,0
145448,-133.333333333333,4,2,0,70,0,0
145582,-133.333333333333,4,2,0,50,0,0
145716,-133.333333333333,4,2,0,70,0,0
145850,-133.333333333333,4,2,0,50,0,0
145984,-133.333333333333,4,2,0,60,0,0
146520,-133.333333333333,4,2,0,50,0,0
146653,-133.333333333333,4,2,0,60,0,0
147323,-133.333333333333,4,2,0,50,0,0
147457,-133.333333333333,4,2,0,60,0,0
149198,-133.333333333333,4,2,0,40,0,0
149332,-133.333333333333,4,2,0,60,0,0
149466,-133.333333333333,4,2,0,40,0,0
149734,-133.333333333333,4,2,0,60,0,0
151073,-133.333333333333,4,2,0,50,0,0
151207,-133.333333333333,4,2,0,60,0,0
152412,-133.333333333333,4,2,0,70,0,0
152680,-100,4,2,0,70,0,0
153484,-200,4,2,0,80,0,0
153886,-100,4,2,0,80,0,0
154287,-100,4,2,0,60,0,0
154555,-100,4,2,0,50,0,0
160984,-142.857142857143,4,2,0,60,0,0
161520,-125,4,2,0,50,0,0
161787,-111.111111111111,4,2,0,70,0,0
162055,-111.111111111111,4,2,0,80,0,0
162323,-111.111111111111,4,2,0,70,0,0
162591,-111.111111111111,4,2,0,80,0,0
163127,-100,4,2,0,80,0,1
180270,-166.666666666667,4,2,0,60,0,0
186430,-166.666666666667,4,2,0,50,0,0
186698,-125,4,2,0,70,0,0
188841,-200,4,2,0,45,0,0
189377,-90.9090909090909,4,2,0,80,0,1
197412,-100,4,2,0,80,0,0

[Colours]
Combo1 : 179,179,102
Combo2 : 192,192,192
Combo3 : 0,85,170
Combo4 : 174,94,94

[HitObjects]
100,104,8841,6,0,B|212:88|212:164|328:144,1,232.500001716614,4|8,0:0|0:0,0:0:0:0:
468,100,9645,1,0,1:0:0:0:
476,252,9912,2,0,L|480:344,2,58.1250004291535,0|0|0,0:0|0:0|0:0,0:0:0:0:
468,100,10448,1,8,0:0:0:0:
324,144,10716,1,0,0:0:0:0:
180,100,10984,6,0,L|60:96,1,116.250000858307,0|0,1:0|0:0,0:0:0:0:
20,240,11520,2,0,L|136:243,1,116.250000858307,8|0,0:0|0:0,0:0:0:0:
212,248,11921,1,0,0:0:0:0:
208,324,12055,2,0,L|204:400,2,58.1250004291535,0|0|0,0:0|0:0|0:0,0:0:0:0:
216,172,12591,1,8,0:0:0:0:
356,224,12859,1,0,0:0:0:0:
496,171,13127,6,0,P|499:114|485:58,1,116.250000858307,0|0,1:0|0:0,0:0:0:0:
328,164,13662,2,0,P|376:196|432:211,1,116.250000858307,8|0,0:0|1:0,0:0:0:0:
408,21,14198,2,0,P|357:47|316:88,1,116.250000858307,0|0,0:0|0:0,0:0:0:0:
232,216,14734,1,8,0:0:0:0:
88,168,15002,1,0,0:0:0:0:
112,316,15270,6,0,P|172:360|272:368,1,174.37500128746,0|0,1:0|1:0,0:0:0:0:
389,268,15805,2,0,P|318:220|232:216,1,174.37500128746,0|0,1:0|1:0,0:0:0:0:
74,209,16341,2,0,P|82:266|112:316,1,116.250000858307,0|0,1:0|1:0,0:0:0:0:
232,216,16877,2,0,L|228:80,1,116.250000858307,0|0,1:0|1:0,0:0:0:0:
228,24,17278,1,0,1:0:0:0:
232,216,17412,6,0,B|344:248|348:192|464:216,1,232.500001716614,4|8,0:0|3:0,0:0:0:0:
508,284,18082,1,0,0:0:0:0:
461,215,18216,2,0,P|460:176|472:112,1,58.1250004291535,8|0,3:0|0:0,0:0:0:0:
472,76,18484,2,0,L|336:68,1,116.250000858307,0|8,0:0|3:0,0:0:0:0:
355,69,18886,1,0,0:0:0:0:
235,158,19020,2,0,P|232:186|232:216,1,58.1250004291535,8|0,3:0|0:0,0:0:0:0:
312,316,19287,2,0,P|315:344|315:373,1,58.1250004291535,2|0,0:0|0:0,0:0:0:0:
231,215,19555,6,0,P|236:160|248:96,1,116.250000858307,0|0,1:0|0:0,0:0:0:0:
300,36,19957,1,0,0:0:0:0:
300,36,20091,2,0,L|416:32,1,116.250000858307,8|0,3:0|0:0,0:0:0:0:
508,168,20493,2,0,P|424:144|344:176,1,174.37500128746,2|2,0:0|0:0,0:0:0:0:
284,228,21028,1,0,0:0:0:0:
204,224,21162,2,0,L|132:220,1,58.1250004291535,8|0,3:0|0:0,0:0:0:0:
128,300,21430,2,0,L|200:304,1,58.1250004291535,0|0,0:0|0:0,0:0:0:0:
224,144,21698,6,0,L|51:134,1,116.250000858307,0|0,1:0|0:0,0:0:0:0:
24,132,22100,1,0,0:0:0:0:
72,64,22234,2,0,L|73:36|72:6,1,58.1250004291535,8|0,3:0|0:0,0:0:0:0:
24,132,22502,2,0,L|23:160|24:190,1,58.1250004291535,8|0,3:0|0:0,0:0:0:0:
40,272,22770,2,0,L|204:272,1,116.250000858307,0|8,0:0|3:0,0:0:0:0:
236,272,23171,1,0,0:0:0:0:
312,304,23305,2,0,P|316:332|316:364,1,58.1250004291535,0|0,1:0|0:0,0:0:0:0:
428,244,23573,2,0,P|424:272|424:304,1,58.1250004291535,2|0,0:0|0:0,0:0:0:0:
312,184,23841,6,0,P|312:128|304:64,1,116.250000858307,0|0,1:0|0:0,0:0:0:0:
152,16,24377,2,0,P|152:72|160:136,1,116.250000858307,0|2,1:0|0:0,0:0:0:0:
180,212,24778,1,2,0:0:0:0:
100,216,24912,2,0,L|28:220,1,58.1250004291535,2|2,0:0|3:0,0:0:0:0:
104,360,25180,2,0,L|162:363,1,58.1250004291535,2|0,0:0|0:0,0:0:0:0:
238,208,25448,2,0,L|180:212,1,58.1250004291535,2|0,0:0|0:0,0:0:0:0:
244,372,25716,2,0,L|302:375,1,58.1250004291535,0|0,0:0|0:0,0:0:0:0:
377,199,25984,6,0,B|320:204|320:204|312:184|316:144,1,116.250000858307,0|0,1:0|0:0,0:0:0:0:
332,64,26386,1,0,0:0:0:0:
172,80,26520,2,0,B|84:88|84:88|68:116,1,116.250000858307,8|8,3:0|3:0,0:0:0:0:
40,188,26921,1,0,0:0:0:0:
44,268,27055,6,0,L|48:336,1,58.1250004291535,2|0,0:0|0:0,0:0:0:0:
47,326,27323,1,8,3:0:0:0:
176,228,27457,1,0,0:0:0:0:
176,228,27591,2,0,P|232:216|300:224,1,116.250000858307,0|0,1:0|0:0,0:0:0:0:
364,256,27993,1,0,0:0:0:0:
236,360,28127,6,0,P|180:372|112:364,1,116.250000858307,0|0,1:0|0:0,0:0:0:0:
47,326,28528,1,0,0:0:0:0:
47,326,28662,2,0,L|36:200,1,116.250000858307,8|0,3:0|0:0,0:0:0:0:
0,52,29064,6,0,P|60:56|120:32,1,116.250000858307,2|0,0:0|0:0,0:0:0:0:
192,24,29466,2,0,P|220:24|252:28,1,58.1250004291535,2|0,0:0|0:0,0:0:0:0:
320,68,29734,2,0,L|316:144,1,58.1250004291535,8|0,3:0|0:0,0:0:0:0:
464,196,30002,2,0,L|460:137,1,58.1250004291535,0|0,0:0|0:0,0:0:0:0:
312,208,30270,6,0,L|303:365,1,116.250000858307,0|0,1:0|0:0,0:0:0:0:
236,364,30671,1,0,0:0:0:0:
236,364,30805,2,0,P|176:344|120:344,1,116.250000858307,8|2,3:0|0:0,0:0:0:0:
44,360,31207,1,0,0:0:0:0:
16,284,31341,2,0,P|12:248|12:216,1,58.1250004291535,0|0,0:0|0:0,0:0:0:0:
148,136,31609,2,0,P|147:165|143:193,1,58.1250004291535,8|0,3:0|0:0,0:0:0:0:
68,48,31877,2,0,P|120:20|208:36,1,116.250000858307,0|0,1:0|0:0,0:0:0:0:
256,40,32278,1,0,0:0:0:0:
296,108,32412,6,0,L|292:204,1,58.1250004291535,2|0,0:0|0:0,0:0:0:0:
452,128,32680,2,0,L|449:69,1,58.1250004291535,2|0,0:0|0:0,0:0:0:0:
392,224,32948,2,0,L|394:282,1,58.1250004291535,0|0,1:0|0:0,0:0:0:0:
324,328,33216,1,2,0:0:0:0:
244,332,33350,1,8,3:0:0:0:
164,336,33484,6,0,L|60:344,1,58.1250004291535,0|0,0:0|0:0,0:0:0:0:
156,184,33752,2,0,L|160:241,1,58.1250004291535,8|8,3:0|3:0,0:0:0:0:
52,124,34020,2,0,L|56:66,1,58.1250004291535,8|8,3:0|3:0,0:0:0:0:
216,24,34287,2,0,L|220:96,1,58.1250004291535,8|8,3:0|3:0,0:0:0:0:
196,244,34555,6,0,P|268:224|348:243,1,116.250000858307,4|0,0:0|0:0,0:0:0:0:
512,328,35091,2,0,P|440:348|360:329,1,116.250000858307,0|8,1:0|3:0,0:0:0:0:
328,304,35493,1,0,0:0:0:0:
308,228,35627,2,0,L|308:152,1,58.1250004291535,0|0,0:0|0:0,0:0:0:0:
308,88,35895,1,8,3:0:0:0:
464,124,36162,1,8,3:0:0:0:
308,169,36430,1,2,0:0:0:0:
228,176,36564,1,2,0:0:0:0:
148,184,36698,6,0,P|144:240|172:336,1,116.250000858307,0|0,1:0|0:0,0:0:0:0:
216,352,37100,1,0,0:0:0:0:
296,348,37234,2,0,L|384:344,1,58.1250004291535,8|0,3:0|0:0,0:0:0:0:
376,268,37502,1,0,0:0:0:0:
216,352,37636,6,0,P|152:336|108:312,1,116.250000858307,0|0,1:0|0:0,0:0:0:0:
52,256,38037,2,0,P|28:184|36:156,1,58.1250004291535,0|0,1:0|0:0,0:0:0:0:
137,72,38305,2,0,L|128:188,1,116.250000858307,8|0,3:0|0:0,0:0:0:0:
216,352,38841,6,0,P|264:336|332:336,1,116.250000858307,0|0,1:0|0:0,0:0:0:0:
384,272,39243,1,0,0:0:0:0:
384,272,39377,2,0,P|441:272|497:255,1,116.250000858307,8|8,3:0|3:0,0:0:0:0:
420,112,39778,1,0,0:0:0:0:
420,112,39912,6,0,L|432:208,1,58.1250004291535,2|0,0:0|0:0,0:0:0:0:
288,80,40180,2,0,L|295:22,1,58.1250004291535,8|0,3:0|0:0,0:0:0:0:
220,204,40448,2,0,L|224:276,1,58.1250004291535,0|0,1:0|0:0,0:0:0:0:
144,84,40716,1,0,0:0:0:0:
64,88,40850,1,0,0:0:0:0:
64,88,40984,6,0,B|52:124|52:124|32:160|44:204,1,116.250000858307,0|8,1:0|3:0,0:0:0:0:
140,332,41520,2,0,P|196:352|252:344,1,116.250000858307,0|0,1:0|0:0,0:0:0:0:
362,184,41921,2,0,B|320:223|320:223|296:276,1,116.250000858307,2|0,0:0|0:0,0:0:0:0:
478,335,42323,2,0,P|465:279|432:232,1,116.250000858307,2|0,0:0|1:0,0:0:0:0:
362,184,42725,1,0,0:0:0:0:
280,184,42859,2,0,L|168:188,1,58.1250004291535,0|0,0:0|0:0,0:0:0:0:
60,192,43127,6,0,P|36:140|40:80,1,116.250000858307,4|0,0:0|0:0,0:0:0:0:
200,112,43662,1,0,1:0:0:0:
196,276,43930,2,0,L|192:388,1,58.1250004291535,8|0,3:0|0:0,0:0:0:0:
318,334,44198,2,0,L|316:276,2,58.1250004291535,0|0|0,0:0|0:0|0:0,0:0:0:0:
256,184,44734,1,0,1:0:0:0:
336,40,45002,1,2,0:0:0:0:
256,20,45136,1,2,0:0:0:0:
176,40,45270,6,0,B|136:44|104:36|104:36|72:68,1,116.250000858307,0|0,1:0|0:0,0:0:0:0:
16,220,45805,2,0,P|8:296|20:336,1,116.250000858307,0|0,1:0|0:0,0:0:0:0:
88,380,46207,1,8,3:0:0:0:
164,352,46341,2,0,L|256:348,1,58.1250004291535,0|0,0:0|0:0,0:0:0:0:
304,356,46609,2,0,L|362:358,1,58.1250004291535,8|0,3:0|0:0,0:0:0:0:
444,360,46877,1,0,1:0:0:0:
444,360,47011,1,0,0:0:0:0:
364,236,47145,1,0,0:0:0:0:
364,236,47278,1,0,0:0:0:0:
440,204,47412,6,0,P|456:152|456:88,1,116.250000858307,0|0,1:0|0:0,0:0:0:0:
275,90,47814,1,0,0:0:0:0:
275,90,47948,2,0,P|275:148|292:204,1,116.250000858307,2|0,0:0|0:0,0:0:0:0:
364,236,48350,1,0,0:0:0:0:
368,316,48484,6,0,L|372:384,1,58.1250004291535,2|0,0:0|0:0,0:0:0:0:
440,204,48752,2,0,L|491:165,1,58.1250004291535,8|0,3:0|0:0,0:0:0:0:
291,203,49020,2,0,L|231:177,1,58.1250004291535,0|0,1:0|0:0,0:0:0:0:
440,204,49287,1,2,0:0:0:0:
368,316,49421,1,2,0:0:0:0:
291,203,49555,5,4,3:0:0:0:
220,56,49823,1,0,0:0:0:0:
60,80,50091,1,0,0:0:0:0:
40,240,50359,1,0,0:0:0:0:
180,320,50627,6,0,B|240:336|240:300|296:316,1,116.250000858307,0|0,0:0|1:0,0:0:0:0:
320,328,51095,1,0,1:0:0:0:
352,324,51162,1,0,1:0:0:0:
464,220,51430,1,0,1:0:0:0:
468,120,51564,1,0,1:0:0:0:
396,48,51698,6,0,L|292:52,1,77.4999976158143,4|0,0:0|0:0,0:0:0:0:
216,56,51966,1,2,0:0:0:0:
268,144,52100,1,0,0:0:0:0:
268,144,52234,2,0,P|285:218|275:295,1,154.999995231629,0|2,1:0|0:0,0:0:0:0:
84,228,52636,2,0,L|161:225,1,77.4999976158143,0|0,1:0|0:0,0:0:0:0:
161,225,52903,1,2,0:0:0:0:
4,292,53037,2,0,P|0:328|4:368,1,77.4999976158143,0|0,1:0|0:0,0:0:0:0:
84,228,53305,2,0,P|88:144|76:68,1,154.999995231629,0|0,1:0|0:0,0:0:0:0:
77,74,53707,1,0,0:0:0:0:
272,28,53841,6,0,P|316:24|372:32,1,77.4999976158143,0|0,1:0|0:0,0:0:0:0:
444,64,54109,1,2,0:0:0:0:
312,216,54243,1,0,0:0:0:0:
312,216,54377,2,0,L|312:124,2,77.4999976158143,0|0|2,1:0|0:0|0:0,0:0:0:0:
256,300,54778,2,0,P|329:315|393:274,1,154.999995231629,0|0,1:0|0:0,0:0:0:0:
208,212,55180,2,0,P|176:240|156:280,1,77.4999976158143,0|0,1:0|0:0,0:0:0:0:
312,216,55448,2,0,L|312:124,1,77.4999976158143,0|0,1:0|0:0,0:0:0:0:
144,24,55716,2,0,L|144:101,1,77.4999976158143,2|0,0:0|0:0,0:0:0:0:
155,297,55984,6,0,P|232:312|300:252,1,154.999995231629,0|2,1:0|0:0,0:0:0:0:
290,270,56386,1,0,0:0:0:0:
252,80,56520,2,0,P|202:136|208:212,1,154.999995231629,0|2,1:0|0:0,0:0:0:0:
208,212,56921,1,0,0:0:0:0:
391,276,57055,2,0,P|383:238|364:205,1,77.4999976158143,0|0,1:0|0:0,0:0:0:0:
290,270,57323,2,0,P|270:303|262:341,1,77.4999976158143,0|0,1:0|0:0,0:0:0:0:
492,272,57591,2,0,P|478:204|434:131,1,154.999995231629,0|2,1:0|0:0,0:0:0:0:
352,76,57993,1,0,0:0:0:0:
208,212,58127,6,0,P|151:262|76:256,1,154.999995231629,0|0,1:0|1:0,0:0:0:0:
76,256,58528,1,0,0:0:0:0:
94,90,58662,2,0,L|120:164,1,77.4999976158143,0|0,1:0|0:0,0:0:0:0:
208,34,58930,2,0,L|208:112,1,77.4999976158143,2|0,0:0|1:0,0:0:0:0:
208,212,59198,5,0,1:0:0:0:
276,284,59332,1,8,3:0:0:0:
376,300,59466,1,2,0:0:0:0:
468,256,59600,1,0,1:0:0:0:
384,204,59734,5,8,3:0:0:0:
376,300,59868,1,0,0:0:0:0:
468,256,60002,1,0,1:0:0:0:
468,156,60136,1,2,0:0:0:0:
298,149,60270,6,0,P|260:152|212:164,1,77.4999976158143,4|0,0:0|0:0,0:0:0:0:
128,196,60537,1,2,0:0:0:0:
48,132,60671,2,0,P|40:92|40:52,1,77.4999976158143,0|0,0:0|1:0,0:0:0:0:
128,196,60939,2,0,P|136:236|136:276,1,77.4999976158143,0|2,0:0|0:0,0:0:0:0:
80,356,61207,2,0,L|0:360,1,77.4999976158143,0|2,1:0|0:0,0:0:0:0:
2,359,61475,1,0,0:0:0:0:
136,272,61609,2,0,L|232:276,1,77.4999976158143,0|0,1:0|0:0,0:0:0:0:
316,284,61877,1,0,1:0:0:0:
452,136,62145,1,2,0:0:0:0:
388,60,62278,1,2,0:0:0:0:
288,68,62412,6,0,B|212:84|212:52|132:72,1,154.999995231629,0|2,1:0|0:0,0:0:0:0:
52,132,62814,1,0,0:0:0:0:
128,320,62948,2,0,P|104:380|48:328,1,154.999995231629,0|2,1:0|0:0,0:0:0:0:
64,240,63350,1,0,1:0:0:0:
164,228,63484,2,0,P|204:224|252:228,1,77.4999976158143,0|2,0:0|0:0,0:0:0:0:
340,256,63752,2,0,P|378:258|417:254,1,77.4999976158143,0|0,1:0|0:0,0:0:0:0:
376,160,64020,1,0,1:0:0:0:
204,56,64287,1,2,0:0:0:0:
104,72,64421,1,0,0:0:0:0:
4,92,64555,6,0,B|8:136|48:160|48:160|88:184|100:212,1,154.999995231629,0|2,1:0|0:0,0:0:0:0:
140,300,64957,1,0,0:0:0:0:
236,268,65091,2,0,P|276:268|336:280,1,77.4999976158143,0|0,1:0|0:0,0:0:0:0:
268,364,65359,1,2,0:0:0:0:
360,184,65493,2,0,P|284:167|207:165,1,154.999995231629,0|2,1:0|0:0,0:0:0:0:
108,188,65895,2,0,L|104:265,1,77.4999976158143,0|0,1:0|0:0,0:0:0:0:
96,364,66162,1,0,1:0:0:0:
136,92,66430,1,2,0:0:0:0:
224,44,66564,1,2,0:0:0:0:
308,100,66698,6,0,P|368:136|460:100,1,154.999995231629,8|0,3:0|1:0,0:0:0:0:
384,32,67100,1,0,1:0:0:0:
232,164,67234,2,0,L|240:328,1,154.999995231629,8|0,3:0|1:0,0:0:0:0:
239,318,67636,1,0,1:0:0:0:
44,276,67770,6,0,L|52:136,1,77.4999976158143,8|0,3:0|1:0,0:0:0:0:
56,100,68037,1,0,1:0:0:0:
148,56,68171,1,0,1:0:0:0:
248,48,68305,2,0,P|286:46|324:54,1,77.4999976158143,8|0,3:0|0:0,0:0:0:0:
309,239,68572,2,0,P|270:240|232:232,1,77.4999976158143,0|0,1:0|1:0,0:0:0:0:
279,142,68840,5,4,0:0:0:0:
176,52,77412,5,2,0:0:0:0:
176,52,77680,2,0,B|192:88|148:128|168:168,1,116.250000858307,0|0,0:0|0:0,0:0:0:0:
204,236,78082,1,0,0:0:0:0:
276,196,78216,2,0,P|304:192|352:192,1,58.1250004291535,8|0,3:0|0:0,0:0:0:0:
412,216,78484,2,0,L|408:356,1,116.250000858307,0|8,0:0|3:0,0:0:0:0:
408,332,78886,1,0,0:0:0:0:
500,236,79020,2,0,P|500:208|492:164,1,58.1250004291535,0|0,1:0|0:0,0:0:0:0:
396,48,79287,2,0,P|391:76|391:105,1,58.1250004291535,2|0,0:0|0:0,0:0:0:0:
280,228,79555,6,0,P|232:236|128:212,1,116.250000858307,0|0,1:0|0:0,0:0:0:0:
84,212,79957,1,0,0:0:0:0:
152,64,80225,1,0,0:0:0:0:
112,292,80493,2,0,B|100:356|100:356|148:332|220:348,1,174.37500128746,0|0,1:0|1:0,0:0:0:0:
368,368,81162,1,8,3:0:0:0:
464,236,81430,1,0,0:0:0:0:
476,156,81564,1,0,0:0:0:0:
424,92,81698,6,0,P|388:72|312:56,1,116.250000858307,0|0,0:0|0:0,0:0:0:0:
232,56,82100,1,0,0:0:0:0:
236,136,82234,2,0,L|240:216,1,58.1250004291535,0|0,1:0|0:0,0:0:0:0:
108,96,82502,2,0,L|104:176,1,58.1250004291535,8|0,3:0|0:0,0:0:0:0:
256,128,82770,2,0,L|264:268,1,116.250000858307,0|8,0:0|3:0,0:0:0:0:
268,324,83171,1,0,0:0:0:0:
336,280,83305,2,0,P|364:276|424:284,1,58.1250004291535,0|0,1:0|0:0,0:0:0:0:
268,324,83573,2,0,P|240:328|180:320,1,58.1250004291535,0|0,0:0|0:0,0:0:0:0:
300,205,83841,6,0,P|358:197|416:200,1,116.250000858307,0|8,1:0|3:0,0:0:0:0:
484,244,84243,1,0,0:0:0:0:
368,360,84377,2,0,L|360:248,1,58.1250004291535,0|0,1:0|0:0,0:0:0:0:
204,332,84645,1,0,0:0:0:0:
204,332,84778,2,0,P|146:340|88:337,1,116.250000858307,2|0,0:0|0:0,0:0:0:0:
36,276,85180,2,0,L|32:196,1,58.1250004291535,2|0,0:0|0:0,0:0:0:0:
172,136,85448,2,0,L|169:194,1,58.1250004291535,0|0,1:0|0:0,0:0:0:0:
28,136,85716,1,0,0:0:0:0:
32,56,85850,1,0,0:0:0:0:
172,136,85984,6,0,B|216:152|216:152|284:136,1,116.250000858307,0|0,1:0|0:0,0:0:0:0:
428,60,86520,2,0,P|452:116|440:188,1,116.250000858307,0|8,1:0|3:0,0:0:0:0:
404,240,86921,1,0,0:0:0:0:
408,320,87055,2,0,L|412:380,1,58.1250004291535,0|0,0:0|0:0,0:0:0:0:
297,210,87323,1,8,3:0:0:0:
447,169,87457,1,0,0:0:0:0:
408,320,87591,2,0,P|360:352|288:364,1,116.250000858307,0|2,1:0|0:0,0:0:0:0:
220,368,87993,1,0,0:0:0:0:
180,300,88127,6,0,P|176:272|176:236,1,58.1250004291535,0|0,1:0|0:0,0:0:0:0:
184,156,88395,1,0,0:0:0:0:
136,96,88528,2,0,L|77:93,1,58.1250004291535,0|0,0:0|1:0,0:0:0:0:
188,160,88796,2,0,L|252:156,1,58.1250004291535,0|0,0:0|0:0,0:0:0:0:
136,68,89064,2,0,L|4:60,1,116.250000858307,2|0,0:0|0:0,0:0:0:0:
188,184,89466,2,0,L|320:176,1,116.250000858307,2|0,0:0|1:0,0:0:0:0:
468,168,90002,1,0,0:0:0:0:
444,88,90136,1,0,0:0:0:0:
452,248,90270,6,0,B|456:304|456:304|424:300|392:312,1,116.250000858307,0|0,1:0|0:0,0:0:0:0:
320,336,90671,1,0,0:0:0:0:
240,328,90805,2,0,L|152:324,1,58.1250004291535,0|0,1:0|0:0,0:0:0:0:
284,260,91073,1,8,3:0:0:0:
284,260,91207,2,0,P|292:192|284:136,1,116.250000858307,0|0,0:0|0:0,0:0:0:0:
224,92,91609,2,0,L|136:88,1,58.1250004291535,8|0,3:0|0:0,0:0:0:0:
84,88,91877,1,0,1:0:0:0:
0,232,92145,1,0,0:0:0:0:
12,312,92278,1,0,0:0:0:0:
72,368,92412,6,0,P|128:368|224:340,2,116.250000858307,2|2|0,0:0|0:0|1:0,0:0:0:0:
112,208,93216,1,2,0:0:0:0:
116,128,93350,1,8,3:0:0:0:
120,40,93484,2,0,P|96:36|48:36,1,58.1250004291535,0|0,0:0|0:0,0:0:0:0:
204,124,93752,2,0,P|228:128|276:128,1,58.1250004291535,8|8,3:0|3:0,0:0:0:0:
84,124,94020,2,0,L|76:220,1,58.1250004291535,8|8,3:0|3:0,0:0:0:0:
216,272,94287,2,0,L|211:214,2,58.1250004291535,8|8|4,3:0|3:0|0:0,0:0:0:0:
404,368,95091,6,0,P|424:324|420:236,1,116.250000858307,0|8,1:0|3:0,0:0:0:0:
404,180,95493,1,0,0:0:0:0:
452,116,95627,2,0,L|532:112,1,58.1250004291535,0|0,0:0|0:0,0:0:0:0:
404,180,95895,2,0,L|324:176,1,58.1250004291535,8|0,3:0|0:0,0:0:0:0:
264,172,96162,2,0,P|241:118|242:60,1,116.250000858307,8|2,3:0|0:0,0:0:0:0:
242,60,96564,1,0,0:0:0:0:
100,140,96698,6,0,B|88:196|116:196|100:256,1,116.250000858307,0|0,1:0|0:0,0:0:0:0:
72,332,97100,1,0,0:0:0:0:
180,168,97234,2,0,P|212:164|256:168,1,58.1250004291535,0|0,1:0|0:0,0:0:0:0:
316,184,97502,1,0,0:0:0:0:
224,364,97636,2,0,L|217:247,1,116.250000858307,0|0,1:0|0:0,0:0:0:0:
322,67,98037,2,0,L|316:184,1,116.250000858307,0|8,1:0|3:0,0:0:0:0:
472,136,98573,1,0,0:0:0:0:
443,296,98841,6,0,P|399:332|344:351,1,116.250000858307,0|0,1:0|0:0,0:0:0:0:
216,239,99377,2,0,P|261:203|316:184,1,116.250000858307,0|8,1:0|3:0,0:0:0:0:
396,176,99778,1,0,0:0:0:0:
388,96,99912,2,0,L|384:36,1,58.1250004291535,2|0,0:0|0:0,0:0:0:0:
224,136,100180,2,0,L|227:78,1,58.1250004291535,8|0,3:0|0:0,0:0:0:0:
399,233,100448,2,0,L|395:173,1,58.1250004291535,0|0,1:0|0:0,0:0:0:0:
216,276,100716,2,0,L|219:218,1,58.1250004291535,0|0,0:0|0:0,0:0:0:0:
224,136,100984,6,0,P|164:124|92:136,2,116.250000858307,0|8|0,1:0|3:0|1:0,0:0:0:0:
399,233,101787,1,0,0:0:0:0:
399,233,101921,2,0,P|424:184|408:72,1,116.250000858307,0|0,1:0|0:0,0:0:0:0:
396,48,102323,2,0,L|316:44,1,58.1250004291535,0|0,1:0|0:0,0:0:0:0:
256,52,102591,2,0,P|252:88|252:128,1,58.1250004291535,8|0,3:0|0:0,0:0:0:0:
104,124,102859,2,0,P|76:120|44:124,1,58.1250004291535,0|0,0:0|0:0,0:0:0:0:
184,184,103127,6,0,B|196:240|168:240|184:300,2,116.250000858307,4|0|8,0:0|0:0|3:0,0:0:0:0:
256,40,103930,2,0,P|320:40|404:64,1,116.250000858307,0|0,1:0|0:0,0:0:0:0:
448,84,104332,1,0,0:0:0:0:
444,164,104466,2,0,L|440:264,1,58.1250004291535,8|0,3:0|0:0,0:0:0:0:
480,292,104734,2,0,P|436:304|372:268,1,116.250000858307,0|2,1:0|0:0,0:0:0:0:
324,208,105136,1,0,0:0:0:0:
200,312,105270,6,0,B|164:336|164:336|128:324|84:332,2,116.250000858307,0|0|0,1:0|0:0|1:0,0:0:0:0:
112,176,106073,1,8,3:0:0:0:
112,176,106207,2,0,P|96:124|104:36,1,116.250000858307,0|0,1:0|0:0,0:0:0:0:
256,104,106609,2,0,L|256:176,1,58.1250004291535,8|0,3:0|0:0,0:0:0:0:
400,175,106877,2,0,P|416:120|415:62,1,116.250000858307,0|0,1:0|0:0,0:0:0:0:
415,62,107278,1,0,0:0:0:0:
96,62,107412,6,0,P|95:120|112:176,1,116.250000858307,0|0,1:0|0:0,0:0:0:0:
172,232,107814,1,0,0:0:0:0:
144,304,107948,1,0,1:0:0:0:
392,248,108216,1,0,1:0:0:0:
324,204,108350,1,0,0:0:0:0:
316,284,108484,2,0,L|308:364,1,58.1250004291535,2|0,0:0|0:0,0:0:0:0:
392,248,108752,2,0,L|465:214,1,58.1250004291535,8|0,3:0|0:0,0:0:0:0:
324,204,109020,2,0,L|258:157,1,58.1250004291535,0|0,1:0|0:0,0:0:0:0:
276,170,109287,1,2,0:0:0:0:
310,341,109421,1,2,0:0:0:0:
444,224,109555,5,4,3:0:0:0:
412,64,109823,1,0,0:0:0:0:
256,16,110091,1,0,0:0:0:0:
132,124,110359,1,0,0:0:0:0:
156,284,110627,6,0,B|208:296|212:324|264:332,1,116.249996423721,0|0,0:0|1:0,0:0:0:0:
292,336,111095,1,0,1:0:0:0:
324,332,111162,1,0,1:0:0:0:
452,228,111430,5,0,1:0:0:0:
448,132,111564,1,0,1:0:0:0:
376,64,111698,6,0,L|280:68,1,77.4999976158143,4|0,0:0|0:0,0:0:0:0:
196,72,111966,1,2,0:0:0:0:
248,160,112100,1,0,0:0:0:0:
52,212,112234,2,0,P|8:164|0:72,1,154.999995231629,0|2,1:0|0:0,0:0:0:0:
196,72,112636,2,0,L|96:124,1,77.4999976158143,0|0,1:0|0:0,0:0:0:0:
248,160,112903,1,2,0:0:0:0:
300,72,113037,2,0,L|368:107,1,77.4999976158143,0|0,1:0|0:0,0:0:0:0:
212,252,113305,2,0,P|249:306|288:252,1,154.999995231629,0|0,1:0|0:0,0:0:0:0:
288,252,113707,1,0,0:0:0:0:
196,72,113841,6,0,P|160:68|104:72,1,77.4999976158143,0|0,1:0|0:0,0:0:0:0:
248,160,114109,1,2,0:0:0:0:
300,72,114243,1,0,0:0:0:0:
108,72,114377,2,0,P|78:131|94:235,1,154.999995231629,0|2,1:0|0:0,0:0:0:0:
248,160,114778,2,0,L|256:56,1,77.4999976158143,0|2,1:0|0:0,0:0:0:0:
253,82,115046,1,0,0:0:0:0:
287,251,115180,2,0,P|317:275|351:292,1,77.4999976158143,0|0,1:0|0:0,0:0:0:0:
187,240,115448,6,0,P|151:253|119:274,1,77.4999976158143,0|0,1:0|0:0,0:0:0:0:
256,152,115716,2,0,P|262:113|259:75,1,77.4999976158143,2|0,0:0|0:0,0:0:0:0:
296,264,115984,6,0,P|326:288|444:324,1,154.999995231629,0|2,1:0|0:0,0:0:0:0:
512,136,116386,1,0,0:0:0:0:
512,136,116520,2,0,P|481:111|364:76,1,154.999995231629,0|2,1:0|0:0,0:0:0:0:
276,108,116921,1,0,0:0:0:0:
176,96,117055,2,0,P|168:64|172:12,1,77.4999976158143,0|0,1:0|0:0,0:0:0:0:
272,152,117323,2,0,L|276:248,1,77.4999976158143,0|0,1:0|0:0,0:0:0:0:
268,52,117591,2,0,P|340:36|424:56,1,154.999995231629,0|2,1:0|0:0,0:0:0:0:
496,116,117993,1,0,1:0:0:0:
403,306,118127,6,0,L|400:152,1,154.999995231629,0|0,1:0|1:0,0:0:0:0:
400,152,118528,1,0,0:0:0:0:
292,324,118662,2,0,L|288:169,1,154.999995231629,0|0,1:0|0:0,0:0:0:0:
288,169,119063,1,0,0:0:0:0:
268,68,119198,5,0,1:0:0:0:
172,32,119332,1,8,3:0:0:0:
260,92,119466,1,2,0:0:0:0:
164,56,119600,1,0,1:0:0:0:
0,176,119734,5,8,3:0:0:0:
96,140,119868,1,0,0:0:0:0:
8,200,120002,1,0,1:0:0:0:
104,164,120136,1,2,0:0:0:0:
228,252,120270,6,0,P|232:292|228:332,1,77.4999976158143,4|0,0:0|0:0,0:0:0:0:
136,292,120537,1,2,0:0:0:0:
320,288,120671,1,0,0:0:0:0:
136,292,120805,2,0,B|8:296|8:296|40:244,1,154.999995231629,0|2,1:0|0:0,0:0:0:0:
148,116,121207,2,0,L|225:113,1,77.4999976158143,0|2,1:0|0:0,0:0:0:0:
225,113,121475,1,0,0:0:0:0:
80,40,121609,2,0,L|-68:36,1,77.4999976158143,0|0,1:0|0:0,0:0:0:0:
36,236,121877,2,0,P|92:288|192:280,1,154.999995231629,0|2,1:0|0:0,0:0:0:0:
167,291,122278,1,2,0:0:0:0:
148,116,122412,6,0,B|128:68|144:12|144:12|100:80,1,154.999995231629,0|2,1:0|0:0,0:0:0:0:
117,53,122814,1,0,0:0:0:0:
320,64,122948,2,0,P|400:56|488:80,1,154.999995231629,0|2,1:0|0:0,0:0:0:0:
508,168,123350,1,0,0:0:0:0:
500,268,123484,2,0,L|496:356,2,77.4999976158143,0|2|0,0:0|0:0|1:0,0:0:0:0:
508,168,123886,1,0,0:0:0:0:
416,208,124020,2,0,P|376:212|332:204,1,77.4999976158143,0|0,0:0|0:0,0:0:0:0:
248,168,124287,1,2,0:0:0:0:
236,68,124421,1,0,0:0:0:0:
56,160,124555,6,0,P|60:240|100:304,1,154.999995231629,0|2,1:0|0:0,0:0:0:0:
188,348,124957,1,0,0:0:0:0:
268,288,125091,2,0,P|312:280|376:292,1,77.4999976158143,0|0,1:0|0:0,0:0:0:0:
316,380,125359,1,2,0:0:0:0:
376,188,125493,2,0,B|372:72|372:72|404:104,1,154.999995231629,0|2,1:0|0:0,0:0:0:0:
476,164,125895,1,0,1:0:0:0:
476,264,126028,1,0,0:0:0:0:
284,208,126162,2,0,B|204:192|200:232|132:208,1,154.999995231629,0|2,1:0|0:0,0:0:0:0:
172,112,126564,1,2,0:0:0:0:
248,304,126698,6,0,B|252:368|252:368|296:380|352:364,1,154.999995231629,8|0,3:0|1:0,0:0:0:0:
341,366,127100,1,0,1:0:0:0:
476,216,127234,2,0,B|488:156|468:100|468:100|408:124,1,154.999995231629,8|0,3:0|1:0,0:0:0:0:
336,140,127636,1,0,1:0:0:0:
248,88,127770,6,0,P|240:56|244:0,1,77.4999976158143,0|0,3:0|1:0,0:0:0:0:
336,152,128037,1,0,1:0:0:0:
336,252,128171,1,0,1:0:0:0:
340,352,128305,2,0,L|440:348,1,77.4999976158143,8|0,3:0|0:0,0:0:0:0:
236,252,128573,2,0,L|158:255,1,77.4999976158143,0|0,1:0|1:0,0:0:0:0:
336,152,128841,5,4,0:0:0:0:
168,116,137412,5,2,0:0:0:0:
176,128,137680,6,0,L|172:232,1,77.4999976158143,0|8,0:0|0:0,0:0:0:0:
168,308,138216,1,2,0:0:0:0:
168,308,138350,2,0,B|264:328|264:288|360:308,1,193.749994039536,0|8,0:0|0:0,0:0:0:0:
456,336,139287,1,2,0:0:0:0:
480,128,139555,5,0,0:0:0:0:
512,224,139823,1,0,0:0:0:0:
272,152,140091,1,8,0:0:0:0:
304,56,140359,1,0,0:0:0:0:
340,320,140627,2,0,P|288:324|184:280,2,154.999995231629,0|2|2,0:0|0:0|0:0,0:0:0:0:
436,288,141966,5,0,0:0:0:0:
432,188,142234,2,0,L|428:80,1,77.4999976158143,8|2,0:0|0:0,0:0:0:0:
440,60,142636,2,0,P|400:68|296:64,1,116.249996423721
228,40,143305,1,8,0:0:0:0:
132,68,143573,1,2,0:0:0:0:
232,248,143841,5,0,0:0:0:0:
260,160,144109,1,0,0:0:0:0:
56,256,144377,1,8,0:0:0:0:
16,172,144645,1,0,0:0:0:0:
212,344,144912,2,0,P|260:340|304:316,1,77.4999976158143,0|0,0:0|1:0,0:0:0:0:
356,276,145314,1,8,3:0:0:0:
444,280,145448,2,0,L|528:284,1,58.1250004291535,0|8,1:0|3:0,0:0:0:0:
512,112,145716,2,0,L|428:116,1,58.1250004291535,0|8,1:0|3:0,0:0:0:0:
272,128,145984,6,0,P|252:76|268:12,1,116.250000858307,4|2,0:0|0:0,0:0:0:0:
336,68,146386,1,0,0:0:0:0:
216,196,146520,2,0,L|60:192,1,116.250000858307,8|0,3:0|1:0,0:0:0:0:
12,192,146921,1,0,0:0:0:0:
52,268,147055,2,0,L|48:340,1,58.1250004291535,2|0,0:0|0:0,0:0:0:0:
60,116,147323,2,0,L|63:57,1,58.1250004291535,8|0,3:0|0:0,0:0:0:0:
99,193,147591,2,0,L|216:196,1,116.250000858307,0|2,1:0|0:0,0:0:0:0:
304,200,147993,1,2,0:0:0:0:
472,156,148127,6,0,P|484:216|460:280,1,116.250000858307,0|2,1:0|0:0,0:0:0:0:
420,340,148528,1,0,0:0:0:0:
304,200,148662,2,0,L|408:212,1,58.1250004291535,0|0,1:0|0:0,0:0:0:0:
360,24,148930,2,0,L|436:108,1,58.1250004291535,2|0,0:0|0:0,0:0:0:0:
216,116,149198,2,0,P|164:124|72:108,1,116.250000858307,8|8,3:0|3:0,0:0:0:0:
16,96,149600,1,0,0:0:0:0:
20,184,149734,2,0,L|24:272,1,58.1250004291535,0|2,1:0|0:0,0:0:0:0:
216,116,150002,2,0,L|218:57,1,58.1250004291535,2|2,0:0|0:0,0:0:0:0:
40,192,150270,6,0,L|44:340,1,116.250000858307,0|0,1:0|0:0,0:0:0:0:
43,308,150671,1,0,0:0:0:0:
240,136,150805,2,0,L|248:20,1,116.250000858307,0|8,1:0|3:0,0:0:0:0:
247,20,151207,1,0,0:0:0:0:
176,208,151341,2,0,P|232:232|316:204,1,116.250000858307,2|0,0:0|1:0,0:0:0:0:
368,200,151743,1,0,0:0:0:0:
372,288,151877,2,0,L|376:392,1,58.1250004291535,8|0,3:0|0:0,0:0:0:0:
496,224,152145,2,0,L|498:165,1,58.1250004291535,0|0,0:0|0:0,0:0:0:0:
504,80,152412,5,0,1:0:0:0:
268,184,152680,6,0,P|232:232|180:252,1,116.249996423721,2|0,0:0|0:0,0:0:0:0:
248,83,152948,2,0,P|305:90|350:125,1,116.249996423721,2|0,0:0|0:0,0:0:0:0:
171,151,153216,2,0,P|148:99|156:42,1,116.249996423721,2|0,0:0|0:0,0:0:0:0:
268,184,153484,6,0,L|256:308,1,116.249996423721,2|0,0:0|1:0,0:0:0:0:
248,348,153953,1,0,1:0:0:0:
248,348,154020,2,0,P|284:340|340:348,1,77.4999976158143,0|0,1:0|0:0,0:0:0:0:
424,364,154287,1,0,1:0:0:0:
504,304,154421,1,0,1:0:0:0:
500,204,154555,5,4,1:0:0:0:
104,76,160984,6,0,L|100:116,7,27.1249983377457,8|0|0|0|8|0|0|0,3:0|0:0|0:0|0:0|3:0|0:0|0:0|0:0,0:0:0:0:
168,164,161520,6,0,L|172:220,7,30.9999990463257,8|0|0|0|8|0|0|0,3:0|0:0|0:0|0:0|3:0|0:0|0:0|0:0,0:0:0:0:
76,272,162055,6,0,L|72:332,7,34.8749978628159,8|0|0|0|8|0|0|0,3:0|0:0|0:0|0:0|3:0|0:0|0:0|0:0,0:0:0:0:
184,320,162591,2,0,L|188:384,7,34.8749978628159,8|0|0|0|0|0|0|0,2:0|0:0|0:0|0:0|0:0|0:0|0:0|0:0,0:0:0:0:
204,288,163127,6,0,P|236:280|292:284,1,77.4999976158143,4|0,0:0|0:0,0:0:0:0:
376,308,163395,1,2,0:0:0:0:
416,212,163528,1,0,0:0:0:0:
416,212,163662,2,0,B|413:92|413:92|436:120,1,154.999995231629,0|2,1:0|0:0,0:0:0:0:
336,144,164064,2,0,P|312:148|252:144,1,77.4999976158143,0|0,1:0|0:0,0:0:0:0:
160,124,164332,1,0,0:0:0:0:
11,260,164466,2,0,P|4:296|8:340,1,77.4999976158143,0|0,1:0|0:0,0:0:0:0:
176,211,164734,2,0,P|138:145|72:107,1,154.999995231629,0|0,1:0|0:0,0:0:0:0:
88,344,165270,5,0,1:0:0:0:
188,340,165403,2,0,L|288:336,1,77.4999976158143,0|2,0:0|0:0,0:0:0:0:
356,296,165671,1,0,0:0:0:0:
356,296,165805,2,0,P|380:240|352:140,1,154.999995231629,0|2,1:0|0:0,0:0:0:0:
288,80,166207,2,0,L|184:76,1,77.4999976158143,0|2,1:0|0:0,0:0:0:0:
44,192,166475,1,0,0:0:0:0:
44,192,166609,2,0,L|148:188,1,77.4999976158143,0|0,1:0|0:0,0:0:0:0:
204,248,166877,6,0,P|212:284|212:336,1,77.4999976158143,0|0,1:0|0:0,0:0:0:0:
44,192,167145,2,0,P|44:153|53:115,1,77.4999976158143,2|0,0:0|0:0,0:0:0:0:
280,196,167412,6,0,P|304:268|296:360,1,154.999995231629,0|2,1:0|0:0,0:0:0:0:
44,192,167948,2,0,P|39:115|63:41,1,154.999995231629,0|2,1:0|0:0,0:0:0:0:
164,16,168350,1,0,0:0:0:0:
192,112,168484,2,0,L|188:208,1,77.4999976158143,0|0,1:0|0:0,0:0:0:0:
323,189,168752,2,0,L|320:112,1,77.4999976158143,0|0,1:0|0:0,0:0:0:0:
192,296,169020,2,0,P|260:336|316:296,1,154.999995231629,0|2,1:0|0:0,0:0:0:0:
192,112,169555,6,0,B|120:96|120:132|36:112,1,154.999995231629,0|0,1:0|1:0,0:0:0:0:
320,112,170091,2,0,B|392:96|392:132|473:112,1,154.999995231629,0|2,1:0|0:0,0:0:0:0:
432,20,170493,1,0,1:0:0:0:
356,208,170627,6,0,P|352:240|356:296,1,77.4999976158143,0|8,1:0|3:0,0:0:0:0:
408,368,170895,1,2,0:0:0:0:
508,356,171028,1,0,1:0:0:0:
320,112,171162,6,0,P|280:136|260:176,1,77.4999976158143,8|0,3:0|0:0,0:0:0:0:
216,252,171430,1,0,1:0:0:0:
268,340,171564,1,2,0:0:0:0:
424,128,171698,6,0,P|424:88|398:44,1,77.4999976158143,4|0,0:0|0:0,0:0:0:0:
320,112,171966,1,2,0:0:0:0:
356,208,172100,1,0,0:0:0:0:
356,208,172234,2,0,P|428:236|500:200,1,154.999995231629,0|2,1:0|0:0,0:0:0:0:
308,32,172636,2,0,L|124:28,1,154.999995231629,0|0,1:0|0:0,0:0:0:0:
52,28,173037,1,0,1:0:0:0:
96,224,173305,1,0,1:0:0:0:
280,144,173573,1,2,0:0:0:0:
380,140,173707,1,2,0:0:0:0:
480,136,173841,6,0,P|512:216|492:280,1,154.999995231629,0|2,1:0|0:0,0:0:0:0:
428,356,174243,1,0,0:0:0:0:
288,236,174377,2,0,B|271:220|271:220|403:212,1,154.999995231629,0|2,1:0|0:0,0:0:0:0:
403,212,174778,1,0,1:0:0:0:
480,136,174912,2,0,P|488:96|484:48,2,77.4999976158143,0|2|0,0:0|0:0|1:0,0:0:0:0:
388,92,175314,1,0,0:0:0:0:
480,280,175448,2,0,B|496:314|496:314|372:318,1,154.999995231629,0|2,1:0|0:0,0:0:0:0:
276,324,175850,1,0,0:0:0:0:
120,196,175984,6,0,P|112:132|160:56,1,154.999995231629,0|2,1:0|0:0,0:0:0:0:
256,28,176386,1,0,0:0:0:0:
294,170,176520,2,0,L|220:148,1,77.4999976158143,0|0,1:0|0:0,0:0:0:0:
388,208,176787,1,2,0:0:0:0:
376,104,176921,2,0,L|360:16,2,77.4999976158143,0|0|2,1:0|0:0|0:0,0:0:0:0:
388,208,177323,2,0,L|374:284,1,77.4999976158143,0|0,1:0|0:0,0:0:0:0:
472,144,177591,1,0,1:0:0:0:
272,176,177859,1,2,0:0:0:0:
172,192,177993,1,2,0:0:0:0:
72,212,178127,6,0,P|52:272|96:356,1,154.999995231629,8|0,3:0|1:0,0:0:0:0:
152,272,178528,1,0,1:0:0:0:
184,64,178662,6,0,P|138:20|43:24,1,154.999995231629,8|0,3:0|1:0,0:0:0:0:
95,111,179063,1,0,1:0:0:0:
300,188,179198,2,0,L|424:184,1,77.4999976158143,8|0,3:0|1:0,0:0:0:0:
480,180,179466,1,0,1:0:0:0:
424,96,179600,1,0,1:0:0:0:
440,276,179734,2,0,B|444:344|444:344|392:332|340:360,1,154.999995231629,8|0,3:0|1:0,0:0:0:0:
180,320,180270,6,0,L|172:256,1,46.4999971504213,2|0,0:0|0:0,0:0:0:0:
28,336,180537,2,0,L|40:276,1,46.4999971504213,2|0,0:0|0:0,0:0:0:0:
212,188,180805,2,0,L|204:124,1,46.4999971504213,10|0,0:0|0:0,0:0:0:0:
20,168,181073,2,0,L|32:108,1,46.4999971504213,2|0,0:0|0:0,0:0:0:0:
40,92,181274,1,0,0:0:0:0:
40,92,181341,2,0,B|76:72|136:80,1,92.9999943008425,2|2,0:0|0:0,0:0:0:0:
300,116,181877,1,8,0:0:0:0:
456,68,182145,1,0,0:0:0:0:
420,240,182412,6,0,L|424:308,1,46.4999971504213,2|0,0:0|0:0,0:0:0:0:
288,340,182680,2,0,L|290:293,1,46.4999971504213,2|0,0:0|0:0,0:0:0:0:
428,224,182948,2,0,L|432:292,1,46.4999971504213,10|0,0:0|0:0,0:0:0:0:
276,348,183216,2,0,L|278:301,1,46.4999971504213,2|0,0:0|0:0,0:0:0:0:
260,268,183417,1,0,0:0:0:0:
260,268,183484,2,0,P|216:256|160:260,1,92.9999943008425,2|2,0:0|0:0,0:0:0:0:
24,296,184020,1,8,0:0:0:0:
0,148,184287,1,0,0:0:0:0:
116,52,184555,6,0,B|160:52|160:52|208:32,1,92.9999943008425,10|2,0:0|0:0,0:0:0:0:
396,52,185091,2,0,B|352:52|352:52|306:33,1,92.9999943008425,10|2,0:0|0:0,0:0:0:0:
256,172,185627,2,0,L|256:252,1,46.4999971504213,10|0,0:0|0:0,0:0:0:0:
216,284,185895,2,0,L|180:316,1,46.4999971504213,2|0,0:0|0:0,0:0:0:0:
296,284,186162,2,0,L|332:316,1,46.4999971504213,8|0,0:0|0:0,0:0:0:0:
256,218,186430,6,0,L|256:184,3,23.2499985752106,0|0|0|0,1:0|1:0|1:0|1:0,0:0:0:0:
256,172,186698,6,0,P|228:168|140:172,1,61.9999980926514,2|0,0:0|0:0,0:0:0:0:
100,180,186966,1,0,1:0:0:0:
256,172,187100,2,0,P|284:168|372:172,1,61.9999980926514,2|0,0:0|0:0,0:0:0:0:
412,180,187368,1,0,1:0:0:0:
256,264,187502,2,0,L|256:332,1,61.9999980926514,2|0,0:0|1:0,0:0:0:0:
176,376,187770,5,4,3:0:0:0:
88,344,187903,1,8,3:0:0:0:
176,376,188037,1,4,3:0:0:0:
256,326,188171,1,8,3:0:0:0:
336,376,188305,5,4,3:0:0:0:
424,344,188439,1,8,3:0:0:0:
336,376,188573,1,4,3:0:0:0:
256,326,188707,1,8,3:0:0:0:
256,236,188841,6,0,B|244:176|268:176|256:120,1,116.249996423721
244,92,189310,1,2,0:0:0:0:
216,76,189377,6,0,P|184:72|108:80,1,85.2499999790192,4|0,0:0|0:0,0:0:0:0:
32,108,189645,1,2,0:0:0:0:
44,312,189778,2,0,B|48:360|48:360|104:332|168:344,1,170.499999958038,0|0,1:0|0:0,0:0:0:0:
268,364,190180,2,0,P|312:368|364:356,1,85.2499999790192,0|0,1:0|0:0,0:0:0:0:
440,308,190448,2,0,L|444:212,1,85.2499999790192,0|0,1:0|0:0,0:0:0:0:
300,176,190716,2,0,L|303:261,1,85.2499999790192,2|2,0:0|0:0,0:0:0:0:
392,88,190984,6,0,P|324:48|232:64,1,170.499999958038,0|2,1:0|0:0,0:0:0:0:
144,108,191386,1,0,0:0:0:0:
268,306,191520,2,0,B|280:324|280:324|300:176,1,170.499999958038,0|2,1:0|0:0,0:0:0:0:
368,100,191921,2,0,P|424:108|396:196,1,170.499999958038,0|2,1:0|0:0,0:0:0:0:
204,140,192323,2,0,P|192:84|284:80,1,170.499999958038,0|0,1:0|1:0,0:0:0:0:
300,176,192725,1,0,0:0:0:0:
260,272,192859,2,0,P|256:316|260:356,1,85.2499999790192,2|0,0:0|0:0,0:0:0:0:
444,308,193127,6,0,L|436:136,1,170.499999958038,0|2,1:0|0:0,0:0:0:0:
428,36,193528,1,0,0:0:0:0:
324,40,193662,2,0,P|276:44|236:56,2,85.2499999790192,0|0|2,1:0|0:0|0:0,0:0:0:0:
300,140,194064,2,0,L|296:248,1,85.2499999790192,0|0,1:0|0:0,0:0:0:0:
144,344,194332,1,2,0:0:0:0:
144,344,194466,2,0,L|140:258,1,85.2499999790192,0|0,1:0|0:0,0:0:0:0:
132,156,194734,1,0,1:0:0:0:
360,84,195002,1,2,0:0:0:0:
356,188,195136,1,2,0:0:0:0:
352,292,195270,6,0,P|412:328|504:300,1,170.499999958038,8|0,3:0|1:0,0:0:0:0:
432,228,195671,1,0,1:0:0:0:
252,336,195805,2,0,P|192:372|100:344,1,170.499999958038,8|0,3:0|1:0,0:0:0:0:
172,272,196207,1,0,1:0:0:0:
236,88,196341,2,0,L|244:196,1,85.2499999790192,8|0,3:0|1:0,0:0:0:0:
68,252,196609,2,0,L|74:166,1,85.2499999790192,0|0,1:0|1:0,0:0:0:0:
84,64,196877,5,8,3:0:0:0:
180,28,197011,1,2,0:0:0:0:
272,72,197145,1,2,0:0:0:0:
280,172,197278,1,2,0:0:0:0:
212,236,197412,5,4,0:0:0:0:
