osu file format v14

[General]
AudioFilename: gfriend-rough.mp3
AudioLeadIn: 0
PreviewTime: 51162
Countdown: 0
SampleSet: Soft
StackLeniency: 0.7
Mode: 0
LetterboxInBreaks: 0
WidescreenStoryboard: 1

[Editor]
Bookmarks: 8841,61207,68841,77412,87591,170895
DistanceSpacing: 1.4
BeatDivisor: 4
GridSize: 4
TimelineZoom: 1.6

[Metadata]
Title:Rough
TitleUnicode:시간을 달려서
Artist:GFRIEND
ArtistUnicode:여자친구
Creator:Norman
Version:Hard
Source:
Tags:소원 예린 은하 유주 신비 엄지 SNOWFLAKE 쏘스뮤직 kpop
BeatmapID:1107569
BeatmapSetID:409464

[Difficulty]
HPDrainRate:6
CircleSize:4
OverallDifficulty:5
ApproachRate:8
SliderMultiplier:2.19999990463257
SliderTickRate:2

[Events]
//Background and Video events
0,0,"rough.jpg",0,0
Video,-336,"pv.avi"
//Break Periods
2,69041,76662
2,129041,136662
2,154755,160234
//Storyboard Layer 0 (Background)
//Storyboard Layer 1 (Fail)
//Storyboard Layer 2 (Pass)
//Storyboard Layer 3 (Foreground)
//Storyboard Sound Samples

[TimingPoints]
270,535.714285714286,4,2,0,100,1,0
8841,-133.333333333333,4,2,0,70,0,0
15270,-117.647058823529,4,2,0,80,0,0
17145,-117.647058823529,4,2,0,60,0,0
18216,-117.647058823529,4,2,0,50,0,0
18350,-117.647058823529,4,2,0,60,0,0
18752,-117.647058823529,4,2,0,50,0,0
18886,-117.647058823529,4,2,0,60,0,0
22502,-117.647058823529,4,2,0,50,0,0
22636,-117.647058823529,4,2,0,60,0,0
23037,-117.647058823529,4,2,0,50,0,0
23171,-117.647058823529,4,2,0,60,0,0
25046,-117.647058823529,4,2,0,40,0,0
25180,-117.647058823529,4,2,0,60,0,0
26787,-117.647058823529,4,2,0,50,0,0
26921,-117.647058823529,4,2,0,60,0,0
27323,-117.647058823529,4,2,0,50,0,0
27457,-117.647058823529,4,2,0,60,0,0
31073,-117.647058823529,4,2,0,50,0,0
31207,-117.647058823529,4,2,0,60,0,0
31609,-117.647058823529,4,2,0,50,0,0
31877,-117.647058823529,4,2,0,60,0,0
33752,-117.647058823529,4,2,0,40,0,0
34555,-117.647058823529,4,2,0,60,0,0
35359,-117.647058823529,4,2,0,50,0,0
35493,-117.647058823529,4,2,0,60,0,0
35895,-117.647058823529,4,2,0,50,0,0
36162,-117.647058823529,4,2,0,60,0,0
39645,-117.647058823529,4,2,0,50,0,0
39778,-117.647058823529,4,2,0,60,0,0
40180,-117.647058823529,4,2,0,50,0,0
40448,-117.647058823529,4,2,0,60,0,0
41252,-117.647058823529,4,2,0,50,0,0
41520,-117.647058823529,4,2,0,60,0,0
44466,-117.647058823529,4,2,0,50,0,0
44734,-117.647058823529,4,2,0,60,0,0
46207,-117.647058823529,4,2,0,50,0,0
46341,-117.647058823529,4,2,0,60,0,0
46609,-117.647058823529,4,2,0,50,0,0
47145,-117.647058823529,4,2,0,60,0,0
48752,-117.647058823529,4,2,0,50,0,0
49020,-117.647058823529,4,2,0,60,0,0
49287,-117.647058823529,4,2,0,50,0,0
51028,-117.647058823529,4,2,0,70,0,0
51430,-117.647058823529,4,2,0,60,0,0
51698,-100,4,2,0,80,0,1
68841,-100,4,2,0,80,0,0
77412,-117.647058823529,4,2,0,70,0,0
77680,-117.647058823529,4,2,0,50,0,0
78216,-117.647058823529,4,2,0,40,0,0
78350,-117.647058823529,4,2,0,50,0,0
78752,-117.647058823529,4,2,0,40,0,0
78886,-117.647058823529,4,2,0,50,0,0
81698,-117.647058823529,4,2,0,60,0,0
82502,-117.647058823529,4,2,0,50,0,0
82636,-117.647058823529,4,2,0,60,0,0
83037,-117.647058823529,4,2,0,50,0,0
83171,-117.647058823529,4,2,0,60,0,0
84109,-117.647058823529,4,2,0,50,0,0
84243,-117.647058823529,4,2,0,60,0,0
86787,-117.647058823529,4,2,0,50,0,0
86921,-117.647058823529,4,2,0,60,0,0
87323,-117.647058823529,4,2,0,50,0,0
87457,-117.647058823529,4,2,0,60,0,0
91073,-117.647058823529,4,2,0,50,0,0
91207,-117.647058823529,4,2,0,60,0,0
91609,-117.647058823529,4,2,0,50,0,0
91877,-117.647058823529,4,2,0,60,0,0
93752,-117.647058823529,4,2,0,40,0,0
94555,-117.647058823529,4,2,0,60,0,0
95359,-117.647058823529,4,2,0,50,0,0
95493,-117.647058823529,4,2,0,60,0,0
95895,-117.647058823529,4,2,0,50,0,0
96162,-117.647058823529,4,2,0,60,0,0
99645,-117.647058823529,4,2,0,50,0,0
99778,-117.647058823529,4,2,0,60,0,0
100180,-117.647058823529,4,2,0,50,0,0
100314,-117.647058823529,4,2,0,60,0,0
101252,-117.647058823529,4,2,0,50,0,0
101520,-117.647058823529,4,2,0,60,0,0
103662,-117.647058823529,4,2,0,50,0,0
103930,-117.647058823529,4,2,0,60,0,0
104466,-117.647058823529,4,2,0,50,0,0
104734,-117.647058823529,4,2,0,60,0,0
106073,-117.647058823529,4,2,0,50,0,0
106207,-117.647058823529,4,2,0,60,0,0
106609,-117.647058823529,4,2,0,50,0,0
106877,-117.647058823529,4,2,0,60,0,0
108752,-117.647058823529,4,2,0,50,0,0
109020,-117.647058823529,4,2,0,60,0,0
109287,-117.647058823529,4,2,0,50,0,0
111028,-117.647058823529,4,2,0,70,0,0
111430,-117.647058823529,4,2,0,60,0,0
111698,-100,4,2,0,80,0,1
128841,-117.647058823529,4,2,0,80,0,0
137412,-117.647058823529,4,2,0,60,0,0
137948,-117.647058823529,4,2,0,40,0,0
138082,-117.647058823529,4,2,0,60,0,0
139020,-117.647058823529,4,2,0,40,0,0
139153,-117.647058823529,4,2,0,60,0,0
140091,-117.647058823529,4,2,0,40,0,0
140225,-117.647058823529,4,2,0,60,0,0
142234,-117.647058823529,4,2,0,40,0,0
142368,-117.647058823529,4,2,0,60,0,0
143305,-117.647058823529,4,2,0,40,0,0
143439,-117.647058823529,4,2,0,60,0,0
144377,-117.647058823529,4,2,0,40,0,0
144511,-117.647058823529,4,2,0,60,0,0
145180,-117.647058823529,4,2,0,70,0,0
145314,-117.647058823529,4,2,0,50,0,0
145448,-117.647058823529,4,2,0,70,0,0
145582,-117.647058823529,4,2,0,50,0,0
145716,-117.647058823529,4,2,0,70,0,0
145850,-117.647058823529,4,2,0,50,0,0
145984,-117.647058823529,4,2,0,60,0,0
146520,-117.647058823529,4,2,0,50,0,0
146653,-117.647058823529,4,2,0,60,0,0
147323,-117.647058823529,4,2,0,50,0,0
147457,-117.647058823529,4,2,0,60,0,0
149198,-117.647058823529,4,2,0,40,0,0
149332,-117.647058823529,4,2,0,60,0,0
149466,-117.647058823529,4,2,0,40,0,0
149734,-117.647058823529,4,2,0,60,0,0
151073,-117.647058823529,4,2,0,50,0,0
151207,-117.647058823529,4,2,0,60,0,0
152412,-117.647058823529,4,2,0,70,0,0
152680,-100,4,2,0,70,0,0
153484,-100,4,2,0,80,0,0
153886,-100,4,2,0,80,0,0
154287,-100,4,2,0,60,0,0
154555,-100,4,2,0,50,0,0
160984,-142.857142857143,4,2,0,60,0,0
161520,-125,4,2,0,50,0,0
161787,-111.111111111111,4,2,0,70,0,0
162055,-111.111111111111,4,2,0,80,0,0
162323,-111.111111111111,4,2,0,70,0,0
162591,-111.111111111111,4,2,0,80,0,0
163127,-100,4,2,0,80,0,1
180270,-166.666666666667,4,2,0,60,0,0
186430,-166.666666666667,4,2,0,50,0,0
186698,-125,4,2,0,70,0,0
188841,-166.666666666667,4,2,0,45,0,0
189377,-100,4,2,0,80,0,1
197412,-100,4,2,0,80,0,0

[Colours]
Combo1 : 179,179,102
Combo2 : 192,192,192
Combo3 : 0,85,170
Combo4 : 174,94,94

[HitObjects]
20,124,8841,6,0,B|96:100|104:144|184:124,1,164.999999141693,4|8,0:0|0:0,0:0:0:0:
256,36,9645,1,0,1:0:0:0:
329,124,9912,2,0,B|408:144|416:100|492:124,1,164.999999141693,0|8,0:0|0:0,0:0:0:0:
448,232,10716,1,0,0:0:0:0:
444,288,10850,1,0,0:0:0:0:
440,344,10984,2,0,P|392:348|344:340,1,82.4999995708466,0|0,1:0|0:0,0:0:0:0:
256,284,11520,1,8,0:0:0:0:
264,200,11787,2,0,L|268:144,1,41.2499997854233,0|0,0:0|0:0,0:0:0:0:
224,120,12055,2,0,L|220:68,2,41.2499997854233,0|0|0,0:0|0:0|0:0,0:0:0:0:
132,192,12591,1,8,0:0:0:0:
32,132,12859,1,0,0:0:0:0:
32,248,13127,2,0,P|32:292|40:336,1,82.4999995708466,0|0,1:0|0:0,0:0:0:0:
144,280,13662,2,0,P|150:239|150:198,1,82.4999995708466,8|0,0:0|1:0,0:0:0:0:
140,84,14198,2,0,P|116:52|84:24,1,82.4999995708466,0|0,0:0|0:0,0:0:0:0:
32,132,14734,2,0,L|27:219,1,82.4999995708466,8|0,0:0|0:0,0:0:0:0:
24,332,15270,6,0,P|112:352|156:328,1,140.249996595383,0|0,1:0|1:0,0:0:0:0:
208,280,15805,2,0,P|272:255|337:278,1,140.249996595383,0|0,1:0|1:0,0:0:0:0:
400,320,16341,2,0,P|440:328|492:320,1,93.4999977302552,0|0,1:0|1:0,0:0:0:0:
448,196,16877,1,0,1:0:0:0:
492,72,17145,1,0,1:0:0:0:
448,64,17278,1,0,1:0:0:0:
404,76,17412,6,0,B|312:104|308:56|220:80,1,186.99999546051,4|8,0:0|3:0,0:0:0:0:
148,100,18082,1,0,0:0:0:0:
152,176,18216,2,0,L|156:264,1,46.7499988651276,8|0,3:0|0:0,0:0:0:0:
112,288,18484,2,0,P|152:300|204:284,1,93.4999977302552,0|8,0:0|3:0,0:0:0:0:
340,232,19020,1,8,3:0:0:0:
472,296,19287,1,2,0:0:0:0:
464,148,19555,6,0,P|460:100|444:56,1,93.4999977302552,0|0,1:0|0:0,0:0:0:0:
316,136,20091,1,8,3:0:0:0:
240,144,20225,2,0,L|180:152,1,46.7499988651276,0|0,0:0|0:0,0:0:0:0:
124,176,20493,2,0,P|112:208|112:332,1,140.249996595383,2|2,0:0|0:0,0:0:0:0:
248,260,21162,1,8,3:0:0:0:
360,360,21430,1,0,0:0:0:0:
436,352,21564,1,0,0:0:0:0:
512,344,21698,6,0,B|500:284|444:276|444:276|492:272|508:228,1,186.99999546051,0|8,1:0|3:0,0:0:0:0:
436,200,22368,1,0,0:0:0:0:
392,140,22502,2,0,P|388:116|392:80,1,46.7499988651276,8|0,3:0|0:0,0:0:0:0:
436,36,22770,2,0,L|324:32,1,93.4999977302552,0|8,0:0|3:0,0:0:0:0:
268,32,23171,1,0,0:0:0:0:
212,80,23305,2,0,P|200:100|188:132,1,46.7499988651276,0|0,1:0|0:0,0:0:0:0:
176,196,23573,2,0,P|173:219|176:253,1,46.7499988651276,2|0,0:0|0:0,0:0:0:0:
204,312,23841,6,0,P|157:308|111:315,1,93.4999977302552,0|0,1:0|0:0,0:0:0:0:
280,352,24377,1,0,1:0:0:0:
396,256,24645,1,2,0:0:0:0:
396,256,24778,2,0,B|372:192|408:184|388:116,1,140.249996595383,2|2,0:0|0:0,0:0:0:0:
244,152,25448,1,2,0:0:0:0:
148,40,25716,1,0,0:0:0:0:
76,60,25850,1,0,0:0:0:0:
4,84,25984,6,0,P|-4:136|8:216,1,93.4999977302552,0|0,1:0|0:0,0:0:0:0:
40,320,26520,1,8,3:0:0:0:
188,312,26787,2,0,L|264:304,1,46.7499988651276,8|0,3:0|0:0,0:0:0:0:
308,296,27055,2,0,P|336:256|344:200,1,93.4999977302551,2|8,0:0|3:0,0:0:0:0:
340,136,27457,1,0,0:0:0:0:
416,132,27591,2,0,L|484:128,1,46.7499988651276,0|0,1:0|0:0,0:0:0:0:
460,52,27859,2,0,L|413:54,1,46.7499988651276,0|0,0:0|0:0,0:0:0:0:
336,56,28127,6,0,P|292:72|264:108,1,93.4999977302551,0|0,1:0|0:0,0:0:0:0:
240,180,28528,1,0,0:0:0:0:
164,172,28662,2,0,L|88:168,2,46.7499988651276,8|0|0,3:0|0:0|0:0,0:0:0:0:
196,240,29064,2,0,B|192:292|192:292|200:332|200:332|196:380,1,140.249996595383,2|2,0:0|0:0,0:0:0:0:
52,340,29734,1,8,3:0:0:0:
52,192,30002,1,0,0:0:0:0:
196,240,30270,6,0,P|248:248|328:240,1,93.4999977302551,0|0,1:0|0:0,0:0:0:0:
364,236,30671,1,0,0:0:0:0:
360,312,30805,2,0,L|358:358,1,46.7499988651276,8|0,3:0|0:0,0:0:0:0:
428,280,31073,2,0,L|469:257,1,46.7499988651276,2|0,0:0|0:0,0:0:0:0:
364,236,31341,2,0,L|324:211,2,46.7499988651276,0|0|8,0:0|0:0|3:0,0:0:0:0:
452,116,31877,1,0,1:0:0:0:
316,52,32145,1,0,0:0:0:0:
244,44,32278,1,0,0:0:0:0:
168,36,32412,6,0,B|120:32|120:32|68:44,2,93.4999977302551,2|2|0,0:0|0:0|1:0,0:0:0:0:
128,180,33216,1,2,0:0:0:0:
120,256,33350,1,8,3:0:0:0:
112,332,33484,2,0,L|108:378,1,46.7499988651276,0|0,0:0|0:0,0:0:0:0:
212,352,33752,2,0,L|208:305,1,46.7499988651276,8|8,3:0|3:0,0:0:0:0:
312,280,34020,2,0,L|308:326,1,46.7499988651276,8|8,3:0|3:0,0:0:0:0:
412,308,34288,2,0,L|408:261,1,46.7499988651276,8|8,3:0|3:0,0:0:0:0:
404,188,34555,5,4,0:0:0:0:
212,60,35091,6,0,P|152:56|100:68,1,93.4999977302551,0|8,1:0|3:0,0:0:0:0:
48,88,35493,1,0,0:0:0:0:
52,164,35627,2,0,L|56:244,1,46.7499988651276,0|0,0:0|0:0,0:0:0:0:
56,288,35895,1,8,3:0:0:0:
192,348,36162,1,8,3:0:0:0:
328,288,36430,1,2,0:0:0:0:
404,280,36564,1,2,0:0:0:0:
480,272,36698,6,0,P|484:224|480:176,1,93.4999977302551,0|0,1:0|0:0,0:0:0:0:
396,56,37234,1,8,3:0:0:0:
256,112,37502,1,0,0:0:0:0:
256,112,37636,2,0,B|192:132|184:88|116:108,1,140.249996595383,0|0,1:0|1:0,0:0:0:0:
8,208,38305,1,8,3:0:0:0:
60,348,38573,1,0,0:0:0:0:
208,324,38841,6,0,B|300:308|300:308|368:340,1,140.249996595383,0|0,1:0|0:0,0:0:0:0:
412,360,39377,2,0,P|460:352|496:324,1,93.4999977302551,8|8,3:0|3:0,0:0:0:0:
512,252,39778,1,0,0:0:0:0:
512,252,39912,2,0,L|504:172,1,46.7499988651276,2|0,0:0|0:0,0:0:0:0:
412,192,40180,2,0,L|412:112,1,46.7499988651276,8|0,3:0|0:0,0:0:0:0:
316,132,40448,2,0,L|324:76,1,46.7499988651276,0|0,1:0|0:0,0:0:0:0:
224,92,40716,1,0,0:0:0:0:
224,92,40850,1,0,0:0:0:0:
224,92,40984,6,0,P|176:100|88:84,2,93.4999977302551,0|8|0,1:0|3:0|1:0,0:0:0:0:
356,24,41787,1,0,0:0:0:0:
356,24,41921,2,0,P|376:88|348:172,1,140.249996595383,2|2,0:0|0:0,0:0:0:0:
284,288,42591,1,0,1:0:0:0:
432,288,42859,1,0,0:0:0:0:
358,157,43127,6,0,P|268:136|184:176,1,186.99999546051,4|0,0:0|1:0,0:0:0:0:
68,264,43930,2,0,L|64:364,2,93.4999977302551,8|0|0,3:0|0:0|0:0,0:0:0:0:
4,128,44734,1,0,1:0:0:0:
116,28,45002,1,2,0:0:0:0:
192,32,45136,1,2,0:0:0:0:
268,36,45270,6,0,B|288:128|248:128|268:224,1,186.99999546051,0|0,1:0|1:0,0:0:0:0:
356,340,46073,1,0,0:0:0:0:
356,340,46207,2,0,P|428:348|496:332,1,140.249996595383,8|8,3:0|3:0,0:0:0:0:
416,204,46877,2,0,L|412:140,1,46.7499988651276,0|0,1:0|0:0,0:0:0:0:
320,132,47145,2,0,L|316:68,1,46.7499988651276,0|0,0:0|0:0,0:0:0:0:
224,40,47412,6,0,P|176:36|116:56,1,93.4999977302551,0|0,1:0|0:0,0:0:0:0:
68,88,47814,1,0,0:0:0:0:
68,164,47948,2,0,L|72:272,1,93.4999977302551,2|0,0:0|0:0,0:0:0:0:
204,328,48484,2,0,L|204:380,2,46.7499988651276,2|0|8,0:0|0:0|3:0,0:0:0:0:
336,256,49020,1,0,1:0:0:0:
212,172,49287,1,2,0:0:0:0:
204,96,49421,1,2,0:0:0:0:
228,24,49555,5,4,3:0:0:0:
344,116,49823,1,0,0:0:0:0:
304,260,50091,1,0,0:0:0:0:
156,260,50359,1,0,0:0:0:0:
116,116,50627,2,0,P|152:64|220:24,1,140.249996595383,0|0,0:0|1:0,0:0:0:0:
217,24,51095,1,0,1:0:0:0:
217,24,51162,1,0,1:0:0:0:
376,52,51430,1,0,1:0:0:0:
440,92,51564,1,0,1:0:0:0:
504,136,51698,6,0,L|504:168|504:196,2,54.9999976158142,4|0|2,0:0|0:0|0:0,0:0:0:0:
440,92,52100,1,0,0:0:0:0:
368,116,52234,2,0,B|300:136|300:136|252:124,1,109.999995231628,0|2,1:0|0:0,0:0:0:0:
188,100,52636,2,0,P|116:88|44:128,1,109.999995231628,0|2,1:0|0:0,0:0:0:0:
20,144,53037,1,0,1:0:0:0:
136,248,53305,1,0,1:0:0:0:
52,376,53573,1,0,0:0:0:0:
208,380,53841,6,0,L|280:376,1,54.9999976158142,0|0,1:0|0:0,0:0:0:0:
336,376,54109,1,2,0:0:0:0:
388,320,54243,1,0,0:0:0:0:
388,320,54377,2,0,P|400:260|396:204,1,109.999995231628,0|2,1:0|0:0,0:0:0:0:
380,136,54778,2,0,L|540:140,1,109.999995231628,0|0,1:0|0:0,0:0:0:0:
492,60,55180,2,0,L|382:57,1,109.999995231628,0|0,1:0|1:0,0:0:0:0:
228,56,55716,1,2,0:0:0:0:
104,148,55984,6,0,P|76:176|48:248,1,109.999995231628,0|2,1:0|0:0,0:0:0:0:
152,356,56520,2,0,P|180:328|208:256,1,109.999995231628,0|2,1:0|0:0,0:0:0:0:
256,116,57055,1,0,1:0:0:0:
360,228,57323,2,0,L|416:248,1,54.9999976158142,0|0,1:0|0:0,0:0:0:0:
484,276,57591,1,0,1:0:0:0:
500,124,57859,1,2,0:0:0:0:
364,52,58127,6,0,P|320:32|240:28,1,109.999995231628,0|0,1:0|1:0,0:0:0:0:
124,100,58662,2,0,P|68:108|16:136,1,109.999995231628,0|2,1:0|0:0,0:0:0:0:
4,208,59064,1,0,1:0:0:0:
8,284,59198,2,0,L|12:360,1,54.9999976158142,0|8,1:0|3:0,0:0:0:0:
108,356,59466,2,0,L|105:301,1,54.9999976158142,2|0,0:0|1:0,0:0:0:0:
192,264,59734,2,0,L|195:319,1,54.9999976158142,8|0,3:0|0:0,0:0:0:0:
288,340,60002,2,0,L|285:285,1,54.9999976158142,0|2,1:0|0:0,0:0:0:0:
280,208,60270,5,4,0:0:0:0:
276,132,60403,2,0,P|304:124|332:120,1,54.9999976158142,0|2,0:0|0:0,0:0:0:0:
400,156,60671,1,0,0:0:0:0:
400,156,60805,2,0,P|403:100|360:40,1,109.999995231628,0|2,1:0|0:0,0:0:0:0:
329,120,61207,2,0,P|326:176|369:236,1,109.999995231628,0|0,1:0|0:0,0:0:0:0:
428,228,61609,1,0,1:0:0:0:
416,380,61877,1,0,1:0:0:0:
272,328,62145,1,2,0:0:0:0:
196,316,62278,1,2,0:0:0:0:
128,316,62412,6,0,P|120:256|132:192,1,109.999995231628,0|2,1:0|0:0,0:0:0:0:
127,207,62814,1,0,0:0:0:0:
127,207,62948,2,0,P|135:152|127:98,1,109.999995231628,0|2,1:0|0:0,0:0:0:0:
127,98,63350,1,0,1:0:0:0:
127,98,63484,2,0,L|247:87,1,109.999995231628,0|0,0:0|1:0,0:0:0:0:
392,72,64020,1,0,1:0:0:0:
404,224,64287,1,2,0:0:0:0:
412,300,64421,1,0,0:0:0:0:
420,376,64555,6,0,P|368:360|304:364,1,109.999995231628,0|2,1:0|0:0,0:0:0:0:
160,376,65091,1,0,1:0:0:0:
40,280,65359,1,2,0:0:0:0:
40,280,65493,2,0,L|32:160,1,109.999995231628,0|2,1:0|0:0,0:0:0:0:
52,96,65895,2,0,P|104:84|204:84,1,109.999995231628,0|0,1:0|1:0,0:0:0:0:
312,96,66430,1,2,0:0:0:0:
408,216,66698,5,8,3:0:0:0:
320,344,66966,1,0,1:0:0:0:
244,348,67100,1,0,1:0:0:0:
168,352,67234,2,0,P|128:312|120:240,1,109.999995231628,8|0,3:0|1:0,0:0:0:0:
128,184,67636,1,0,1:0:0:0:
128,184,67770,2,0,P|148:112|124:56,1,109.999995231628,8|0,3:0|1:0,0:0:0:0:
80,28,68171,1,0,1:0:0:0:
80,28,68305,2,0,L|16:24,1,54.9999976158142,8|0,3:0|0:0,0:0:0:0:
139,79,68573,2,0,L|216:72,1,54.9999976158142,0|0,1:0|1:0,0:0:0:0:
76,128,68841,5,4,0:0:0:0:
116,92,77412,22,0,B|124:136|108:136|115:185,1,93.4999977302551,2|0,0:0|0:0,0:0:0:0:
172,324,77948,6,0,L|236:328,1,46.7499988651276,0|0,0:0|0:0,0:0:0:0:
296,328,78216,2,0,L|342:325,1,46.7499988651276,8|0,3:0|0:0,0:0:0:0:
408,288,78484,2,0,P|420:236|416:164,1,93.4999977302551,0|8,0:0|3:0,0:0:0:0:
392,124,78886,1,0,0:0:0:0:
456,84,79020,2,0,L|480:80|516:80,1,46.7499988651276,0|0,1:0|0:0,0:0:0:0:
392,124,79287,2,0,L|375:124|344:120,1,46.7499988651276,2|0,0:0|0:0,0:0:0:0:
276,92,79555,6,0,P|236:88|184:96,1,93.4999977302551,0|0,1:0|0:0,0:0:0:0:
183,96,79957,1,0,0:0:0:0:
236,236,80225,1,0,0:0:0:0:
88,220,80493,2,0,B|88:284|88:284|144:360,1,140.249996595383,0|0,1:0|1:0,0:0:0:0:
236,236,81162,1,8,3:0:0:0:
348,336,81430,1,0,0:0:0:0:
424,332,81564,1,0,0:0:0:0:
500,328,81698,6,0,P|504:276|500:224,1,93.4999977302551,0|0,0:0|0:0,0:0:0:0:
456,92,82234,2,0,L|376:96,1,46.7499988651276,0|0,1:0|0:0,0:0:0:0:
336,76,82502,2,0,L|260:80,1,46.7499988651276,8|0,3:0|0:0,0:0:0:0:
216,56,82770,2,0,L|88:60,1,93.4999977302551,0|8,0:0|3:0,0:0:0:0:
12,160,83305,2,0,P|4:200|8:276,1,93.4999977302551,0|0,1:0|0:0,0:0:0:0:
40,320,83707,1,0,0:0:0:0:
108,288,83841,6,0,B|152:276|156:296|200:288,1,93.4999977302551,0|8,1:0|3:0,0:0:0:0:
284,164,84377,1,0,1:0:0:0:
344,300,84645,1,0,0:0:0:0:
344,300,84778,2,0,B|348:340|348:340|396:356|448:332,1,140.249996595383,2|2,0:0|0:0,0:0:0:0:
504,196,85448,1,0,1:0:0:0:
420,72,85716,1,0,0:0:0:0:
344,64,85850,1,0,0:0:0:0:
268,60,85984,6,0,P|224:60|160:72,1,93.4999977302551,0|0,1:0|0:0,0:0:0:0:
76,180,86520,2,0,L|80:292,1,93.4999977302551,0|8,1:0|3:0,0:0:0:0:
84,348,86921,1,0,0:0:0:0:
148,308,87055,2,0,P|176:304|224:304,1,46.7499988651276,0|0,0:0|0:0,0:0:0:0:
268,320,87323,2,0,P|288:323|316:324,1,46.7499988651276,8|0,3:0|0:0,0:0:0:0:
380,288,87591,2,0,L|384:192,1,93.4999977302551,0|2,1:0|0:0,0:0:0:0:
388,120,87993,1,0,0:0:0:0:
420,52,88127,6,0,P|380:46|332:68,1,93.4999977302551,0|0,1:0|0:0,0:0:0:0:
268,108,88528,1,0,0:0:0:0:
204,68,88662,2,0,P|162:47|116:52,1,93.4999977302551,0|0,1:0|0:0,0:0:0:0:
60,104,89064,2,0,B|48:183|48:183|64:244,1,140.249996595383,2|2,0:0|0:0,0:0:0:0:
120,380,89734,1,0,1:0:0:0:
216,264,90002,1,0,0:0:0:0:
356,320,90270,6,0,P|400:324|476:312,1,93.4999977302551,0|0,1:0|0:0,0:0:0:0:
492,260,90671,1,0,0:0:0:0:
492,260,90805,2,0,L|488:144,1,93.4999977302551,0|8,1:0|3:0,0:0:0:0:
484,92,91207,1,0,0:0:0:0:
444,28,91341,2,0,P|472:20|516:16,2,46.7499988651276,0|0|8,0:0|0:0|3:0,0:0:0:0:
328,124,91877,1,0,1:0:0:0:
192,56,92145,1,0,0:0:0:0:
120,64,92278,1,0,0:0:0:0:
48,76,92412,6,0,L|52:144,1,46.7499988651276,2|0,0:0|0:0,0:0:0:0:
56,196,92680,1,2,0:0:0:0:
204,176,92948,1,0,1:0:0:0:
148,316,93216,1,2,0:0:0:0:
220,336,93350,1,8,3:0:0:0:
292,352,93484,2,0,L|356:368,1,46.7499988651276,0|0,0:0|0:0,0:0:0:0:
272,280,93752,2,0,L|288:216,1,46.7499988651276,8|8,3:0|3:0,0:0:0:0:
220,336,94020,2,0,L|148:316,1,46.7499988651276,8|8,3:0|3:0,0:0:0:0:
104,304,94287,1,8,3:0:0:0:
32,280,94421,1,8,3:0:0:0:
16,208,94555,6,0,P|8:168|12:116,1,93.4999977302551,4|0,0:0|0:0,0:0:0:0:
156,68,95091,2,0,P|164:108|156:160,1,93.4999977302551,0|8,1:0|3:0,0:0:0:0:
124,228,95493,1,0,0:0:0:0:
132,304,95627,2,0,L|144:384,2,46.7499988651276,0|0|8,0:0|0:0|3:0,0:0:0:0:
272,252,96162,2,0,B|324:248|324:248|392:280,1,93.4999977302551,8|2,3:0|0:0,0:0:0:0:
424,308,96564,1,0,0:0:0:0:
472,248,96698,6,0,P|480:200|472:136,1,93.4999977302551,0|0,1:0|0:0,0:0:0:0:
456,84,97100,1,0,0:0:0:0:
380,92,97234,2,0,L|304:100,2,46.7499988651276,0|0|0,1:0|0:0|0:0,0:0:0:0:
372,16,97636,2,0,L|232:28,1,140.249996595383,0|0,1:0|1:0,0:0:0:0:
84,40,98305,1,8,3:0:0:0:
168,164,98573,1,0,0:0:0:0:
48,252,98841,6,0,P|48:308|60:364,1,93.4999977302551,0|0,1:0|0:0,0:0:0:0:
204,320,99377,2,0,P|211:273|210:227,1,93.4999977302551,0|8,1:0|3:0,0:0:0:0:
168,164,99778,1,0,0:0:0:0:
216,104,99912,2,0,L|292:96,1,46.7499988651276,2|0,0:0|0:0,0:0:0:0:
316,28,100180,2,0,L|360:56,1,46.7499988651276,8|0,3:0|0:0,0:0:0:0:
440,72,100448,2,0,L|432:136,1,46.7499988651276,0|0,1:0|0:0,0:0:0:0:
424,192,100716,1,0,0:0:0:0:
412,264,100850,1,0,0:0:0:0:
400,340,100984,6,0,P|448:336|480:300,2,93.4999977302551,0|8|0,1:0|3:0|1:0,0:0:0:0:
264,276,101787,1,0,0:0:0:0:
264,276,101921,2,0,B|176:260|176:260|128:288,1,140.249996595383,0|0,1:0|1:0,0:0:0:0:
8,368,102591,1,8,3:0:0:0:
0,220,102859,1,0,0:0:0:0:
60,84,103127,6,0,B|152:60|152:108|244:84,1,186.99999546051,4|8,0:0|3:0,0:0:0:0:
380,24,103930,2,0,P|392:76|372:152,1,93.4999977302551,0|0,1:0|0:0,0:0:0:0:
372,188,104332,1,0,0:0:0:0:
448,184,104466,2,0,L|494:181,1,46.7499988651276,8|0,3:0|0:0,0:0:0:0:
420,260,104734,2,0,P|408:305|412:351,1,93.4999977302551,0|2,1:0|0:0,0:0:0:0:
412,351,105136,1,0,0:0:0:0:
412,351,105270,6,0,L|300:343,1,93.4999977302551,0|0,1:0|0:0,0:0:0:0:
232,220,105805,2,0,L|138:226,1,93.4999977302551,0|8,1:0|3:0,0:0:0:0:
64,220,106207,2,0,P|48:164|60:72,1,140.249996595383,0|8,1:0|3:0,0:0:0:0:
192,20,106877,1,0,1:0:0:0:
328,84,107145,1,0,0:0:0:0:
404,88,107278,1,0,0:0:0:0:
480,92,107412,6,0,L|488:156,1,46.7499988651276,0|0,1:0|0:0,0:0:0:0:
476,212,107680,2,0,L|470:258,2,46.7499988651276,0|0|0,0:0|0:0|1:0,0:0:0:0:
488,360,108216,1,0,1:0:0:0:
416,344,108350,1,0,0:0:0:0:
344,356,108484,2,0,P|300:364|228:352,2,93.4999977302551,2|8|0,0:0|3:0|1:0,0:0:0:0:
292,216,109287,2,0,L|288:148,1,46.7499988651276,2|2,0:0|0:0,0:0:0:0:
284,96,109555,5,4,3:0:0:0:
152,28,109823,1,0,0:0:0:0:
64,148,110091,1,0,0:0:0:0:
152,268,110359,1,0,0:0:0:0:
292,216,110627,2,0,B|356:204|360:232|444:216,1,140.249996595383,0|0,0:0|1:0,0:0:0:0:
448,212,111095,1,0,1:0:0:0:
464,200,111162,1,0,1:0:0:0:
456,52,111430,1,0,1:0:0:0:
384,28,111564,1,0,1:0:0:0:
308,48,111698,6,0,P|292:68|276:96,1,54.9999976158142,4|0,0:0|0:0,0:0:0:0:
256,168,111966,2,0,P|252:196|256:244,1,54.9999976158142,2|0,0:0|0:0,0:0:0:0:
264,300,112234,2,0,L|128:296,1,109.999995231628,0|2,1:0|0:0,0:0:0:0:
76,296,112636,2,0,P|48:248|68:152,1,109.999995231628,0|2,1:0|0:0,0:0:0:0:
64,120,113037,1,0,1:0:0:0:
199,48,113305,2,0,B|255:32|255:64|307:48,1,109.999995231628,0|0,1:0|0:0,0:0:0:0:
384,36,113707,1,0,0:0:0:0:
392,112,113841,6,0,L|400:192,1,54.9999976158142,0|0,1:0|0:0,0:0:0:0:
404,244,114109,1,2,0:0:0:0:
456,300,114243,1,0,0:0:0:0:
456,300,114377,2,0,P|404:316|352:296,1,109.999995231628,0|2,1:0|0:0,0:0:0:0:
288,256,114778,2,0,L|168:272,1,109.999995231628,0|0,1:0|0:0,0:0:0:0:
100,280,115180,1,0,1:0:0:0:
16,152,115448,1,0,1:0:0:0:
124,40,115716,1,2,0:0:0:0:
200,48,115850,1,0,0:0:0:0:
276,56,115984,6,0,B|284:112|264:112|272:168,1,109.999995231628,0|2,1:0|0:0,0:0:0:0:
320,312,116520,2,0,P|268:320|204:304,1,109.999995231628,0|2,1:0|0:0,0:0:0:0:
64,268,117055,1,0,1:0:0:0:
52,116,117323,2,0,L|48:60,1,54.9999976158142,0|0,1:0|0:0,0:0:0:0:
48,61,117591,1,0,1:0:0:0:
200,84,117859,1,2,0:0:0:0:
348,40,118127,6,0,P|408:40|476:64,1,109.999995231628,0|0,1:0|1:0,0:0:0:0:
440,208,118662,2,0,P|380:208|312:184,1,109.999995231628,0|0,1:0|0:0,0:0:0:0:
268,148,119064,1,0,0:0:0:0:
192,152,119198,2,0,L|137:157,1,54.9999976158142,0|8,1:0|3:0,0:0:0:0:
224,80,119466,2,0,L|216:0,1,54.9999976158142,2|0,0:0|1:0,0:0:0:0:
268,148,119734,2,0,L|322:142,1,54.9999976158142,8|0,3:0|0:0,0:0:0:0:
236,220,120002,2,0,L|241:274,1,54.9999976158142,0|2,1:0|0:0,0:0:0:0:
252,352,120270,5,4,0:0:0:0:
328,372,120403,2,0,P|360:372|392:364,1,54.9999976158142,0|2,0:0|0:0,0:0:0:0:
452,332,120671,1,0,0:0:0:0:
452,332,120805,2,0,L|444:196,1,109.999995231628,0|2,1:0|0:0,0:0:0:0:
492,160,121207,2,0,P|432:144|392:164,1,109.999995231628,0|0,1:0|0:0,0:0:0:0:
332,216,121609,1,0,1:0:0:0:
256,84,121877,1,0,1:0:0:0:
176,216,122145,1,2,0:0:0:0:
100,208,122278,1,2,0:0:0:0:
24,200,122412,6,0,P|16:144|24:84,1,109.999995231628,0|2,1:0|0:0,0:0:0:0:
80,36,122814,1,0,0:0:0:0:
80,36,122948,2,0,L|212:36,1,109.999995231628,0|2,1:0|0:0,0:0:0:0:
256,84,123350,1,0,0:0:0:0:
260,160,123484,2,0,P|260:192|256:228,1,54.9999976158142,0|2,0:0|0:0,0:0:0:0:
240,292,123752,1,0,1:0:0:0:
372,368,124020,2,0,P|432:372|480:360,1,109.999995231628,0|2,0:0|0:0,0:0:0:0:
508,288,124421,1,0,0:0:0:0:
468,220,124555,6,0,B|452:184|452:184|460:88,1,109.999995231628,0|2,1:0|0:0,0:0:0:0:
328,28,125091,1,0,1:0:0:0:
204,120,125359,1,2,0:0:0:0:
204,120,125493,2,0,P|152:140|68:132,1,109.999995231628,0|2,1:0|0:0,0:0:0:0:
20,128,125895,2,0,L|16:252,1,109.999995231628,0|0,1:0|1:0,0:0:0:0:
96,368,126430,1,2,0:0:0:0:
212,268,126698,5,8,3:0:0:0:
336,360,126966,1,0,1:0:0:0:
412,344,127100,1,0,1:0:0:0:
488,324,127234,2,0,P|504:276|472:208,1,109.999995231628,8|0,3:0|1:0,0:0:0:0:
424,176,127636,1,0,1:0:0:0:
424,176,127770,2,0,B|364:160|364:188|316:176,1,109.999995231628,0|0,3:0|1:0,0:0:0:0:
256,128,128171,1,0,1:0:0:0:
196,176,128305,2,0,P|192:204|196:236,1,54.9999976158142,8|0,3:0|0:0,0:0:0:0:
256,128,128573,2,0,P|260:100|256:68,1,54.9999976158142,0|0,1:0|1:0,0:0:0:0:
200,24,128841,5,4,0:0:0:0:
60,200,137412,5,2,0:0:0:0:
48,348,137680,2,0,P|92:344|136:324,1,93.4999977302551,0|8,0:0|0:0,0:0:0:0:
256,232,138216,1,2,0:0:0:0:
256,232,138350,2,0,B|328:208|328:248|396:232,1,140.249996595383,0|0,0:0|0:0,0:0:0:0:
508,136,139020,1,8,0:0:0:0:
396,36,139287,2,0,L|319:39,1,46.7499988651276,2|0,0:0|0:0,0:0:0:0:
276,52,139555,6,0,P|236:80|208:128,1,93.4999977302551,0|0,0:0|0:0,0:0:0:0:
120,236,140091,2,0,P|80:212|28:208,1,93.4999977302551,8|0,0:0|0:0,0:0:0:0:
108,340,140627,2,0,P|154:335|193:311,1,93.4999977302551,0|0,0:0|0:0,0:0:0:0:
240,252,141028,1,0,0:0:0:0:
316,260,141162,2,0,L|396:272,1,46.7499988651276,2|0,0:0|0:0,0:0:0:0:
436,260,141430,2,0,L|482:253,2,46.7499988651276,0|0|2,0:0|0:0|0:0,0:0:0:0:
388,116,141966,5,0,0:0:0:0:
256,48,142234,1,8,0:0:0:0:
124,116,142502,1,2,0:0:0:0:
124,116,142636,2,0,B|100:184|136:184|124:256,1,140.249996595383,0|0,0:0|0:0,0:0:0:0:
48,380,143305,1,8,0:0:0:0:
196,380,143573,2,0,L|260:380,1,46.7499988651276,2|0,0:0|0:0,0:0:0:0:
320,380,143841,5,0,0:0:0:0:
464,336,144109,1,0,0:0:0:0:
504,192,144377,1,8,0:0:0:0:
392,92,144645,1,0,0:0:0:0:
248,136,144912,2,0,P|208:144|140:136,1,93.4999977302551,0|0,0:0|1:0,0:0:0:0:
80,128,145314,1,8,3:0:0:0:
20,176,145448,2,0,L|16:260,1,46.7499988651276,0|8,1:0|3:0,0:0:0:0:
80,128,145716,2,0,L|77:81,1,46.7499988651276,0|8,1:0|3:0,0:0:0:0:
155,140,145984,6,0,B|202:144|202:144|248:136,1,93.4999977302551,4|2,0:0|0:0,0:0:0:0:
320,120,146386,1,0,0:0:0:0:
336,192,146520,2,0,L|360:308,1,93.4999977302551,8|0,3:0|1:0,0:0:0:0:
372,356,146921,1,0,0:0:0:0:
428,304,147055,2,0,P|452:300|488:300,1,46.7499988651276,2|0,0:0|0:0,0:0:0:0:
372,356,147323,2,0,P|348:360|312:360,1,46.7499988651276,8|0,3:0|0:0,0:0:0:0:
252,356,147591,1,0,1:0:0:0:
132,268,147859,1,2,0:0:0:0:
120,192,147993,1,2,0:0:0:0:
108,116,148127,6,0,P|112:68|136:20,2,93.4999977302551,0|2|0,1:0|0:0|1:0,0:0:0:0:
256,108,148930,1,2,0:0:0:0:
404,115,149198,2,0,P|400:69|381:27,1,93.4999977302551,8|8,3:0|3:0,0:0:0:0:
256,108,149734,2,0,L|248:184,1,46.7499988651276,0|2,1:0|0:0,0:0:0:0:
256,228,150002,2,0,L|264:304,1,46.7499988651276,2|2,0:0|0:0,0:0:0:0:
272,348,150270,6,0,P|312:340|384:352,1,93.4999977302551,0|0,1:0|0:0,0:0:0:0:
436,368,150671,1,0,0:0:0:0:
480,308,150805,2,0,P|485:261|477:215,1,93.4999977302551,0|8,1:0|3:0,0:0:0:0:
452,144,151207,1,0,0:0:0:0:
384,108,151341,2,0,L|320:112,1,46.7499988651276,2|0,0:0|0:0,0:0:0:0:
264,116,151609,1,0,1:0:0:0:
144,28,151877,1,8,3:0:0:0:
124,176,152145,2,0,P|120:256|128:308,1,93.4999977302551,0|0,0:0|1:0,0:0:0:0:
268,368,152680,6,0,L|376:360,1,82.4999964237214,2|0,0:0|0:0,0:0:0:0:
388,348,152948,2,0,P|408:316|416:272,1,82.4999964237214,2|0,0:0|0:0,0:0:0:0:
404,236,153216,2,0,P|384:204|376:160,1,82.4999964237214,2|0,0:0|0:0,0:0:0:0:
376,120,153484,1,2,0:0:0:0:
152,72,153886,6,0,L|114:42,2,27.4999988079071,0|0|0,1:0|1:0|1:0,0:0:0:0:
208,124,154153,1,0,0:0:0:0:
168,192,154287,2,0,P|163:226|168:252,1,54.9999976158142,0|0,1:0|1:0,0:0:0:0:
180,324,154555,1,4,1:0:0:0:
372,80,160984,6,0,L|332:76,3,38.4999971561433,8|0|8|0,3:0|0:0|3:0|0:0,0:0:0:0:
264,88,161520,6,0,L|220:95,1,43.9999980926514,8|0,3:0|0:0,0:0:0:0:
140,100,161787,6,0,L|84:96,1,49.4999963436128,8|0,3:0|0:0,0:0:0:0:
56,168,162055,6,0,P|48:200|48:208,7,24.7499981718064,8|0|0|0|8|0|0|0,3:0|0:0|0:0|0:0|3:0|0:0|0:0|0:0,0:0:0:0:
56,232,162591,6,0,P|64:264|64:272,7,24.7499981718064,8|0|0|0|0|0|0|0,2:0|0:0|0:0|0:0|0:0|0:0|0:0|0:0,0:0:0:0:
72,300,163127,6,0,P|100:300|172:308,1,54.9999976158142,4|0,0:0|0:0,0:0:0:0:
200,328,163395,1,2,0:0:0:0:
248,268,163528,1,0,0:0:0:0:
248,268,163662,2,0,L|244:156,1,109.999995231628,0|2,1:0|0:0,0:0:0:0:
252,80,164064,2,0,P|296:56|376:52,1,109.999995231628,0|0,1:0|0:0,0:0:0:0:
432,48,164466,1,0,1:0:0:0:
492,192,164734,1,0,1:0:0:0:
392,308,165002,1,0,0:0:0:0:
316,316,165136,1,0,0:0:0:0:
240,328,165270,6,0,L|168:340,2,54.9999976158142,0|0|2,1:0|0:0|0:0,0:0:0:0:
268,256,165671,1,0,0:0:0:0:
268,256,165805,2,0,P|272:184|264:120,1,109.999995231628,0|2,1:0|0:0,0:0:0:0:
228,80,166207,2,0,L|104:72,1,109.999995231628,0|0,1:0|0:0,0:0:0:0:
40,72,166609,1,0,1:0:0:0:
12,224,166877,1,0,1:0:0:0:
112,340,167145,1,2,0:0:0:0:
188,336,167278,1,0,0:0:0:0:
264,332,167412,6,0,B|304:328|304:328|328:316|328:316|376:312,1,109.999995231628,0|2,1:0|0:0,0:0:0:0:
448,308,167814,1,0,0:0:0:0:
476,236,167948,2,0,B|492:176|492:176|476:116,1,109.999995231628,0|2,1:0|0:0,0:0:0:0:
452,56,168350,1,0,0:0:0:0:
376,60,168484,2,0,L|300:68,1,54.9999976158142,0|0,1:0|0:0,0:0:0:0:
244,72,168752,1,0,1:0:0:0:
96,28,169020,1,0,1:0:0:0:
72,180,169287,1,2,0:0:0:0:
60,256,169421,1,0,0:0:0:0:
28,328,169555,6,0,P|96:328|124:292,1,109.999995231628,0|0,1:0|1:0,0:0:0:0:
236,196,170091,2,0,P|287:181|332:209,1,109.999995231628,0|2,1:0|0:0,0:0:0:0:
276,264,170493,1,0,1:0:0:0:
336,312,170627,2,0,L|340:384,1,54.9999976158142,0|8,1:0|3:0,0:0:0:0:
432,324,170895,2,0,L|435:269,1,54.9999976158142,2|0,0:0|1:0,0:0:0:0:
352,180,171162,2,0,L|360:260,1,54.9999976158142,8|0,3:0|0:0,0:0:0:0:
468,192,171430,2,0,L|471:137,1,54.9999976158142,0|2,1:0|0:0,0:0:0:0:
476,60,171698,5,4,0:0:0:0:
400,44,171832,2,0,P|368:40|336:44,1,54.9999976158142,0|2,0:0|0:0,0:0:0:0:
268,60,172100,1,0,0:0:0:0:
268,60,172234,2,0,B|264:124|264:124|232:176,1,109.999995231628,0|2,1:0|0:0,0:0:0:0:
176,208,172636,2,0,B|124:224|120:200|68:212,1,109.999995231628,0|0,1:0|0:0,0:0:0:0:
8,260,173037,1,0,1:0:0:0:
128,360,173305,1,0,1:0:0:0:
280,328,173573,1,2,0:0:0:0:
356,308,173707,1,2,0:0:0:0:
432,288,173841,6,0,P|444:232|424:156,1,109.999995231628,0|2,1:0|0:0,0:0:0:0:
384,120,174243,1,0,0:0:0:0:
384,120,174377,2,0,P|352:68|376:8,1,109.999995231628,0|2,1:0|0:0,0:0:0:0:
432,60,174778,1,0,1:0:0:0:
432,60,174912,2,0,P|464:112|440:172,1,109.999995231628,0|0,0:0|1:0,0:0:0:0:
420,228,175314,1,0,0:0:0:0:
344,224,175448,2,0,L|248:220,1,54.9999976158142,0|0,1:0|0:0,0:0:0:0:
212,240,175716,2,0,L|157:242,1,54.9999976158142,2|0,0:0|0:0,0:0:0:0:
80,232,175984,6,0,P|72:164|76:92,1,109.999995231628,0|2,1:0|0:0,0:0:0:0:
184,16,176520,1,0,1:0:0:0:
300,116,176787,1,2,0:0:0:0:
300,116,176921,2,0,B|352:144|352:144|428:136,1,109.999995231628,0|2,1:0|0:0,0:0:0:0:
480,128,177323,1,0,1:0:0:0:
452,200,177457,1,0,0:0:0:0:
452,200,177591,2,0,L|464:288,1,54.9999976158142,0|0,1:0|0:0,0:0:0:0:
480,128,177859,2,0,L|487:73,1,54.9999976158142,2|2,0:0|0:0,0:0:0:0:
402,138,178127,6,0,B|344:148|296:108,1,109.999995231628,8|0,3:0|1:0,0:0:0:0:
244,60,178528,1,0,1:0:0:0:
244,60,178662,2,0,P|184:60|128:84,1,109.999995231628,8|0,3:0|1:0,0:0:0:0:
72,120,179064,1,0,1:0:0:0:
72,120,179198,2,0,L|80:248,1,109.999995231628,8|0,3:0|1:0,0:0:0:0:
84,308,179600,1,0,1:0:0:0:
148,264,179734,2,0,L|224:260,1,54.9999976158142,8|0,3:0|0:0,0:0:0:0:
84,308,180002,2,0,L|29:310,1,54.9999976158142,0|0,1:0|0:0,0:0:0:0:
156,340,180270,6,0,P|184:356|292:352,2,131.999990249634,2|10|2,0:0|0:0|0:0,0:0:0:0:
240,176,181877,1,8,0:0:0:0:
228,268,182145,1,0,0:0:0:0:
240,176,182412,6,0,L|252:40,2,131.999990249634,2|10|2,0:0|0:0|0:0,0:0:0:0:
412,248,184020,1,8,0:0:0:0:
436,336,184287,1,0,0:0:0:0:
412,248,184555,6,0,P|408:184|440:104,1,131.999990249634,10|10,0:0|0:0,0:0:0:0:
256,52,185627,2,0,P|260:116|228:196,1,131.999990249634,10|8,0:0|0:0,0:0:0:0:
188,256,186430,1,0,1:0:0:0:
96,248,186698,6,0,L|28:244,2,43.9999980926514,2|0|0,0:0|0:0|1:0,0:0:0:0:
132,328,187100,2,0,L|128:396,2,43.9999980926514,2|0|0,0:0|0:0|1:0,0:0:0:0:
188,256,187502,2,0,L|231:258,1,43.9999980926514,2|0,0:0|1:0,0:0:0:0:
316,272,187770,6,0,P|316:304|312:336,1,43.9999980926514,4|8,3:0|3:0,0:0:0:0:
376,372,188037,2,0,P|408:372|440:376,1,43.9999980926514,4|8,3:0|3:0,0:0:0:0:
476,312,188305,2,0,P|476:280|480:248,1,43.9999980926514,4|8,3:0|3:0,0:0:0:0:
416,212,188573,2,0,P|384:212|352:208,1,43.9999980926514,4|8,3:0|3:0,0:0:0:0:
272,160,188841,6,0,P|224:156|156:160,1,98.9999926872256,0|0,0:0|0:0,0:0:0:0:
152,164,189310,1,2,0:0:0:0:
136,180,189377,6,0,L|132:276,1,54.9999976158142,4|0,0:0|0:0,0:0:0:0:
176,300,189645,2,0,L|180:396,1,54.9999976158142,2|0,0:0|1:0,0:0:0:0:
252,372,189912,2,0,P|304:372|368:364,1,109.999995231628,2|0,0:0|1:0,0:0:0:0:
432,336,190314,1,0,0:0:0:0:
444,260,190448,2,0,L|452:188,1,54.9999976158142,0|0,1:0|0:0,0:0:0:0:
448,128,190716,2,0,P|476:132|512:152,1,54.9999976158142,2|2,0:0|0:0,0:0:0:0:
450,205,190984,6,0,P|400:192|368:140,1,109.999995231628,0|2,1:0|0:0,0:0:0:0:
356,68,191386,1,0,0:0:0:0:
280,72,191520,2,0,B|248:72|229:56|229:56|213:69|176:72,1,109.999995231628,0|2,1:0|0:0,0:0:0:0:
100,68,191921,1,0,1:0:0:0:
48,124,192055,2,0,P|44:156|48:196,1,54.9999976158142,0|2,0:0|0:0,0:0:0:0:
56,256,192323,1,0,1:0:0:0:
200,204,192591,1,0,1:0:0:0:
280,336,192859,1,2,0:0:0:0:
356,344,192993,1,0,0:0:0:0:
432,352,193127,6,0,P|456:312|464:232,1,109.999995231628,0|2,1:0|0:0,0:0:0:0:
460,172,193528,1,0,0:0:0:0:
384,168,193662,2,0,L|296:164,2,54.9999976158142,0|0|2,1:0|0:0|0:0,0:0:0:0:
428,104,194064,2,0,P|428:76|424:36,1,54.9999976158142,0|0,1:0|0:0,0:0:0:0:
460,172,194332,2,0,P|484:186|520:202,1,54.9999976158142,2|0,0:0|1:0,0:0:0:0:
384,168,194600,2,0,P|359:182|327:205,1,54.9999976158142,0|0,0:0|1:0,0:0:0:0:
280,248,194868,1,0,0:0:0:0:
204,244,195002,2,0,L|100:240,1,54.9999976158142,2|2,0:0|0:0,0:0:0:0:
72,236,195270,6,0,P|60:172|84:84,1,109.999995231628,8|0,3:0|1:0,0:0:0:0:
96,56,195671,1,0,1:0:0:0:
96,56,195805,2,0,L|232:44,1,109.999995231628,8|0,3:0|1:0,0:0:0:0:
284,40,196207,1,0,1:0:0:0:
292,116,196341,2,0,L|296:170,1,54.9999976158142,8|0,3:0|1:0,0:0:0:0:
356,72,196609,2,0,L|438:64,1,54.9999976158142,0|0,1:0|1:0,0:0:0:0:
284,40,196877,2,0,L|201:32,1,54.9999976158142,8|2,3:0|0:0,0:0:0:0:
152,52,197145,2,0,L|97:56,1,54.9999976158142,2|2,0:0|0:0,0:0:0:0:
20,68,197412,5,4,0:0:0:0:
