osu file format v14

[General]
AudioFilename: gfriend-rough.mp3
AudioLeadIn: 0
PreviewTime: 51162
Countdown: 0
SampleSet: Soft
StackLeniency: 0.7
Mode: 0
LetterboxInBreaks: 0
WidescreenStoryboard: 1

[Editor]
Bookmarks: 8841,53171,68841,77412
DistanceSpacing: 1
BeatDivisor: 2
GridSize: 4
TimelineZoom: 1.1

[Metadata]
Title:Rough
TitleUnicode:시간을 달려서
Artist:GFRIEND
ArtistUnicode:여자친구
Creator:Norman
Version:Easy
Source:
Tags:소원 예린 은하 유주 신비 엄지 SNOWFLAKE 쏘스뮤직 kpop
BeatmapID:976895
BeatmapSetID:409464

[Difficulty]
HPDrainRate:2
CircleSize:3
OverallDifficulty:2
ApproachRate:3
SliderMultiplier:1.19999990463257
SliderTickRate:1

[Events]
//Background and Video events
0,0,"rough.jpg",0,0
Video,-336,"pv.avi"
//Break Periods
2,69041,75972
2,129041,135972
2,154755,159544
//Storyboard Layer 0 (Background)
//Storyboard Layer 1 (Fail)
//Storyboard Layer 2 (Pass)
//Storyboard Layer 3 (Foreground)
//Storyboard Sound Samples

[TimingPoints]
270,535.714285714286,4,2,0,100,1,0
8841,-100,4,2,0,70,0,0
15270,-100,4,2,0,80,0,0
17412,-100,4,2,0,60,0,0
33752,-100,4,2,0,40,0,0
34555,-100,4,2,0,60,0,0
46609,-100,4,2,0,50,0,0
47145,-100,4,2,0,60,0,0
49287,-100,4,2,0,50,0,0
51028,-100,4,2,0,70,0,0
51698,-100,4,2,0,80,0,1
68841,-100,4,2,0,80,0,0
77412,-100,4,2,0,70,0,0
77680,-100,4,2,0,50,0,0
81698,-100,4,2,0,60,0,0
109287,-100,4,2,0,50,0,0
111162,-100,4,2,0,70,0,0
111698,-100,4,2,0,80,0,1
128841,-100,4,2,0,80,0,0
137412,-100,4,2,0,60,0,0
139020,-100,4,2,0,40,0,0
139555,-100,4,2,0,60,0,0
143305,-100,4,2,0,40,0,0
143841,-100,4,2,0,60,0,0
144377,-100,4,2,0,40,0,0
144511,-100,4,2,0,60,0,0
145448,-100,4,2,0,70,0,0
145984,-100,4,2,0,60,0,0
146520,-100,4,2,0,50,0,0
146653,-100,4,2,0,60,0,0
149198,-100,4,2,0,40,0,0
149734,-100,4,2,0,60,0,0
152412,-100,4,2,0,70,0,0
154020,-100,4,2,0,80,0,0
154555,-100,4,2,0,50,0,0
160984,-100,4,2,0,60,0,0
161520,-100,4,2,0,50,0,0
162055,-100,4,2,0,80,0,0
163127,-100,4,2,0,80,0,1
180270,-100,4,2,0,60,0,0
186698,-100,4,2,0,70,0,0
188841,-100,4,2,0,45,0,0
189377,-100,4,2,0,80,0,1
197412,-100,4,2,0,80,0,0

[Colours]
Combo1 : 179,179,102
Combo2 : 192,192,192
Combo3 : 0,85,170
Combo4 : 174,94,94

[HitObjects]
104,212,8841,6,0,L|92:340,2,119.999990463257,4|8|0,0:0|0:0|0:0,0:0:0:0:
116,92,10448,1,8,0:0:0:0:
212,164,10984,2,0,P|268:184|336:188,2,119.999990463257,0|8|0,1:0|0:0|0:0,0:0:0:0:
228,44,12591,1,8,0:0:0:0:
116,92,13127,6,0,P|96:144|104:208,1,119.999990463257,0|8,1:0|0:0,0:0:0:0:
216,252,14198,2,0,P|236:307|227:366,1,119.999990463257,0|8,0:0|0:0,0:0:0:0:
116,320,15270,2,0,B|80:260|88:204|120:152|176:124|240:136|240:136|312:152|336:200|384:224|444:200,1,479.999961853028,0|4,1:0|0:0,0:0:0:0:
512,132,17948,6,0,L|508:12,2,119.999990463257,8|0|8,3:0|0:0|3:0,0:0:0:0:
512,252,19555,1,0,1:0:0:0:
408,192,20091,2,0,B|292:160|288:224|172:192,1,239.999980926514,8|8,3:0|3:0,0:0:0:0:
60,144,21698,5,0,1:0:0:0:
12,256,22234,2,0,B|4:316|8:380,2,119.999990463257,8|0|0,3:0|0:0|1:0,0:0:0:0:
60,144,23841,2,0,B|156:148|156:148|204:132|204:132|260:196|344:192|390:137,1,359.999971389771,0|2,1:0|0:0,0:0:0:0:
300,60,25984,5,0,1:0:0:0:
412,20,26520,2,0,P|464:44|508:104,2,119.999990463257,8|2|0,3:0|0:0|1:0,0:0:0:0:
388,136,28127,2,0,B|396:236|396:236|360:272|360:272|284:240|216:248|160:288,1,359.999971389771,0|8,1:0|3:0,0:0:0:0:
64,356,30270,5,0,1:0:0:0:
8,252,30805,2,0,P|8:188|20:132,2,119.999990463257,8|0|0,3:0|0:0|1:0,0:0:0:0:
64,356,32412,2,0,L|196:352,1,119.999990463257,2|0,0:0|1:0,0:0:0:0:
304,352,33484,2,0,L|423:355,2,119.999990463257,0|8|4,0:0|3:0|0:0,0:0:0:0:
244,248,35091,5,0,1:0:0:0:
304,144,35627,2,0,P|244:132|188:144,1,119.999990463257,0|8,0:0|3:0,0:0:0:0:
72,180,36698,1,0,1:0:0:0:
128,284,37234,2,0,P|188:296|244:284,2,119.999990463257,8|0|8,3:0|0:0|3:0,0:0:0:0:
72,180,38841,6,0,L|68:60,1,119.999990463257,0|8,1:0|3:0,0:0:0:0:
188,52,39912,2,0,L|192:172,1,119.999990463257,2|0,0:0|1:0,0:0:0:0:
311,163,40984,2,0,L|307:43,2,119.999990463257,0|0|0,1:0|1:0|0:0,0:0:0:0:
316,284,42591,1,0,1:0:0:0:
200,312,43127,6,0,B|140:324|140:300|80:312,2,119.999990463257,4|0|0,0:0|1:0|0:0,0:0:0:0:
316,284,44734,2,0,B|375:272|375:296|435:284,1,119.999990463257,0|0,1:0|1:0,0:0:0:0:
512,192,45805,1,0,1:0:0:0:
436,100,46341,2,0,P|380:72|320:64,1,119.999990463257,0|0,0:0|1:0,0:0:0:0:
204,64,47412,6,0,P|144:72|91:100,1,119.999990463257,0|2,1:0|0:0,0:0:0:0:
20,196,48484,2,0,L|12:320,1,119.999990463257,2|0,0:0|1:0,0:0:0:0:
120,368,49555,2,0,B|188:360|232:328|232:328|272:360|344:368,1,239.999980926514,4|0,3:0|0:0,0:0:0:0:
460,348,51162,1,0,1:0:0:0:
488,232,51698,6,0,P|484:172|460:116,2,119.999990463257,4|0|0,0:0|1:0|0:0,0:0:0:0:
372,200,53305,1,0,1:0:0:0:
348,84,53841,2,0,P|302:44|246:21,2,119.999990463257,0|0|2,1:0|1:0|0:0,0:0:0:0:
243,143,55448,1,0,1:0:0:0:
140,80,55984,6,0,P|80:84|24:108,1,119.999990463257,0|0,1:0|1:0,0:0:0:0:
24,228,57055,2,0,P|79:251|138:255,1,119.999990463257,0|0,1:0|1:0,0:0:0:0:
220,168,58127,1,0,1:0:0:0:
340,168,58662,1,0,1:0:0:0:
404,68,59198,2,0,P|460:168|404:268,1,239.999980926514,0|4,1:0|0:0,0:0:0:0:
296,324,60805,5,0,1:0:0:0:
184,276,61341,2,0,P|124:264|64:272,2,119.999990463257,2|0|0,0:0|1:0|1:0,0:0:0:0:
296,324,62948,1,0,1:0:0:0:
404,276,63484,2,0,P|416:216|408:156,1,119.999990463257,0|0,0:0|1:0,0:0:0:0:
368,44,64555,6,0,B|300:52|256:84|256:84|216:52|144:44,1,239.999980926514,0|0,1:0|0:0,0:0:0:0:
28,68,66162,1,0,1:0:0:0:
32,188,66698,2,0,L|36:320,1,119.999990463257,8|8,3:0|3:0,0:0:0:0:
156,296,67770,2,0,L|152:176,2,119.999990463257,8|8|4,3:0|3:0|0:0,0:0:0:0:
128,136,77412,5,2,0:0:0:0:
196,236,77948,2,0,P|140:256|72:244,2,119.999990463257,0|0|0,0:0|0:0|1:0,0:0:0:0:
316,236,79555,2,0,P|372:256|460:40,1,359.999971389771,0|8,1:0|3:0,0:0:0:0:
384,136,81698,5,0,0:0:0:0:
284,72,82234,2,0,P|228:52|160:48,2,119.999990463257,0|0|0,1:0|0:0|1:0,0:0:0:0:
384,136,83841,2,0,L|380:264,1,119.999990463257,0|0,1:0|1:0,0:0:0:0:
428,368,84912,2,0,B|372:388|312:360|312:360|256:336|192:356,1,239.999980926514,0|0,0:0|1:0,0:0:0:0:
76,372,86520,5,0,1:0:0:0:
28,260,87055,2,0,P|28:204|40:132,1,119.999990463257,0|0,0:0|1:0,0:0:0:0:
124,56,88127,2,0,L|244:44,2,119.999990463257,0|0|0,1:0|1:0|0:0,0:0:0:0:
156,172,89734,1,0,1:0:0:0:
124,288,90270,6,0,L|4:276,2,119.999990463257,0|0|0,1:0|1:0|0:0,0:0:0:0:
244,300,91877,1,0,1:0:0:0:
364,288,92412,2,0,B|380:224|432:192|432:192|380:156|364:96,2,239.999980926514,2|0|4,0:0|0:0|0:0,0:0:0:0:
256,344,95091,5,0,1:0:0:0:
148,288,95627,2,0,P|92:264|32:256,1,119.999990463257,0|8,0:0|3:0,0:0:0:0:
20,136,96698,2,0,L|8:16,2,119.999990463257,0|0|0,1:0|1:0|0:0,0:0:0:0:
33,256,98305,1,8,3:0:0:0:
116,344,98841,6,0,P|180:360|256:356,1,119.999990463257,0|0,1:0|1:0,0:0:0:0:
352,336,99912,2,0,P|405:297|451:236,1,119.999990463257,2|0,0:0|1:0,0:0:0:0:
480,144,100984,2,0,P|484:78|467:4,2,119.999990463257,0|0|0,1:0|1:0|0:0,0:0:0:0:
372,92,102591,1,8,3:0:0:0:
264,144,103127,6,0,B|148:180|144:112|28:144,1,239.999980926514,4|0,0:0|0:0,0:0:0:0:
92,248,104734,1,0,1:0:0:0:
48,360,105270,2,0,P|104:364|164:344,1,119.999990463257,0|0,1:0|1:0,0:0:0:0:
256,268,106341,2,0,L|376:268,1,119.999990463257,0|0,0:0|1:0,0:0:0:0:
444,368,107412,6,0,P|500:268|444:168,1,239.999980926514,0|2,1:0|0:0,0:0:0:0:
344,100,109020,1,0,1:0:0:0:
228,132,109555,6,0,B|136:136|80:72|80:72|100:128|48:136|16:200|32:252,1,359.999971389771,4|0,3:0|1:0,0:0:0:0:
108,344,111698,6,0,B|168:352|168:328|228:340,2,119.999990463257,4|0|0,0:0|1:0|0:0,0:0:0:0:
31,251,113305,1,0,1:0:0:0:
124,176,113841,2,0,P|136:112|120:48,2,119.999990463257,0|0|2,1:0|1:0|0:0,0:0:0:0:
20,116,115448,1,0,1:0:0:0:
24,236,115984,6,0,L|28:356,1,119.999990463257,0|0,1:0|1:0,0:0:0:0:
148,368,117055,2,0,L|144:248,1,119.999990463257,0|0,1:0|1:0,0:0:0:0:
136,128,118127,1,0,1:0:0:0:
228,52,118662,1,0,1:0:0:0:
320,128,119198,2,0,B|416:148|480:112|480:112|476:148|484:188,1,239.999980926514,0|4,1:0|0:0,0:0:0:0:
496,308,120805,5,0,1:0:0:0:
380,344,121341,2,0,P|316:348|260:336,1,119.999990463257,2|0,0:0|1:0,0:0:0:0:
152,288,122412,1,0,1:0:0:0:
44,340,122948,1,0,1:0:0:0:
52,220,123484,2,0,P|60:156|80:104,1,119.999990463257,0|0,0:0|0:0,0:0:0:0:
188,52,124555,6,0,B|268:56|328:124|328:124|316:84|336:44,1,239.999980926514,0|0,1:0|0:0,0:0:0:0:
444,96,126162,1,0,1:0:0:0:
496,204,126698,2,0,P|504:260|504:324,1,119.999990463257,8|8,3:0|3:0,0:0:0:0:
384,324,127770,2,0,P|383:264|392:204,2,119.999990463257,0|8|4,3:0|3:0|0:0,0:0:0:0:
468,152,137412,6,0,B|499:94|459:50|399:50|367:94|383:150|383:150|332:136|300:176|244:148,1,359.999971389771,2|8,0:0|0:0,0:0:0:0:
140,92,139555,2,0,P|80:76|24:86,2,119.999990463257,0|8|0,0:0|0:0|0:0,0:0:0:0:
76,196,141162,1,2,0:0:0:0:
0,288,141698,6,0,B|72:340|152:288|152:288|156:328|184:356|228:356|260:336|268:296|236:252|236:252,1,359.999971389771,2|8,0:0|0:0,0:0:0:0:
152,168,143841,2,0,P|148:112|172:52,2,119.999990463257,0|8|0,0:0|0:0|0:0,0:0:0:0:
264,128,145448,1,0,1:0:0:0:
380,104,145984,6,0,B|464:88|464:88|504:96,1,119.999990463257,4|8,0:0|3:0,0:0:0:0:
464,208,147055,2,0,B|380:224|380:224|340:216,1,119.999990463257,2|0,0:0|1:0,0:0:0:0:
264,128,148127,1,0,1:0:0:0:
152,84,148662,1,0,1:0:0:0:
68,172,149198,2,0,P|56:224|56:296,1,119.999990463257,8|0,3:0|1:0,0:0:0:0:
156,360,150270,6,0,L|288:368,2,119.999990463257,0|0|2,1:0|1:0|0:0,0:0:0:0:
55,290,151877,1,8,3:0:0:0:
156,224,152412,2,0,B|184:152|144:72|144:72|192:104|240:84|240:84|284:64|344:80,1,359.999971389771,0|0,1:0|1:0,0:0:0:0:
452,124,154555,5,4,1:0:0:0:
348,212,160984,6,0,L|344:336,1,119.999990463257,8|8,3:0|3:0,0:0:0:0:
464,352,162055,2,0,L|467:232,1,119.999990463257,8|8,3:0|2:0,0:0:0:0:
427,119,163127,6,0,P|374:94|314:95,2,119.999990463257,4|0|0,0:0|1:0|0:0,0:0:0:0:
348,212,164734,1,0,1:0:0:0:
232,180,165270,2,0,P|181:196|133:245,2,119.999990463257,0|0|2,1:0|1:0|0:0,0:0:0:0:
240,300,166877,1,0,1:0:0:0:
340,232,167412,6,0,B|404:220|404:244|460:232,1,119.999990463257,0|0,1:0|1:0,0:0:0:0:
460,112,168484,2,0,B|404:100|404:124|340:112,1,119.999990463257,0|0,1:0|1:0,0:0:0:0:
240,48,169555,1,0,1:0:0:0:
120,48,170091,1,0,1:0:0:0:
16,112,170627,2,0,B|-4:176|20:248|20:248|72:248|116:212,1,239.999980926514,0|4,1:0|0:0,0:0:0:0:
212,144,172234,6,0,P|264:128|332:128,1,119.999990463257,0|2,1:0|0:0,0:0:0:0:
428,192,173305,2,0,L|420:328,2,119.999990463257,0|0|0,1:0|1:0|1:0,0:0:0:0:
436,72,174912,1,0,0:0:0:0:
329,127,175448,1,0,1:0:0:0:
216,88,175984,6,0,B|184:72|152:72|152:72|136:96|100:100|100:100|112:136|96:168|96:168|132:176|148:208|148:208|128:252|152:308,1,359.999971389771,0|0,1:0|1:0,0:0:0:0:
260,252,178127,2,0,L|392:256,1,119.999990463257,8|8,3:0|3:0,0:0:0:0:
412,140,179198,2,0,L|280:136,1,119.999990463257,8|8,3:0|3:0,0:0:0:0:
168,128,180270,6,0,B|84:120|40:56|40:56|28:148,1,239.999980926514,2|2,0:0|0:0,0:0:0:0:
16,264,181877,1,8,0:0:0:0:
88,360,182412,2,0,P|200:328|256:224,1,239.999980926514,2|2,0:0|0:0,0:0:0:0:
256,104,184020,1,8,0:0:0:0:
368,60,184555,6,0,P|428:44|488:48,1,119.999990463257,10|10,0:0|0:0,0:0:0:0:
485,164,185627,2,0,P|425:167|367:151,1,119.999990463257,10|8,0:0|0:0,0:0:0:0:
256,104,186698,2,0,L|132:104,1,119.999990463257,2|0,0:0|0:0,0:0:0:0:
40,28,187770,2,0,B|-12:104|40:176|40:176|68:212|68:268,1,239.999980926514,4|0,3:0|0:0,0:0:0:0:
24,360,189377,6,0,P|84:368|140:348,1,119.999990463257,4|2,0:0|0:0,0:0:0:0:
236,276,190448,1,0,1:0:0:0:
232,156,190984,2,0,L|228:28,2,119.999990463257,0|0|0,1:0|1:0|0:0,0:0:0:0:
340,212,192591,1,0,1:0:0:0:
448,156,193127,6,0,P|448:272|352:332,1,239.999980926514,0|0,1:0|0:0,0:0:0:0:
232,340,194734,1,0,1:0:0:0:
176,232,195270,2,0,P|144:184|92:152,2,119.999990463257,8|8|8,3:0|3:0|3:0,0:0:0:0:
60,268,196877,1,8,3:0:0:0:
116,372,197412,5,4,0:0:0:0:
