osu file format v14

[General]
AudioFilename: (Glass Bead)-1st Mini Album `Season Of Glass`).192k.MP3
AudioLeadIn: 0
PreviewTime: 63651
Countdown: 0
SampleSet: Normal
StackLeniency: 0.7
Mode: 0
LetterboxInBreaks: 0
WidescreenStoryboard: 0

[Editor]
Bookmarks: 11545,44703,110493
DistanceSpacing: 1.4
BeatDivisor: 4
GridSize: 4
TimelineZoom: 1.1

[Metadata]
Title:Glass Bead
TitleUnicode:유리구슬
Artist:GFRIEND
ArtistUnicode:여자친구
Creator:Norman
Version:Normal
Source:
Tags:소원 예린 은하 유주 신비 엄지 Season Of Glass 쏘스뮤직 kpop
BeatmapID:691615
BeatmapSetID:309361

[Difficulty]
HPDrainRate:4
CircleSize:3
OverallDifficulty:4
ApproachRate:5
SliderMultiplier:1.5
SliderTickRate:1

[Events]
//Background and Video events
0,0,"i7LyYIpaJ1i2g.jpg",0,0
Video,5030,"glass bead.avi"
//Break Periods
2,81218,88240
2,140166,146661
2,175955,180872
//Storyboard Layer 0 (Background)
//Storyboard Layer 1 (Fail)
//Storyboard Layer 2 (Pass)
//Storyboard Layer 3 (Foreground)
//Storyboard Sound Samples

[TimingPoints]
5230,526.315789473684,4,1,0,70,1,0
13651,-100,4,1,0,60,0,0
14177,-100,4,1,0,70,0,1
20229,-100,4,1,0,60,0,1
22072,-100,4,1,0,60,0,0
22598,-100,4,1,0,70,0,1
30493,-100,4,1,0,60,0,0
31019,-100,4,2,0,60,0,0
47335,-133.333333333333,4,2,0,60,0,0
51545,-133.333333333333,4,2,0,40,0,0
51808,-133.333333333333,4,2,0,60,0,0
55229,-100,4,2,0,60,0,0
62335,-100,4,1,0,60,0,0
64703,-100,4,1,0,70,0,1
72598,-100,4,1,0,60,0,0
73124,-100,4,1,0,70,0,1
79440,-100,4,1,0,60,0,1
81019,-100,4,1,0,50,0,0
89440,-100,4,2,0,60,0,0
106282,-133.333333333333,4,2,0,60,0,0
110493,-133.333333333333,4,2,0,40,0,0
110756,-133.333333333333,4,2,0,60,0,0
114177,-100,4,2,0,60,0,0
121282,-100,4,1,0,60,0,0
123651,-100,4,1,0,70,0,1
131545,-100,4,1,0,60,0,0
132072,-100,4,1,0,70,0,1
139966,-100,4,2,0,60,0,0
148387,-100,4,2,0,70,0,0
154703,-100,4,1,0,60,0,0
159440,-100,4,1,0,80,0,1
167335,-100,4,1,0,70,0,0
167861,-100,4,1,0,80,0,1
175756,-100,4,2,0,60,0,0
182072,-100,4,1,0,70,0,0
184703,-100,4,1,0,80,0,1
192598,-100,4,2,0,70,0,0

[Colours]
Combo1 : 255,207,159
Combo2 : 168,168,213
Combo3 : 255,128,128
Combo4 : 153,204,255

[HitObjects]
48,104,11545,6,0,B|56:164|56:164|88:128|136:136,1,150,0|8,0:0|0:0,0:0:0:0:
120,216,12335,1,0,0:0:0:0:
180,276,12598,2,0,P|248:288|328:276,1,150,8|8,0:0|0:0,0:0:0:0:
392,216,13387,1,8,0:0:0:0:
392,132,13651,6,0,B|392:72|392:72|344:72|312:32,1,150,4|2,0:0|0:0,0:0:0:0:
188,32,14572,2,0,P|156:76|104:104,1,112.5,0|0,0:0|0:0,0:0:0:0:
24,116,15229,1,8,0:0:0:0:
100,264,15756,6,0,B|112:312|112:312|156:336|216:312,1,150,2|8,0:0|0:0,0:0:0:0:
296,228,16677,2,0,P|296:172|308:116,1,112.5,0|0,0:0|0:0,0:0:0:0:
344,44,17335,2,0,L|424:44,1,75,8|0,0:0|0:0,0:0:0:0:
500,44,17861,5,2,0:0:0:0:
460,204,18387,2,0,B|440:260|476:260|460:316,1,112.5,8|0,0:0|0:0,0:0:0:0:
348,372,19177,1,0,0:0:0:0:
288,316,19440,2,0,P|280:284|284:240,1,75,8|0,0:0|0:0,0:0:0:0:
340,180,19966,6,0,B|296:148|244:168|244:168|256:148|248:112,1,150,8|0,0:0|0:0,0:0:0:0:
168,136,20756,1,0,0:0:0:0:
96,96,21019,2,0,P|48:116|96:176,1,150,0|8,0:0|0:0,0:0:0:0:
168,136,21808,1,0,0:0:0:0:
249,120,22072,5,2,0:0:0:0:
240,284,22598,2,0,B|248:324|248:324|284:312|324:324,1,112.5,4|0,0:0|0:0,0:0:0:0:
440,356,23387,1,0,0:0:0:0:
472,280,23651,2,0,P|476:236|472:204,1,75,8|0,0:0|0:0,0:0:0:0:
428,136,24177,6,0,B|340:144|340:144|284:120,1,150,2|8,0:0|0:0,0:0:0:0:
180,52,25098,2,0,P|160:104|168:160,1,112.5,0|0,0:0|0:0,0:0:0:0:
200,236,25756,1,8,0:0:0:0:
116,244,26019,2,0,L|32:256,1,75,0|2,0:0|0:0,0:0:0:0:
172,356,26808,6,0,L|328:380,1,150,8|0,0:0|0:0,0:0:0:0:
400,356,27598,1,0,0:0:0:0:
460,300,27861,2,0,P|472:228|428:160,1,150,8|8,0:0|0:0,0:0:0:0:
360,128,28651,6,0,L|285:135,2,75,0|8|0,0:0|0:0|0:0,0:0:0:0:
352,44,29440,2,0,B|280:52|280:52|232:60|212:96,1,150,8|8,0:0|0:0,0:0:0:0:
172,160,30229,2,0,L|96:156,1,75,0|4,0:0|0:0,0:0:0:0:
20,300,31019,6,0,L|94:296,1,75,8|0,0:0|0:0,0:0:0:0:
176,292,31545,2,0,P|204:224|172:160,1,150,0|8,0:0|0:0,0:0:0:0:
112,100,32335,1,0,0:0:0:0:
144,24,32598,6,0,B|184:40|192:80|192:80|268:64,1,150,2|8,0:0|0:0,0:0:0:0:
344,52,33387,1,0,0:0:0:0:
364,132,33651,2,0,L|384:208,1,75,0|0,0:0|0:0,0:0:0:0:
444,264,34177,2,0,B|408:296|360:284|360:284|368:308|360:344,1,150,8|2,0:0|0:0,0:0:0:0:
200,312,35229,6,0,B|124:288|124:336|52:312,1,150,8|0,0:0|0:0,0:0:0:0:
8,244,36019,2,0,P|4:212|8:168,1,75,0|8,0:0|0:0,0:0:0:0:
20,88,36545,1,0,0:0:0:0:
104,92,36808,6,0,B|152:96|152:96|200:108|200:108|252:112,1,150,2|8,3:0|0:0,0:0:0:0:
336,116,37598,1,0,0:0:0:0:
420,120,37861,2,0,L|424:44,2,75,0|0|8,0:0|0:0|0:0,0:0:0:0:
416,204,38651,1,0,0:0:0:0:
332,200,38914,6,0,B|244:196|244:196|244:232|223:252,1,150,2|8,0:0|0:0,0:0:0:0:
164,196,39703,1,0,0:0:0:0:
112,132,39966,2,0,B|76:168|84:216|84:216|56:208|28:228,1,150,0|8,0:0|0:0,0:0:0:0:
72,296,40756,1,0,0:0:0:0:
132,352,41019,6,0,P|201:365|280:352,1,150,2|8,3:0|0:0,0:0:0:0:
340,296,41808,1,2,0:0:0:0:
311,219,42072,2,0,P|303:183|307:146,2,75,2|2|8,0:0|0:0|0:0,0:0:0:0:
384,180,42861,1,0,0:0:0:0:
376,100,43124,6,0,P|320:64|240:96,1,150,2|8,0:0|0:0,0:0:0:0:
188,148,43914,1,0,0:0:0:0:
188,148,44177,2,0,L|112:146,1,75,0|0,0:0|0:0,0:0:0:0:
96,228,44703,2,0,L|170:229,1,75,8|0,0:0|0:0,0:0:0:0:
156,312,45229,6,0,L|6:308,2,150,2|8|0,3:0|0:0|0:0,0:0:0:0:
240,316,46545,1,0,0:0:0:0:
200,244,46808,2,0,L|204:160,1,75,8|0,0:0|0:0,0:0:0:0:
148,108,47335,6,0,B|200:72|252:104|252:104|260:40|324:24,1,225.000008583069,4|2,0:0|0:0,0:0:0:0:
396,164,48914,1,8,0:0:0:0:
438,320,49440,2,0,P|329:320|256:240,1,225.000008583069,2|2,0:0|0:0,0:0:0:0:
256,84,51019,1,8,0:0:0:0:
256,238,51545,6,0,P|183:319|74:320,1,225.000008583069,4|2,3:0|0:0,0:0:0:0:
116,168,53124,2,0,B|128:104|128:104|128:56,2,112.500004291535,8|0|2,0:0|0:0|0:0,0:0:0:0:
73,320,54703,2,0,L|200:308,1,112.500004291535
268,304,55493,1,0,0:0:0:0:
352,296,55756,6,0,P|368:224|332:160,1,150,4|8,0:0|0:0,0:0:0:0:
256,128,56545,2,0,B|204:148|204:148|108:136,1,150
28,124,57335,2,0,L|16:205,1,75,8|0,0:0|0:0,0:0:0:0:
4,280,57861,6,0,B|52:288|84:248|84:248|112:268|112:300,1,150,2|8,0:0|0:0,0:0:0:0:
172,356,58651,2,0,P|244:368|320:356,1,150,0|0,0:0|0:0,0:0:0:0:
378,298,59440,2,0,P|384:260|400:224,1,75,8|0,0:0|0:0,0:0:0:0:
460,172,59966,6,0,B|420:136|368:152|368:152|384:136|388:96,1,150,2|8,0:0|0:0,0:0:0:0:
304,96,60756,1,0,0:0:0:0:
232,56,61019,2,0,B|208:112|244:152|244:152|208:184,1,150,0|8,0:0|0:0,0:0:0:0:
148,240,61808,1,0,0:0:0:0:
72,205,62072,6,0,P|32:201|0:213,1,75,2|0,0:0|0:0,0:0:0:0:
8,297,62598,2,0,P|48:301|80:289,1,75,0|0,0:0|0:0,0:0:0:0:
148,240,63124,2,0,B|236:232|236:232|224:204|236:172,1,150,0|0,0:0|0:0,0:0:0:0:
312,200,63914,2,0,L|392:196,1,75,0|2,0:0|2:0,0:0:0:0:
420,356,64703,6,0,L|308:364,1,112.5,4|0,0:0|0:0,0:0:0:0:
184,368,65493,1,0,0:0:0:0:
116,320,65756,2,0,P|112:284|116:244,1,75,8|0,0:0|0:0,0:0:0:0:
156,172,66282,6,0,B|108:152|68:176|68:176|32:128,1,150,2|8,0:0|0:0,0:0:0:0:
116,40,67203,2,0,L|228:36,1,112.5,0|0,0:0|0:0,0:0:0:0:
312,32,67861,1,8,0:0:0:0:
344,108,68124,2,0,P|352:148|352:184,1,75,0|2,0:0|0:0,0:0:0:0:
288,336,68914,6,0,B|216:324|216:324|176:336,1,112.5,8|0,0:0|0:0,0:0:0:0:
60,376,69703,1,0,0:0:0:0:
60,292,69966,2,0,B|60:252|60:252|52:216,1,75,8|0,0:0|0:0,0:0:0:0:
28,140,70493,6,0,B|64:128|96:148|96:148|84:112|104:72,1,150,2|8,0:0|0:0,0:0:0:0:
172,120,71282,1,0,0:0:0:0:
240,168,71545,2,0,P|316:180|376:144,1,150,0|8,0:0|0:0,0:0:0:0:
420,72,72335,1,0,0:0:0:0:
420,72,72598,6,0,L|416:232,1,150,2|4,0:0|0:0,0:0:0:0:
404,344,73519,2,0,B|356:344|328:308|328:308|304:320,1,112.5,0|0,0:0|0:0,0:0:0:0:
236,360,74177,1,8,0:0:0:0:
192,200,74703,6,0,P|148:132|84:116,1,150,2|8,0:0|0:0,0:0:0:0:
76,240,75624,2,0,L|68:352,1,112.5,0|0,0:0|0:0,0:0:0:0:
152,360,76282,1,8,0:0:0:0:
236,368,76545,2,0,L|316:372,1,75,0|2,0:0|0:0,0:0:0:0:
440,268,77335,6,0,P|444:192|420:120,1,150,8|0,0:0|0:0,0:0:0:0:
376,52,78124,1,0,0:0:0:0:
296,80,78387,2,0,B|260:92|260:92|220:92,1,75,8|0,0:0|0:0,0:0:0:0:
152,48,78914,6,0,B|132:92|152:132|152:132|120:120|88:136,1,150,2|8,0:0|0:0,0:0:0:0:
128,208,79703,1,0,0:0:0:0:
72,268,79966,2,0,B|124:304|176:272|176:272|193:281|192:304,2,150,8|8|4,0:0|0:0|0:0,0:0:0:0:
64,88,89440,6,0,B|72:136|72:136|108:96|164:112,1,150,4|8,0:0|0:0,0:0:0:0:
136,192,90229,1,0,0:0:0:0:
220,192,90493,2,0,L|296:192,2,75,0|0|8,0:0|0:0|0:0,0:0:0:0:
178,263,91282,1,0,0:0:0:0:
220,336,91545,6,0,B|288:336|288:336|328:352|368:336,1,150,4|8,0:0|0:0,0:0:0:0:
332,260,92335,1,0,0:0:0:0:
368,188,92598,2,0,P|328:180|292:188,2,75,0|0|8,0:0|0:0|0:0,0:0:0:0:
444,224,93387,1,0,0:0:0:0:
468,144,93651,6,0,B|488:68|488:68|452:76|416:64,1,150,2|8,0:0|0:0,0:0:0:0:
344,28,94440,1,0,0:0:0:0:
268,64,94703,2,0,P|244:96|232:128,1,75,0|0,0:0|0:0,0:0:0:0:
224,212,95229,2,0,P|229:251|243:282,1,75,8|0,0:0|0:0,0:0:0:0:
296,348,95756,6,0,P|364:368|448:360,1,150,4|8,0:0|0:0,0:0:0:0:
504,304,96545,1,0,0:0:0:0:
508,220,96808,2,0,L|512:112,2,75,0|0|8,0:0|0:0|0:0,0:0:0:0:
432,256,97598,1,0,0:0:0:0:
364,208,97861,6,0,B|320:176|264:196|264:196|256:240,1,150,2|8,0:0|0:0,0:0:0:0:
240,320,98651,1,0,0:0:0:0:
160,348,98914,2,0,P|120:352|84:344,2,75,0|0|8,0:0|0:0|0:0,0:0:0:0:
240,320,99703,1,0,0:0:0:0:
255,240,99966,6,0,B|272:168|272:168|312:172|344:144,1,150,4|8,0:0|0:0,0:0:0:0:
284,84,100756,1,0,0:0:0:0:
364,68,101019,2,0,P|416:108|408:192,1,150,0|8,0:0|0:0,0:0:0:0:
372,260,101808,1,0,0:0:0:0:
304,212,102072,6,0,B|228:192|228:236|156:212,1,150,2|8,0:0|0:0,0:0:0:0:
84,172,102861,1,0,0:0:0:0:
88,88,103124,2,0,P|84:52|68:16,2,75,0|0|8,0:0|0:0|0:0,0:0:0:0:
160,132,103914,1,0,0:0:0:0:
244,136,104177,6,0,L|318:138,1,75,4|0,0:0|0:0,0:0:0:0:
388,96,104703,2,0,B|416:144|384:188|384:188|408:180|436:188,1,150,8|0,0:0|0:0,0:0:0:0:
412,268,105493,1,0,0:0:0:0:
328,272,105756,2,0,L|252:276,1,75,8|0,0:0|0:0,0:0:0:0:
192,328,106282,6,0,B|160:284|184:236|184:236|124:272|60:232,1,225.000008583069,4|2,0:0|0:0,0:0:0:0:
124,88,107861,1,8,0:0:0:0:
280,64,108387,2,0,B|388:68|380:136|488:140,1,225.000008583069,2|2,0:0|0:0,0:0:0:0:
488,296,109966,1,8,0:0:0:0:
336,340,110493,6,0,B|256:368|192:336|192:336|204:304|188:260,1,225.000008583069,4|2,3:0|0:0,0:0:0:0:
48,188,112072,2,0,L|36:300,2,112.500004291535,8|2|2,0:0|0:0|0:0,0:0:0:0:
12,36,113651,2,0,P|64:28|120:48,1,112.500004291535
188,92,114440,1,0,0:0:0:0:
212,172,114703,6,0,B|232:232|232:232|272:240|316:216,1,150,4|8,0:0|0:0,0:0:0:0:
388,172,115493,2,0,B|404:208|396:236|396:236|440:228|476:264,1,150,0|0,0:0|0:0,0:0:0:0:
412,316,116282,2,0,L|352:364,1,75,8|0,0:0|0:0,0:0:0:0:
272,364,116808,6,0,P|248:332|228:224,1,150,2|8,0:0|0:0,0:0:0:0:
232,144,117598,2,0,B|140:156|140:156|84:140,1,150,0|0,0:0|0:0,0:0:0:0:
8,112,118387,1,8,0:0:0:0:
72,60,118651,1,0,0:0:0:0:
84,140,118914,6,0,L|112:288,1,150,2|8,0:0|0:0,0:0:0:0:
128,368,119703,1,0,0:0:0:0:
208,348,119966,2,0,L|281:334,2,75,0|0|8,0:0|0:0|0:0,0:0:0:0:
128,368,120756,1,0,0:0:0:0:
111,287,121019,6,0,P|108:244|112:208,1,75,2|0,0:0|0:0,0:0:0:0:
124,132,121545,2,0,P|140:96|164:68,1,75,0|0,0:0|0:0,0:0:0:0:
236,32,122072,2,0,P|308:24|380:48,1,150,0|0,0:0|0:0,0:0:0:0:
452,92,122861,1,0,0:0:0:0:
436,172,123124,6,0,B|428:228|428:228|476:240|492:292,1,150,0|4,0:0|0:0,0:0:0:0:
380,348,124045,2,0,P|324:360|268:356,1,112.5
188,336,124703,1,8,0:0:0:0:
52,244,125229,6,0,B|32:184|56:144|56:144|104:152,1,150,2|8,0:0|0:0,0:0:0:0:
220,188,126151,2,0,B|256:216|296:200|328:228,1,112.5,0|0,0:0|0:0,0:0:0:0:
376,288,126808,1,8,0:0:0:0:
432,348,127072,2,0,P|468:352|508:348,1,75,0|2,0:0|0:0,0:0:0:0:
468,188,127861,6,0,B|452:144|468:108|468:108|440:88,1,112.5,8|0,0:0|0:0,0:0:0:0:
340,24,128651,1,0,0:0:0:0:
312,104,128914,2,0,L|288:176,1,75,8|0,0:0|0:0,0:0:0:0:
296,256,129440,6,0,B|252:256|232:232|232:232|244:272|216:312,1,150,2|8,0:0|0:0,0:0:0:0:
152,256,130229,1,0,0:0:0:0:
92,196,130493,2,0,B|72:136|96:80|96:80|128:80,1,150,0|8,0:0|0:0,0:0:0:0:
208,84,131282,2,0,L|312:88,1,75,0|2,0:0|0:0,0:0:0:0:
448,64,132072,6,0,B|456:104|444:128|444:128|468:124|492:136,1,112.5,4|0,0:0|0:0,0:0:0:0:
448,252,132861,1,0,0:0:0:0:
364,260,133124,2,0,L|288:268,1,75,8|0,0:0|0:0,0:0:0:0:
216,308,133651,6,0,B|200:276|207:250|207:250|160:240|124:272,1,150,2|8,0:0|0:0,0:0:0:0:
20,208,134572,2,0,P|24:152|48:100,1,112.5,0|0,0:0|0:0,0:0:0:0:
104,40,135229,1,8,0:0:0:0:
188,44,135493,2,0,L|264:48,1,75,0|2,0:0|0:0,0:0:0:0:
424,16,136282,6,0,B|436:56|420:88|420:88|452:76|496:96,1,150,8|0,0:0|0:0,0:0:0:0:
448,164,137072,2,0,P|436:204|432:240,1,75,0|8,0:0|0:0,0:0:0:0:
432,320,137598,1,0,0:0:0:0:
348,320,137861,6,0,L|272:324,1,75,2|0,0:0|0:0,0:0:0:0:
248,244,138387,2,0,L|322:240,1,75,8|0,0:0|0:0,0:0:0:0:
300,160,138914,2,0,L|130:168,2,150,8|8|4,0:0|0:0|0:0,0:0:0:0:
148,244,147861,6,0,L|140:164,1,75,8|0,0:0|0:0,0:0:0:0:
84,108,148387,2,0,B|124:76|176:96|176:96|168:72|176:44,1,150,4|8,0:0|0:0,0:0:0:0:
256,72,149177,1,0,0:0:0:0:
336,44,149440,2,0,B|344:72|336:96|336:96|388:76|428:108,1,150,0|8,0:0|0:0,0:0:0:0:
371,169,150229,1,0,0:0:0:0:
356,252,150493,6,0,B|344:296|344:296|320:316|280:316|244:296,1,150,2|8,0:0|0:0,0:0:0:0:
168,264,151282,1,0,0:0:0:0:
192,184,151545,2,0,P|185:148|170:110,1,75,0|0,0:0|0:0,0:0:0:0:
89,133,152072,2,0,P|95:168|110:206,1,75,8|2,0:0|0:0,0:0:0:0:
168,264,152598,6,0,B|184:312|184:312|224:292|280:312,1,150,2|8,0:0|0:0,0:0:0:0:
356,348,153387,1,0,0:0:0:0:
396,276,153651,2,0,L|424:204,2,75,0|0|8,0:0|0:0|0:0,0:0:0:0:
292,148,154703,6,0,B|292:108|292:108|284:72,1,75,0|8,0:0|0:0,0:0:0:0:
201,74,155229,2,0,B|193:108|193:108|193:148,1,75,8|0,0:0|0:0,0:0:0:0:
192,232,155756,2,0,L|116:232,1,75,8|0,0:0|0:0,0:0:0:0:
116,316,156282,2,0,L|191:316,1,75,8|0,0:0|0:0,0:0:0:0:
256,192,156808,12,2,158914,0:0:0:0:
312,168,159440,6,0,B|340:160|340:160|316:124|328:72,1,112.5,4|0,0:0|0:0,0:0:0:0:
448,100,160229,1,0,0:0:0:0:
468,180,160493,2,0,P|472:216|468:260,1,75,8|0,0:0|0:0,0:0:0:0:
416,320,161019,6,0,B|352:292|296:300|296:300|288:328,1,150,2|8,0:0|0:0,0:0:0:0:
164,328,161940,2,0,L|131:220,1,112.5,0|0,0:0|0:0,0:0:0:0:
104,144,162598,1,8,0:0:0:0:
80,64,162861,2,0,P|120:64|156:80,1,75,0|2,0:0|0:0,0:0:0:0:
292,164,163651,6,0,B|340:168|384:148|384:148|412:180,1,112.5,8|0,0:0|0:0,0:0:0:0:
468,264,164440,1,0,0:0:0:0:
396,304,164703,2,0,B|360:320|360:320|324:320,1,75,8|0,0:0|0:0,0:0:0:0:
248,352,165229,6,0,B|236:324|248:292|248:292|204:316|156:288,1,150,2|8,0:0|0:0,0:0:0:0:
208,220,166019,1,0,0:0:0:0:
124,216,166282,2,0,P|84:264|100:348,1,150,0|8,0:0|0:0,0:0:0:0:
163,291,167072,2,0,L|252:308,1,75,0|2,0:0|0:0,0:0:0:0:
400,340,167861,6,0,P|432:292|436:236,1,112.5,4|0,0:0|0:0,0:0:0:0:
420,116,168651,1,0,0:0:0:0:
336,120,168914,2,0,L|260:124,1,75,8|0,0:0|0:0,0:0:0:0:
180,100,169440,6,0,B|172:136|188:164|188:164|144:152|108:176,1,150,2|8,0:0|0:0,0:0:0:0:
164,284,170361,2,0,P|200:324|252:352,1,112.5,0|0,0:0|0:0,0:0:0:0:
332,372,171019,1,8,0:0:0:0:
312,292,171282,2,0,P|324:252|340:224,1,75,0|2,0:0|0:0,0:0:0:0:
468,120,172072,6,0,P|416:72|340:60,1,150,8|0,0:0|0:0,0:0:0:0:
256,68,172861,1,0,0:0:0:0:
256,152,173124,2,0,L|256:232,1,75,8|0,0:0|0:0,0:0:0:0:
204,292,173651,6,0,B|164:288|164:312|132:308,2,75,2|0|8,0:0|0:0|0:0,0:0:0:0:
256,227,174440,1,0,0:0:0:0:
308,292,174703,2,0,B|348:288|348:312|380:308,1,75,8|0,0:0|0:0,0:0:0:0:
460,292,175229,2,0,P|484:220|472:148,1,150,8|4,0:0|0:0,0:0:0:0:
72,88,182072,6,0,L|152:80,1,75,2|8,0:0|0:0,0:0:0:0:
160,160,182598,2,0,L|85:167,1,75,8|0,0:0|0:0,0:0:0:0:
104,248,183124,2,0,L|253:233,1,150,8|8,0:0|0:0,0:0:0:0:
336,224,183914,1,0,0:0:0:0:
384,156,184177,6,0,P|420:208|392:284,1,150,2|4,0:0|0:0,0:0:0:0:
268,288,185098,2,0,B|196:284|196:284|152:260,1,112.5
88,224,185756,1,8,0:0:0:0:
80,144,186019,2,0,L|72:68,1,75,0|2,0:0|0:0,0:0:0:0:
232,28,186808,6,0,L|244:144,1,112.5,8|0,0:0|0:0,0:0:0:0:
256,264,187598,1,0,0:0:0:0:
332,296,187861,2,0,P|368:300|408:296,1,75,8|0,0:0|0:0,0:0:0:0:
484,264,188387,6,0,B|472:204|496:156|496:156|464:124,1,150,2|8,0:0|0:0,0:0:0:0:
404,76,189177,1,0,0:0:0:0:
324,92,189440,2,0,B|284:100|284:100|248:100,1,75,0|0,0:0|0:0,0:0:0:0:
168,100,189966,2,0,B|133:100|133:100|93:108,1,75,8|0,0:0|0:0,0:0:0:0:
12,124,190493,5,2,0:0:0:0:
16,208,190756,2,0,L|20:288,2,75,8|8|0,0:0|0:0|0:0,0:0:0:0:
12,124,191545,1,8,0:0:0:0:
40,48,191808,1,0,0:0:0:0:
93,108,192072,6,0,P|164:136|236:124,1,150,8|4,0:0|2:0,0:0:0:0:
