osu file format v14

[General]
AudioFilename: (Glass Bead)-1st Mini Album `Season Of Glass`).192k.MP3
AudioLeadIn: 0
PreviewTime: 63651
Countdown: 0
SampleSet: Normal
StackLeniency: 0.7
Mode: 0
LetterboxInBreaks: 0
WidescreenStoryboard: 0

[Editor]
Bookmarks: 11545
DistanceSpacing: 1
BeatDivisor: 4
GridSize: 4
TimelineZoom: 1.1

[Metadata]
Title:Glass Bead
TitleUnicode:유리구슬
Artist:GFRIEND
ArtistUnicode:여자친구
Creator:Norman
Version:Insane
Source:
Tags:소원 예린 은하 유주 신비 엄지 Season Of Glass 쏘스뮤직 kpop
BeatmapID:691613
BeatmapSetID:309361

[Difficulty]
HPDrainRate:6
CircleSize:4
OverallDifficulty:6
ApproachRate:7
SliderMultiplier:2
SliderTickRate:2

[Events]
//Background and Video events
0,0,"i7LyYIpaJ1i2g.jpg",0,0
Video,5030,"glass bead.avi"
//Break Periods
2,81219,88540
2,140166,145119
2,175956,181172
//Storyboard Layer 0 (Background)
//Storyboard Layer 1 (Fail)
//Storyboard Layer 2 (Pass)
//Storyboard Layer 3 (Foreground)
//Storyboard Sound Samples

[TimingPoints]
5230,526.315789473684,4,1,0,70,1,0
13651,-100,4,1,0,60,0,0
14177,-100,4,1,0,70,0,1
20229,-100,4,1,0,60,0,1
22072,-100,4,1,0,60,0,0
22598,-100,4,1,0,70,0,1
30493,-100,4,1,0,60,0,0
31019,-100,4,2,0,60,0,0
47335,-200,4,2,0,60,0,0
51545,-200,4,2,0,40,0,0
51808,-200,4,2,0,60,0,0
55229,-100,4,2,0,60,0,0
61545,-100,4,2,0,50,0,0
61808,-100,4,2,0,60,0,0
62072,-100,4,2,0,50,0,0
62335,-100,4,1,0,60,0,0
64703,-90.9090909090909,4,1,0,70,0,1
72598,-90.9090909090909,4,1,0,60,0,0
73124,-90.9090909090909,4,1,0,70,0,1
79440,-90.9090909090909,4,1,0,60,0,1
81019,-100,4,1,0,50,0,0
89440,-100,4,2,0,60,0,0
91545,-100,4,2,0,50,0,0
91808,-100,4,2,0,60,0,0
92072,-100,4,2,0,50,0,0
92335,-100,4,2,0,60,0,0
97335,-100,4,2,0,50,0,0
97598,-100,4,2,0,60,0,0
99966,-100,4,2,0,50,0,0
100229,-100,4,2,0,60,0,0
100493,-100,4,2,0,50,0,0
100756,-100,4,2,0,60,0,0
106282,-200,4,2,0,60,0,0
110493,-200,4,2,0,40,0,0
110756,-200,4,2,0,60,0,0
114177,-100,4,2,0,60,0,0
121282,-100,4,1,0,60,0,0
123651,-90.9090909090909,4,1,0,70,0,1
131545,-90.9090909090909,4,1,0,60,0,0
132072,-90.9090909090909,4,1,0,70,0,1
139966,-100,4,2,0,60,0,0
146282,-100,4,2,0,60,0,0
148387,-100,4,2,0,70,0,0
154703,-100,4,1,0,60,0,0
159440,-90.9090909090909,4,1,0,80,0,1
167335,-90.9090909090909,4,1,0,70,0,0
167861,-90.9090909090909,4,1,0,80,0,1
175756,-100,4,2,0,60,0,0
182072,-100,4,1,0,70,0,0
184703,-90.9090909090909,4,1,0,80,0,1
192598,-90.9090909090909,4,2,0,70,0,0

[Colours]
Combo1 : 255,207,159
Combo2 : 168,168,213
Combo3 : 255,128,128
Combo4 : 153,204,255

[HitObjects]
132,136,11545,6,0,L|141:84,1,50
45,189,11808,2,0,L|1:164,1,50,8|0,0:0|0:0,0:0:0:0:
55,289,12072,2,0,L|20:325,1,50,8|0,0:0|0:0,0:0:0:0:
151,307,12335,2,0,L|170:352,1,50
195,216,12598,2,0,L|244:208,1,50,8|0,0:0|0:0,0:0:0:0:
392,181,12861,2,0,L|342:188,1,50
277,115,13124,1,8,0:0:0:0:
309,283,13387,1,8,0:0:0:0:
433,171,13651,6,0,P|452:104|432:28,1,150,4|0,0:0|0:0,0:0:0:0:
384,44,14177,2,0,P|336:56|284:52,1,100,2|0,0:0|0:0,0:0:0:0:
240,72,14572,2,0,B|224:120|224:120|248:232,1,150
264,316,15229,1,8,0:0:0:0:
340,248,15493,1,0,0:0:0:0:
168,284,15756,6,0,P|96:312|40:360,1,150,2|0,0:0|0:0,0:0:0:0:
41,358,16282,2,0,L|32:244,1,100,8|0,0:0|0:0,0:0:0:0:
20,212,16677,2,0,B|8:160|36:120|36:120|88:132,1,150
184,156,17335,1,8,0:0:0:0:
316,84,17598,1,0,0:0:0:0:
316,84,17729,1,0,0:0:0:0:
316,84,17861,6,0,P|328:128|304:244,1,150,2|0,0:0|0:0,0:0:0:0:
284,272,18387,2,0,L|400:260,1,100,8|0,0:0|0:0,0:0:0:0:
416,300,18782,2,0,L|266:315,1,150
168,324,19440,1,8,0:0:0:0:
80,376,19703,1,0,0:0:0:0:
80,276,19966,5,8,0:0:0:0:
32,189,20229,1,0,0:0:0:0:
55,180,20361,1,0,0:0:0:0:
80,177,20493,1,0,0:0:0:0:
105,180,20624,1,0,0:0:0:0:
128,189,20756,1,0,0:0:0:0:
148,204,20887,1,0,0:0:0:0:
164,224,21019,2,0,L|176:280,3,50
244,344,21545,2,0,L|292:333,1,50,8|0,0:0|0:0,0:0:0:0:
396,224,21808,2,0,L|347:234,1,50
272,136,22072,5,2,0:0:0:0:
272,136,22598,6,0,P|240:96|192:76,1,100,4|0,0:0|0:0,0:0:0:0:
148,76,22993,2,0,P|148:140|108:216,1,150
28,276,23651,1,8,0:0:0:0:
64,368,23914,1,0,0:0:0:0:
204,312,24177,6,0,B|260:292|260:292|356:308,1,150,2|0,0:0|0:0,0:0:0:0:
400,316,24703,2,0,P|396:264|404:216,1,100,8|0,0:0|0:0,0:0:0:0:
436,180,25098,2,0,L|272:148,1,150
188,136,25756,1,8,0:0:0:0:
128,56,26019,1,0,0:0:0:0:
128,56,26151,1,0,0:0:0:0:
128,56,26282,6,0,P|88:144|152:228,1,200,2|8,0:0|0:0,0:0:0:0:
232,260,27072,1,0,0:0:0:0:
256,164,27335,2,0,B|256:100|256:100|276:64,1,100
388,164,27861,2,0,B|388:228|388:228|368:264,1,100,8|0,0:0|0:0,0:0:0:0:
312,340,28387,5,8,0:0:0:0:
272,248,28651,1,0,0:0:0:0:
312,340,28914,1,8,0:0:0:0:
164,352,29177,1,0,0:0:0:0:
164,352,29308,1,0,0:0:0:0:
164,352,29440,1,8,0:0:0:0:
176,252,29703,1,0,0:0:0:0:
120,168,29966,1,8,0:0:0:0:
114,143,30098,1,0,0:0:0:0:
112,118,30229,1,0,0:0:0:0:
112,93,30361,1,0,0:0:0:0:
115,69,30493,5,4,0:0:0:0:
312,112,31019,6,0,L|308:212,1,100,8|0,0:0|0:0,0:0:0:0:
308,211,31414,1,0,0:0:0:0:
308,211,31545,1,0,0:0:0:0:
304,312,31808,1,0,0:0:0:0:
212,352,32072,1,8,0:0:0:0:
124,300,32335,2,0,P|104:256|100:204,1,100,0|2,0:0|0:0,0:0:0:0:
108,104,32861,6,0,L|8:92,1,100,0|8,0:0|0:0,0:0:0:0:
188,164,33387,1,0,0:0:0:0:
188,164,33519,1,0,0:0:0:0:
188,164,33651,2,0,L|287:152,1,100
388,144,34177,1,8,0:0:0:0:
332,60,34440,1,0,0:0:0:0:
344,236,34703,6,0,B|348:288|348:288|400:276|444:316,1,150,2|0,0:0|0:0,0:0:0:0:
472,352,35229,2,0,L|488:252,1,100,8|0,0:0|0:0,0:0:0:0:
492,228,35624,1,0,0:0:0:0:
496,204,35756,1,0,0:0:0:0:
488,104,36019,1,0,0:0:0:0:
404,160,36282,1,8,0:0:0:0:
396,60,36545,1,0,0:0:0:0:
260,120,36808,6,0,P|252:192|336:292,1,200,2|8,3:0|0:0,0:0:0:0:
404,160,37598,1,0,0:0:0:0:
404,160,37729,1,0,0:0:0:0:
404,160,37861,2,0,L|396:60,1,100
300,28,38387,1,8,0:0:0:0:
260,120,38651,1,0,0:0:0:0:
152,16,38914,6,0,B|88:4|44:36|44:36|48:76,1,150,2|0,0:0|0:0,0:0:0:0:
56,120,39440,2,0,P|60:172|52:220,1,100,8|0,0:0|0:0,0:0:0:0:
44,244,39835,1,0,0:0:0:0:
44,244,39966,1,0,0:0:0:0:
84,336,40229,2,0,L|188:324,1,100,0|8,0:0|0:0,0:0:0:0:
284,316,40756,1,0,0:0:0:0:
316,168,41019,6,0,B|380:168|416:232|416:232|464:192,1,150,2|0,3:0|0:0,0:0:0:0:
468,180,41545,1,8,0:0:0:0:
512,36,41808,1,2,0:0:0:0:
488,28,41940,1,2,0:0:0:0:
464,24,42072,1,2,0:0:0:0:
440,28,42203,1,2,0:0:0:0:
416,36,42335,1,2,0:0:0:0:
324,72,42598,1,8,0:0:0:0:
316,168,42861,1,0,0:0:0:0:
316,168,42993,1,0,0:0:0:0:
316,168,43124,6,0,B|312:240|312:240|336:288|336:288|332:362,1,200,2|8,0:0|0:0,0:0:0:0:
244,316,43914,1,0,0:0:0:0:
244,316,44045,1,0,0:0:0:0:
244,316,44177,2,0,P|192:304|144:308,1,100
332,362,44703,2,0,P|384:374|432:370,1,100,8|0,0:0|0:0,0:0:0:0:
388,280,45229,6,0,P|400:200|432:132,1,150,2|0,3:0|0:0,0:0:0:0:
456,96,45756,2,0,L|356:88,1,100,8|0,0:0|0:0,0:0:0:0:
331,86,46151,1,0,0:0:0:0:
306,85,46282,1,0,0:0:0:0:
205,81,46545,1,0,0:0:0:0:
105,77,46808,2,0,L|101:177,1,100,8|0,0:0|0:0,0:0:0:0:
36,256,47335,6,0,P|107:278|176:248,1,150,4|0,0:0|0:0,0:0:0:0:
212,156,48387,2,0,L|204:104,1,50,2|0,0:0|0:0,0:0:0:0:
307,106,48914,2,0,L|300:156,1,50,8|0,0:0|0:0,0:0:0:0:
337,249,49440,6,0,P|405:278|480:256,1,150,2|0,0:0|0:0,0:0:0:0:
412,180,50493,2,0,L|410:130,1,50,2|0,0:0|0:0,0:0:0:0:
296,32,51019,2,0,L|294:81,1,50,8|0,0:0|0:0,0:0:0:0:
180,180,51545,6,0,L|176:80,1,100,4|0,3:0|0:0,0:0:0:0:
184,280,52335,1,0,0:0:0:0:
96,232,52598,2,0,P|60:232|44:236,1,50,2|0,0:0|0:0,0:0:0:0:
80,328,53124,1,8,0:0:0:0:
180,180,53387,6,0,L|184:80,1,100,2|0,0:0|0:0,0:0:0:0:
328,32,54177,2,0,L|329:81,1,50,2|0,0:0|0:0,0:0:0:0:
332,132,54572,2,0,P|368:120|404:120,1,75,2|0,0:0|0:0,0:0:0:0:
384,216,55229,5,0,0:0:0:0:
384,216,55361,1,0,0:0:0:0:
384,216,55493,2,0,P|384:268|368:324,1,100,0|4,0:0|0:0,0:0:0:0:
288,256,56019,6,0,L|188:244,1,100,0|8,0:0|0:0,0:0:0:0:
104,196,56545,2,0,B|128:148|184:148|184:148|148:108|160:52,1,200
256,80,57335,1,8,0:0:0:0:
352,55,57598,1,0,0:0:0:0:
352,55,57861,6,0,P|351:107|327:151,1,100,2|0,0:0|0:0,0:0:0:0:
256,220,58387,2,0,L|256:328,1,100,8|0,0:0|0:0,0:0:0:0:
268,368,58782,2,0,P|200:348|120:356,1,150
24,376,59440,1,8,0:0:0:0:
56,280,59703,1,0,0:0:0:0:
64,256,59835,1,0,0:0:0:0:
72,232,59966,6,0,B|84:176|72:128|72:128|112:104,1,150,2|0,0:0|0:0,0:0:0:0:
156,84,60493,2,0,P|212:88|252:108,1,100,8|0,0:0|0:0,0:0:0:0:
272,124,60887,1,0,0:0:0:0:
272,124,61019,1,0,0:0:0:0:
244,220,61282,2,0,B|232:272|232:272|232:328,1,100,0|8,0:0|0:0,0:0:0:0:
380,336,61808,2,0,B|392:284|392:284|392:228,1,100,0|2,0:0|0:0,0:0:0:0:
328,160,62335,5,0,0:0:0:0:
476,184,62598,1,0,0:0:0:0:
500,36,62861,1,0,0:0:0:0:
352,12,63124,1,0,0:0:0:0:
347,36,63256,1,0,0:0:0:0:
343,61,63387,1,0,0:0:0:0:
339,86,63519,1,0,0:0:0:0:
335,110,63651,2,0,L|328:160,3,50
320,196,64177,6,0,P|260:196|184:244,1,150,2|0,2:0|0:0,0:0:0:0:
144,280,64703,6,0,L|116:168,1,110.000003356934,4|0,0:0|0:0,0:0:0:0:
84,128,65098,2,0,B|136:128|176:104|176:104|168:76|168:76|176:36,1,165.000005035401
280,72,65756,1,8,0:0:0:0:
380,24,66019,1,0,0:0:0:0:
396,188,66282,6,0,P|400:276|372:348,1,165.000005035401,2|0,0:0|0:0,0:0:0:0:
348,300,66808,2,0,P|332:248|300:200,1,110.000003356934,8|0,0:0|0:0,0:0:0:0:
260,168,67203,2,0,L|96:164,1,165.000005035401
24,312,67861,2,0,L|133:314,1,110.000003356934,8|0,0:0|0:0,0:0:0:0:
160,316,68256,1,0,0:0:0:0:
188,316,68387,6,0,P|220:248|156:140,1,165.000005035401,2|0,0:0|0:0,0:0:0:0:
160,124,68914,2,0,L|272:116,1,110.000003356934,8|0,0:0|0:0,0:0:0:0:
288,64,69308,2,0,L|123:75,1,165.000005035401
12,84,69966,2,0,P|8:140|20:192,1,110.000003356934,8|0,0:0|0:0,0:0:0:0:
72,288,70493,5,2,0:0:0:0:
128,196,70756,1,0,0:0:0:0:
152,183,70887,1,0,0:0:0:0:
178,175,71019,1,8,0:0:0:0:
206,171,71151,1,0,0:0:0:0:
233,171,71282,1,0,0:0:0:0:
260,175,71414,1,0,0:0:0:0:
286,183,71545,2,0,L|296:240,3,55.0000016784668
316,348,72072,2,0,L|370:339,1,55.0000016784668,8|0,0:0|0:0,0:0:0:0:
484,236,72335,2,0,L|429:244,1,55.0000016784668
290,187,72598,6,0,P|282:135|326:35,1,165.000005035401,2|0,0:0|0:0,0:0:0:0:
326,34,73124,2,0,L|214:23,1,110.000003356934,4|0,0:0|0:0,0:0:0:0:
162,19,73519,2,0,B|102:27|82:83|82:83|58:91|58:91|34:111,1,165.000005035401
112,184,74177,1,8,0:0:0:0:
32,260,74440,1,0,0:0:0:0:
176,336,74703,6,0,P|256:352|340:336,1,165.000005035401,2|0,0:0|0:0,0:0:0:0:
384,308,75229,2,0,P|392:252|416:200,1,110.000003356934,8|0,0:0|0:0,0:0:0:0:
456,168,75624,2,0,B|344:144|344:144|304:108,1,165.000005035401
236,24,76282,1,8,0:0:0:0:
148,164,76545,1,0,0:0:0:0:
148,164,76677,1,0,0:0:0:0:
148,164,76808,6,0,B|156:224|132:272|132:272|164:316,1,165.000005035401,2|0,0:0|0:0,0:0:0:0:
204,356,77335,2,0,P|256:364|312:356,1,110.000003356934,8|0,0:0|0:0,0:0:0:0:
408,304,77861,1,0,0:0:0:0:
484,136,78124,1,0,0:0:0:0:
332,224,78387,1,8,0:0:0:0:
500,244,78651,1,0,0:0:0:0:
376,124,78914,5,2,0:0:0:0:
236,36,79177,1,0,0:0:0:0:
228,200,79440,1,8,0:0:0:0:
227,227,79572,1,0,0:0:0:0:
224,254,79703,1,0,0:0:0:0:
218,281,79835,1,0,0:0:0:0:
209,307,79966,2,0,L|144:300,3,55.0000016784668,8|0|0|0,0:0|0:0|0:0|0:0,0:0:0:0:
44,288,80493,2,0,L|51:222,1,55.0000016784668,8|0,0:0|0:0,0:0:0:0:
220,172,80756,2,0,L|212:106,1,55.0000016784668
40,56,81019,5,4,0:0:0:0:
84,120,89440,6,0,B|64:184|100:240|100:240|124:216|132:172,1,200,4|8,0:0|0:0,0:0:0:0:
188,92,90229,1,0,0:0:0:0:
188,92,90361,1,0,0:0:0:0:
188,92,90493,2,0,P|232:72|292:72,1,100
256,168,91019,1,8,0:0:0:0:
256,268,91282,2,0,B|256:328|256:328|272:368,1,100,0|4,0:0|0:0,0:0:0:0:
388,268,91808,6,0,B|388:208|388:208|372:168,1,100,0|8,0:0|0:0,0:0:0:0:
328,80,92335,1,0,0:0:0:0:
312,60,92466,1,0,0:0:0:0:
296,40,92598,2,0,L|196:40,1,100
56,96,93124,1,8,0:0:0:0:
56,96,93256,1,0,0:0:0:0:
56,96,93387,2,0,P|40:144|36:200,1,100,0|2,0:0|0:0,0:0:0:0:
40,292,93914,5,0,0:0:0:0:
124,240,94177,2,0,L|224:236,1,100,8|0,0:0|0:0,0:0:0:0:
248,235,94572,1,0,0:0:0:0:
272,234,94703,1,0,0:0:0:0:
372,228,94966,1,0,0:0:0:0:
472,224,95229,1,8,0:0:0:0:
424,312,95493,1,0,0:0:0:0:
420,140,95756,6,0,B|416:72|416:72|384:96|336:92,1,150,4|0,0:0|0:0,0:0:0:0:
292,72,96282,2,0,P|240:60|192:68,1,100,8|0,0:0|0:0,0:0:0:0:
172,76,96677,1,0,0:0:0:0:
172,76,96808,1,0,0:0:0:0:
80,120,97072,2,0,L|84:220,1,100,0|8,0:0|0:0,0:0:0:0:
88,320,97598,1,0,0:0:0:0:
228,264,97861,6,0,P|304:268|372:304,1,150,2|0,0:0|0:0,0:0:0:0:
400,340,98387,2,0,L|408:236,1,100,8|0,0:0|0:0,0:0:0:0:
409,215,98782,1,0,0:0:0:0:
411,190,98914,1,0,0:0:0:0:
420,92,99177,1,0,0:0:0:0:
504,148,99440,1,8,0:0:0:0:
328,132,99703,2,0,L|224:124,1,100,0|4,0:0|0:0,0:0:0:0:
127,115,100229,6,0,P|128:66|139:17,1,100,0|8,0:0|0:0,0:0:0:0:
172,208,100756,1,0,0:0:0:0:
177,232,100887,1,0,0:0:0:0:
176,257,101019,1,0,0:0:0:0:
169,281,101150,1,0,0:0:0:0:
157,302,101282,1,0,0:0:0:0:
80,240,101545,1,8,0:0:0:0:
84,140,101808,1,0,0:0:0:0:
84,140,101940,1,0,0:0:0:0:
84,140,102072,6,0,P|148:96|216:104,1,150,2|0,0:0|0:0,0:0:0:0:
252,140,102598,2,0,L|260:36,1,100,8|0,0:0|0:0,0:0:0:0:
266,16,102993,1,0,0:0:0:0:
266,16,103124,1,0,0:0:0:0:
364,40,103387,1,0,0:0:0:0:
464,20,103651,1,8,0:0:0:0:
440,168,103914,1,0,0:0:0:0:
440,168,104177,6,0,L|336:160,1,100,4|0,0:0|0:0,0:0:0:0:
240,155,104703,2,0,P|220:200|212:252,1,100,8|0,0:0|0:0,0:0:0:0:
212,276,105098,1,0,0:0:0:0:
216,300,105229,1,0,0:0:0:0:
280,376,105493,1,0,0:0:0:0:
352,308,105756,2,0,L|356:208,1,100,8|0,0:0|0:0,0:0:0:0:
408,120,106282,6,0,B|356:96|312:116|312:116|320:92|316:64,1,150,4|0,0:0|0:0,0:0:0:0:
168,76,107335,2,0,L|160:140,1,50,2|0,0:0|0:0,0:0:0:0:
24,180,107861,2,0,L|30:130,1,50,8|0,0:0|0:0,0:0:0:0:
148,224,108387,6,0,L|128:382,1,150,2|0,0:0|0:0,0:0:0:0:
256,288,109440,2,0,P|284:288|308:296,1,50,2|0,0:0|0:0,0:0:0:0:
444,240,109966,2,0,P|462:223|485:213,1,50,8|0,0:0|0:0,0:0:0:0:
340,176,110493,6,0,L|288:36,1,150,4|0,3:0|0:0,0:0:0:0:
376,268,111545,1,2,0:0:0:0:
276,256,111808,2,0,P|248:256|224:260,1,50,0|8,0:0|0:0,0:0:0:0:
340,176,112335,1,0,0:0:0:0:
340,176,112598,6,0,P|368:176|392:172,1,50,2|0,0:0|0:0,0:0:0:0:
272,96,113124,2,0,P|244:96|220:100,1,50,2|0,0:0|0:0,0:0:0:0:
176,116,113519,2,0,L|164:40,1,75,0|8,0:0|0:0,0:0:0:0:
44,128,114177,5,0,0:0:0:0:
24,144,114308,1,0,0:0:0:0:
4,160,114440,2,0,P|0:208|4:260,1,100,0|4,0:0|0:0,0:0:0:0:
56,344,114966,6,0,L|156:336,1,100,0|8,0:0|0:0,0:0:0:0:
236,212,115493,2,0,B|304:192|364:232|364:232|396:172,1,200
440,84,116282,1,8,0:0:0:0:
492,168,116545,1,0,0:0:0:0:
340,88,116808,6,0,P|288:68|240:64,1,100,2|0,0:0|0:0,0:0:0:0:
144,68,117335,2,0,P|89:81|48:105,1,100,8|0,0:0|0:0,0:0:0:0:
32,148,117729,2,0,B|60:180|68:232|68:232|92:212|128:212,1,150
128,312,118387,1,8,0:0:0:0:
264,252,118651,1,0,0:0:0:0:
284,240,118782,1,0,0:0:0:0:
304,228,118914,6,0,B|308:164|281:114|281:114|308:92,1,150,2|0,0:0|0:0,0:0:0:0:
352,72,119440,2,0,P|400:60|456:68,1,100,8|0,0:0|0:0,0:0:0:0:
472,76,119835,1,0,0:0:0:0:
472,76,119966,1,0,0:0:0:0:
408,156,120229,2,0,B|408:224|408:224|420:256,1,100,0|8,0:0|0:0,0:0:0:0:
464,344,120756,1,0,0:0:0:0:
316,364,121019,5,2,0:0:0:0:
312,192,121282,1,0,0:0:0:0:
216,336,121545,1,0,0:0:0:0:
368,276,121808,1,0,0:0:0:0:
220,236,122072,1,0,0:0:0:0:
209,213,122203,1,0,0:0:0:0:
206,188,122335,1,0,0:0:0:0:
209,163,122466,1,0,0:0:0:0:
218,140,122598,2,0,L|268:144,1,50
140,64,122861,2,0,L|90:68,1,50
8,196,123124,6,0,L|162:208,1,150
209,213,123651,6,0,P|224:160|256:116,1,110.000003356934,4|0,0:0|0:0,0:0:0:0:
296,80,124045,2,0,B|352:96|404:64|404:64|440:104,1,165.000005035401
508,188,124703,1,8,0:0:0:0:
400,208,124966,1,0,0:0:0:0:
480,347,125229,6,0,P|507:270|508:188,1,165.000005035401,2|0,0:0|0:0,0:0:0:0:
492,136,125756,2,0,B|424:152|424:152|384:144,1,110.000003356934,8|0,0:0|0:0,0:0:0:0:
336,120,126151,2,0,B|272:108|232:148|232:148|192:112,1,165.000005035401
120,32,126808,1,8,0:0:0:0:
40,176,127072,1,0,0:0:0:0:
40,176,127203,1,0,0:0:0:0:
40,176,127335,6,0,P|35:228|48:284,1,110.000003356934,2|0,0:0|0:0,0:0:0:0:
108,376,127861,2,0,L|220:372,1,110.000003356934,8|0,0:0|0:0,0:0:0:0:
272,368,128256,2,0,P|292:292|248:224,1,165.000005035401
156,164,128914,1,8,0:0:0:0:
176,56,129177,1,0,0:0:0:0:
284,40,129440,5,2,0:0:0:0:
320,144,129703,1,0,0:0:0:0:
347,149,129835,1,0,0:0:0:0:
374,150,129966,1,8,0:0:0:0:
401,147,130098,1,0,0:0:0:0:
428,141,130229,1,0,0:0:0:0:
454,131,130361,1,0,0:0:0:0:
477,117,130493,2,0,L|484:172,3,55.0000016784668
492,284,131019,2,0,L|437:290,1,55.0000016784668,8|0,0:0|0:0,0:0:0:0:
304,192,131282,2,0,L|358:185,1,55.0000016784668
344,352,131545,6,0,L|163:372,1,165.000005035401,2|0,0:0|0:0,0:0:0:0:
180,370,132072,2,0,P|188:316|176:260,1,110.000003356934,4|0,0:0|0:0,0:0:0:0:
148,216,132466,2,0,B|196:172|256:192|256:192|276:148,1,165.000005035401
312,44,133124,1,8,0:0:0:0:
204,64,133387,1,0,0:0:0:0:
380,128,133651,6,0,P|400:176|392:288,1,165.000005035401,2|0,0:0|0:0,0:0:0:0:
364,332,134177,2,0,L|480:324,1,110.000003356934,8|0,0:0|0:0,0:0:0:0:
504,368,134572,2,0,L|339:379,1,165.000005035401
256,308,135229,2,0,P|240:256|244:200,1,110.000003356934,8|0,0:0|0:0,0:0:0:0:
256,176,135624,1,0,0:0:0:0:
280,160,135756,6,0,B|172:172|172:172|120:152,1,165.000005035401,2|0,0:0|0:0,0:0:0:0:
68,132,136282,1,8,0:0:0:0:
200,36,136545,1,0,0:0:0:0:
200,36,136677,1,0,0:0:0:0:
200,36,136808,2,0,L|312:28,1,110.000003356934
424,148,137335,2,0,L|312:156,1,110.000003356934,8|0,0:0|0:0,0:0:0:0:
204,164,137861,5,2,0:0:0:0:
148,320,138124,1,0,0:0:0:0:
40,192,138387,1,8,0:0:0:0:
36,164,138519,1,0,0:0:0:0:
37,137,138651,1,0,0:0:0:0:
43,110,138782,1,0,0:0:0:0:
54,85,138914,2,0,L|84:36,3,55.0000016784668,8|0|0|0,0:0|0:0|0:0|0:0,0:0:0:0:
192,32,139440,2,0,L|248:28,1,55.0000016784668,8|0,0:0|0:0,0:0:0:0:
304,184,139703,2,0,L|358:187,1,55.0000016784668
470,28,139966,5,4,0:0:0:0:
96,132,146019,5,0,0:0:0:0:
96,132,146282,2,0,L|104:231,1,100,0|2,0:0|0:0,0:0:0:0:
67,323,146808,1,8,0:0:0:0:
67,323,146940,2,0,P|115:327|167:307,1,100
203,283,147335,2,0,L|207:231,1,50,2|0,0:0|0:0,0:0:0:0:
307,239,147598,2,0,L|311:187,1,50,2|0,0:0|0:0,0:0:0:0:
411,195,147861,2,0,L|418:92,1,100,8|0,0:0|0:0,0:0:0:0:
420,72,148256,1,0,0:0:0:0:
420,48,148387,6,0,L|368:44,1,50,4|0,0:0|0:0,0:0:0:0:
284,92,148651,2,0,L|232:88,1,50
148,136,148914,2,0,P|140:180|144:236,1,100,8|0,0:0|0:0,0:0:0:0:
152,260,149308,1,0,0:0:0:0:
176,272,149440,2,0,L|288:268,1,100
376,264,149966,1,8,0:0:0:0:
332,352,150229,1,0,0:0:0:0:
324,176,150493,6,0,L|320:116,1,50,2|0,0:0|0:0,0:0:0:0:
220,140,150756,2,0,L|216:80,1,50
116,104,151019,2,0,P|64:96|16:108,1,100,8|0,0:0|0:0,0:0:0:0:
0,124,151414,1,0,0:0:0:0:
0,148,151545,2,0,L|4:248,1,100
8,348,152072,1,8,0:0:0:0:
148,296,152335,1,2,0:0:0:0:
172,284,152466,1,2,0:0:0:0:
196,272,152598,6,0,P|200:224|192:168,1,100,2|0,0:0|0:0,0:0:0:0:
164,76,153124,2,0,L|264:68,1,100,8|0,0:0|0:0,0:0:0:0:
288,66,153519,1,0,0:0:0:0:
312,64,153651,1,0,0:0:0:0:
300,212,153914,1,0,0:0:0:0:
436,148,154177,1,8,0:0:0:0:
216,104,154703,5,0,0:0:0:0:
200,296,154966,1,8,0:0:0:0:
8,280,155229,1,8,0:0:0:0:
24,88,155493,1,0,0:0:0:0:
24,88,155624,1,0,0:0:0:0:
24,88,155756,2,0,L|124:84,1,100,8|0,0:0|0:0,0:0:0:0:
224,80,156282,1,8,0:0:0:0:
184,276,156545,1,0,0:0:0:0:
256,192,156808,12,2,158914,0:0:0:0:
24,176,159440,6,0,B|44:172|64:160|64:160|53:186|60:228,1,110.000003356934,4|0,0:0|0:0,0:0:0:0:
84,276,159835,1,0,0:0:0:0:
136,288,159966,2,0,L|248:284,1,110.000003356934
356,276,160493,1,8,0:0:0:0:
448,336,160756,1,0,0:0:0:0:
484,176,161019,6,0,B|504:104|480:52|480:52|456:88,1,165.000005035401,2|0,0:0|0:0,0:0:0:0:
412,116,161545,2,0,P|356:108|308:84,1,110.000003356934,8|0,0:0|0:0,0:0:0:0:
264,52,161940,1,0,0:0:0:0:
264,52,162072,1,0,0:0:0:0:
196,204,162335,1,0,0:0:0:0:
256,296,162598,1,8,0:0:0:0:
148,304,162861,1,0,0:0:0:0:
148,304,162993,1,0,0:0:0:0:
148,304,163124,6,0,P|92:248|92:164,1,165.000005035401,2|0,0:0|0:0,0:0:0:0:
112,116,163651,2,0,B|180:128|180:128|224:116,1,110.000003356934,8|0,0:0|0:0,0:0:0:0:
272,96,164045,1,0,0:0:0:0:
272,96,164177,1,0,0:0:0:0:
392,212,164440,1,0,0:0:0:0:
356,28,164703,1,8,0:0:0:0:
284,200,164966,1,0,0:0:0:0:
432,108,165229,5,2,0:0:0:0:
328,300,165493,1,0,0:0:0:0:
302,310,165624,1,0,0:0:0:0:
275,313,165756,1,8,0:0:0:0:
248,309,165887,1,0,0:0:0:0:
223,297,166019,1,0,0:0:0:0:
203,279,166151,1,0,0:0:0:0:
188,256,166282,2,0,P|184:232|184:196,3,55.0000016784668
215,91,166808,2,0,P|215:64|210:37,1,55.0000016784668,8|0,0:0|0:0,0:0:0:0:
288,176,167072,2,0,P|315:175|342:170,1,55.0000016784668
108,120,167335,5,2,0:0:0:0:
108,120,167861,6,0,P|120:172|104:228,1,110.000003356934,4|0,0:0|0:0,0:0:0:0:
80,276,168256,1,0,0:0:0:0:
80,276,168387,2,0,L|196:268,1,110.000003356934
300,260,168914,1,8,0:0:0:0:
408,252,169177,1,0,0:0:0:0:
344,100,169440,6,0,P|280:88|180:108,1,165.000005035401,2|0,0:0|0:0,0:0:0:0:
132,128,169966,2,0,B|140:192|140:192|132:236,1,110.000003356934,8|0,0:0|0:0,0:0:0:0:
120,288,170361,1,0,0:0:0:0:
120,288,170493,1,0,0:0:0:0:
200,364,170756,1,0,0:0:0:0:
308,364,171019,1,8,0:0:0:0:
392,288,171282,1,0,0:0:0:0:
392,288,171414,1,0,0:0:0:0:
392,288,171545,6,0,B|380:224|380:224|392:124,1,165.000005035401,2|0,0:0|0:0,0:0:0:0:
400,72,172072,2,0,L|288:60,1,110.000003356934,8|0,0:0|0:0,0:0:0:0:
236,56,172466,1,0,0:0:0:0:
188,84,172598,2,0,P|176:128|176:204,1,110.000003356934
323,300,173124,2,0,P|337:246|337:191,1,110.000003356934,8|0,0:0|0:0,0:0:0:0:
324,84,173651,5,2,0:0:0:0:
236,152,173914,1,0,0:0:0:0:
428,124,174177,1,8,0:0:0:0:
222,44,174440,1,0,0:0:0:0:
222,44,174572,1,0,0:0:0:0:
222,44,174703,1,8,0:0:0:0:
249,263,174966,2,0,L|255:317,1,55.0000016784668
338,192,175229,2,0,L|343:246,1,55.0000016784668,8|0,0:0|0:0,0:0:0:0:
428,124,175493,2,0,L|433:178,1,55.0000016784668
324,84,175756,5,4,0:0:0:0:
228,224,182072,6,0,L|301:212,1,50,2|0,0:0|0:0,0:0:0:0:
204,76,182335,2,0,L|192:2,1,50,8|0,0:0|0:0,0:0:0:0:
56,100,182598,2,0,L|-17:112,1,50,8|0,0:0|0:0,0:0:0:0:
80,248,182861,2,0,L|92:321,1,50
228,224,183124,5,8,0:0:0:0:
221,186,183256,1,0,0:0:0:0:
215,149,183387,1,0,0:0:0:0:
209,112,183519,1,0,0:0:0:0:
203,75,183651,1,8,0:0:0:0:
364,127,183914,1,0,0:0:0:0:
364,127,184045,1,0,0:0:0:0:
364,127,184177,6,0,B|380:176|372:244|372:244|356:216,1,150,2|0,0:0|0:0,0:0:0:0:
320,176,184703,6,0,P|268:164|212:168,1,110.000003356934,4|0,0:0|0:0,0:0:0:0:
168,200,185098,1,0,0:0:0:0:
168,200,185229,2,0,L|144:92,1,110.000003356934
192,308,185756,1,8,0:0:0:0:
88,272,186019,1,0,0:0:0:0:
272,232,186282,6,0,P|344:232|420:284,1,165.000005035401,2|0,0:0|0:0,0:0:0:0:
456,324,186808,2,0,P|448:268|456:212,1,110.000003356934,8|0,0:0|0:0,0:0:0:0:
480,168,187203,1,0,0:0:0:0:
456,120,187335,2,0,L|336:112,1,110.000003356934
236,108,187861,1,8,0:0:0:0:
80,56,188124,1,0,0:0:0:0:
80,56,188256,1,0,0:0:0:0:
80,56,188387,6,0,B|64:112|80:160|80:160|44:168|28:200,1,165.000005035401,2|0,0:0|0:0,0:0:0:0:
4,240,188914,1,8,0:0:0:0:
148,320,189177,1,0,0:0:0:0:
148,320,189308,1,0,0:0:0:0:
148,320,189440,2,0,P|196:332|256:328,1,110.000003356934
324,176,189966,2,0,P|276:164|216:168,1,110.000003356934,8|0,0:0|0:0,0:0:0:0:
116,212,190493,5,2,0:0:0:0:
104,32,190756,1,8,0:0:0:0:
16,168,191019,1,8,0:0:0:0:
124,292,191282,1,0,0:0:0:0:
126,319,191414,1,0,0:0:0:0:
128,348,191545,2,0,L|240:344,1,110.000003356934,8|0,0:0|0:0,0:0:0:0:
292,340,191940,1,0,0:0:0:0:
344,328,192072,6,0,P|392:236|328:152,1,220.000006713867,8|4,0:0|2:0,0:0:0:0:
