osu file format v14

[General]
AudioFilename: (Glass Bead)-1st Mini Album `Season Of Glass`).192k.MP3
AudioLeadIn: 0
PreviewTime: 63651
Countdown: 0
SampleSet: Normal
StackLeniency: 0.7
Mode: 0
LetterboxInBreaks: 0
WidescreenStoryboard: 0

[Editor]
Bookmarks: 11545
DistanceSpacing: 1
BeatDivisor: 4
GridSize: 4
TimelineZoom: 1.1

[Metadata]
Title:Glass Bead
TitleUnicode:유리구슬
Artist:GFRIEND
ArtistUnicode:여자친구
Creator:Norman
Version:Hard
Source:
Tags:소원 예린 은하 유주 신비 엄지 Season Of Glass 쏘스뮤직 kpop
BeatmapID:691614
BeatmapSetID:309361

[Difficulty]
HPDrainRate:5
CircleSize:4
OverallDifficulty:5
ApproachRate:6.5
SliderMultiplier:1.8
SliderTickRate:2

[Events]
//Background and Video events
0,0,"i7LyYIpaJ1i2g.jpg",0,0
Video,5030,"glass bead.avi"
//Break Periods
2,81219,88465
2,140166,145044
2,175956,181097
//Storyboard Layer 0 (Background)
//Storyboard Layer 1 (Fail)
//Storyboard Layer 2 (Pass)
//Storyboard Layer 3 (Foreground)
//Storyboard Sound Samples

[TimingPoints]
5230,526.315789473684,4,1,0,70,1,0
13651,-100,4,1,0,60,0,0
14177,-100,4,1,0,70,0,1
20229,-100,4,1,0,60,0,1
22072,-100,4,1,0,60,0,0
22598,-100,4,1,0,70,0,1
30493,-100,4,1,0,60,0,0
31019,-100,4,2,0,60,0,0
47335,-200,4,2,0,60,0,0
51545,-200,4,2,0,40,0,0
51808,-200,4,2,0,60,0,0
55229,-100,4,2,0,60,0,0
62335,-100,4,1,0,60,0,0
64703,-100,4,1,0,70,0,1
72598,-100,4,1,0,60,0,0
73124,-100,4,1,0,70,0,1
79440,-100,4,1,0,60,0,1
81019,-100,4,1,0,50,0,0
89440,-100,4,2,0,60,0,0
106282,-200,4,2,0,60,0,0
110493,-200,4,2,0,40,0,0
110756,-200,4,2,0,60,0,0
114177,-100,4,2,0,60,0,0
121282,-100,4,1,0,60,0,0
123651,-100,4,1,0,70,0,1
131545,-100,4,1,0,60,0,0
132072,-100,4,1,0,70,0,1
139966,-100,4,2,0,60,0,0
148387,-100,4,2,0,70,0,0
154703,-100,4,1,0,60,0,0
159440,-100,4,1,0,80,0,1
167335,-100,4,1,0,70,0,0
167861,-100,4,1,0,80,0,1
175756,-100,4,2,0,60,0,0
182072,-100,4,1,0,70,0,0
184703,-100,4,1,0,80,0,1
192598,-100,4,2,0,70,0,0

[Colours]
Combo1 : 255,207,159
Combo2 : 168,168,213
Combo3 : 255,128,128
Combo4 : 153,204,255

[HitObjects]
208,324,11545,6,0,B|180:324|180:324|152:336|152:336|120:336,2,90,0|8|8,0:0|0:0|0:0,0:0:0:0:
300,324,12335,1,0,0:0:0:0:
256,244,12598,2,0,L|256:148,1,90,8|0,0:0|0:0,0:0:0:0:
256,64,13124,1,8,0:0:0:0:
176,108,13387,1,8,0:0:0:0:
96,64,13651,6,0,P|88:128|128:184,1,135,4|0,0:0|0:0,0:0:0:0:
164,208,14177,2,0,B|140:248|140:248|140:292,1,90,2|0,0:0|0:0,0:0:0:0:
148,336,14572,2,0,P|208:320|256:268,1,135
256,176,15229,2,0,L|256:86,1,90,8|0,0:0|0:0,0:0:0:0:
316,16,15756,6,0,B|352:48|346:100|346:100|392:88,1,135,2|0,0:0|0:0,0:0:0:0:
432,84,16282,2,0,P|440:128|440:176,1,90,8|0,0:0|0:0,0:0:0:0:
436,220,16677,2,0,B|344:212|344:212|296:244,1,135,0|0,0:0|0:0,0:0:0:0:
244,300,17335,1,8,0:0:0:0:
220,212,17598,1,0,0:0:0:0:
220,212,17729,1,0,0:0:0:0:
220,212,17861,6,0,P|200:144|204:80,1,135,2|0,0:0|0:0,0:0:0:0:
236,48,18387,2,0,L|140:44,1,90,8|0,0:0|0:0,0:0:0:0:
104,56,18782,2,0,B|80:108|36:108|12:156,1,135,0|0,0:0|0:0,0:0:0:0:
12,244,19440,2,0,P|24:284|68:328,1,90,8|0,0:0|0:0,0:0:0:0:
100,244,19966,5,8,0:0:0:0:
172,192,20229,2,0,L|264:192,2,90,0|0|0,0:0|0:0|0:0,0:0:0:0:
100,140,21019,1,0,0:0:0:0:
37,77,21282,1,0,0:0:0:0:
100,15,21545,1,8,0:0:0:0:
162,77,21808,2,0,L|208:77,2,45,0|0|2,0:0|0:0|0:0,0:0:0:0:
336,32,22598,6,0,P|340:76|336:124,1,90,4|0,0:0|0:0,0:0:0:0:
312,160,22993,2,0,P|368:128|436:140,1,135,0|0,0:0|0:0,0:0:0:0:
384,216,23651,2,0,P|372:260|376:308,1,90,8|0,0:0|0:0,0:0:0:0:
460,268,24177,5,2,0:0:0:0:
296,343,24703,2,0,P|256:328|208:320,1,90,8|0,0:0|0:0,0:0:0:0:
168,336,25098,2,0,P|176:284|152:204,1,135,0|0,0:0|0:0,0:0:0:0:
104,132,25756,1,8,0:0:0:0:
192,124,26019,1,0,0:0:0:0:
192,124,26151,1,0,0:0:0:0:
192,124,26282,6,0,B|232:116|256:68|256:68|276:116|324:124,1,180,2|8,0:0|0:0,0:0:0:0:
340,36,27072,1,0,0:0:0:0:
408,96,27335,2,0,P|408:144|392:184,2,90,0|0|8,0:0|0:0|0:0,0:0:0:0:
340,36,28124,1,0,0:0:0:0:
323,123,28387,5,8,0:0:0:0:
256,64,28651,2,0,L|167:46,1,90,0|8,0:0|0:0,0:0:0:0:
96,100,29177,2,0,L|87:144,2,45,0|0|8,0:0|0:0|0:0,0:0:0:0:
167,46,29703,1,0,0:0:0:0:
167,46,29835,1,0,0:0:0:0:
167,46,29966,2,0,P|256:64|324:120,1,180,8|4,0:0|0:0,0:0:0:0:
180,228,31019,5,8,0:0:0:0:
112,168,31282,1,0,0:0:0:0:
112,168,31414,1,0,0:0:0:0:
112,168,31545,2,0,P|76:148|28:140,1,90,0|0,0:0|0:0,0:0:0:0:
48,228,32072,1,8,0:0:0:0:
104,300,32335,2,0,L|200:292,1,90,0|2,0:0|0:0,0:0:0:0:
284,288,32861,5,0,0:0:0:0:
360,336,33124,2,0,B|384:280|352:228|352:228|392:240|428:212,1,180,8|0,0:0|0:0,0:0:0:0:
376,140,33914,1,0,0:0:0:0:
420,60,34177,2,0,P|340:56|288:160,1,180,8|2,0:0|0:0,0:0:0:0:
256,216,34966,5,0,0:0:0:0:
200,148,35229,2,0,P|160:128|112:128,2,90,8|0|0,0:0|0:0|0:0,0:0:0:0:
256,216,36019,2,0,L|272:316,1,90,0|8,0:0|0:0,0:0:0:0:
328,372,36545,1,0,0:0:0:0:
388,304,36808,6,0,B|404:216|404:216|452:236|504:204,1,180,2|8,3:0|0:0,0:0:0:0:
444,136,37598,2,0,L|440:80,2,45,0|0|0,0:0|0:0|0:0,0:0:0:0:
356,140,38124,2,0,L|349:50,1,90,0|8,0:0|0:0,0:0:0:0:
257,54,38651,2,0,L|264:144,1,90,0|2,0:0|0:0,0:0:0:0:
272,232,39177,5,0,0:0:0:0:
236,316,39440,2,0,P|152:340|80:292,1,180,8|0,0:0|0:0,0:0:0:0:
48,208,40229,2,0,P|56:164|56:116,1,90,0|8,0:0|0:0,0:0:0:0:
44,28,40756,1,0,0:0:0:0:
132,32,41019,6,0,B|196:40|196:40|240:64|240:64|304:72,1,180,2|8,3:0|0:0,0:0:0:0:
392,84,41808,2,0,L|398:39,2,45,2|2|2,0:0|0:0|0:0,0:0:0:0:
380,172,42335,1,2,0:0:0:0:
416,256,42598,1,8,0:0:0:0:
328,244,42861,1,0,0:0:0:0:
328,244,42993,1,0,0:0:0:0:
328,244,43124,6,0,B|244:232|244:232|236:284|184:304,1,180,2|8,0:0|0:0,0:0:0:0:
156,220,43914,2,0,L|140:176,2,45
100,292,44440,1,0,0:0:0:0:
28,236,44703,2,0,L|40:144,1,90,8|0,0:0|0:0,0:0:0:0:
8,64,45229,6,0,B|68:44|112:92|112:92|112:60|144:32,1,180,2|8,3:0|0:0,0:0:0:0:
200,104,46019,2,0,L|200:148,2,45
260,36,46545,1,0,0:0:0:0:
320,104,46808,2,0,B|332:148|320:196|320:196,1,90,8|0,0:0|0:0,0:0:0:0:
272,272,47335,6,0,B|236:260|208:272|208:272|176:264|140:288,1,135,4|0,0:0|0:0,0:0:0:0:
68,340,48387,2,0,P|56:316|52:292,1,45,2|0,0:0|0:0,0:0:0:0:
32,212,48914,2,0,P|31:185|37:161,1,45,8|0,0:0|0:0,0:0:0:0:
60,80,49440,2,0,B|100:68|128:84|128:84|152:64|192:68,1,135,2|0,0:0|0:0,0:0:0:0:
216,152,50493,2,0,L|212:200,1,45,2|0,0:0|0:0,0:0:0:0:
299,196,51019,2,0,L|296:152,1,45,8|0,0:0|0:0,0:0:0:0:
322,67,51545,6,0,B|364:64|364:64|388:76|412:68|412:68|456:80,1,135,4|0,3:0|0:0,0:0:0:0:
512,152,52598,1,2,0:0:0:0:
500,240,52861,2,0,P|496:268|492:288,1,45,0|8,0:0|0:0,0:0:0:0:
424,344,53387,2,0,L|320:336,1,90,2|0,0:0|0:0,0:0:0:0:
300,252,54177,2,0,L|196:244,1,90,2|0,0:0|0:0,0:0:0:0:
120,236,54966,1,0,0:0:0:0:
172,160,55229,5,0,0:0:0:0:
172,160,55361,1,0,0:0:0:0:
172,160,55493,2,0,P|176:112|168:72,1,90,0|4,0:0|0:0,0:0:0:0:
92,120,56019,5,0,0:0:0:0:
16,172,56282,1,8,0:0:0:0:
96,208,56545,2,0,B|108:268|100:328|100:328|128:316|180:324,1,180
248,340,57335,1,8,0:0:0:0:
336,320,57598,1,0,0:0:0:0:
276,252,57861,6,0,P|272:208|280:164,1,90,2|0,0:0|0:0,0:0:0:0:
356,212,58387,1,8,0:0:0:0:
356,212,58651,2,0,L|196:108,1,180
128,68,59440,1,8,0:0:0:0:
128,156,59703,1,0,0:0:0:0:
128,156,59835,1,0,0:0:0:0:
127,156,59966,6,0,P|88:235|103:322,1,180,2|8,0:0|0:0,0:0:0:0:
176,372,60756,2,0,L|236:380,2,45,0|0|0,0:0|0:0|0:0,0:0:0:0:
184,284,61282,1,0,0:0:0:0:
192,196,61545,2,0,L|300:181,1,90,8|0,0:0|0:0,0:0:0:0:
372,172,62072,5,2,0:0:0:0:
360,84,62335,1,0,0:0:0:0:
448,72,62598,1,0,0:0:0:0:
460,160,62861,1,0,0:0:0:0:
428,244,63124,2,0,P|344:256|280:188,1,180
372,172,63914,1,0,0:0:0:0:
372,172,64177,6,0,L|320:316,1,135,2|0,2:0|0:0,0:0:0:0:
300,336,64703,6,0,P|256:312|208:304,1,90,4|0,0:0|0:0,0:0:0:0:
176,320,65098,2,0,P|124:352|52:336,1,135
108,264,65756,2,0,B|116:220|116:220|116:168,1,90,8|0,0:0|0:0,0:0:0:0:
68,100,66282,6,0,B|112:76|156:96|156:96|160:72|172:52,1,135,2|0,0:0|0:0,0:0:0:0:
212,36,66808,2,0,P|256:32|304:36,1,90,8|0,0:0|0:0,0:0:0:0:
341,55,67203,2,0,P|352:116|344:188,1,135
312,272,67861,1,8,0:0:0:0:
256,200,68124,1,0,0:0:0:0:
256,200,68256,1,0,0:0:0:0:
256,200,68387,6,0,P|184:180|120:188,1,135,2|0,0:0|0:0,0:0:0:0:
88,212,68914,2,0,P|80:168|60:128,1,90,8|0,0:0|0:0,0:0:0:0:
24,152,69308,2,0,B|16:212|-4:236|-4:236|28:272,1,135
96,328,69966,1,8,0:0:0:0:
188,336,70229,1,0,0:0:0:0:
256,276,70493,5,2,0:0:0:0:
256,188,70756,2,0,L|256:92,2,90,0|8|0,0:0|0:0|0:0,0:0:0:0:
336,232,71545,1,0,0:0:0:0:
416,188,71808,2,0,B|416:144|416:144|416:92,1,90,0|8,0:0|0:0,0:0:0:0:
336,52,72335,1,0,0:0:0:0:
336,52,72466,1,0,0:0:0:0:
336,52,72598,2,0,B|256:96|256:96|212:96,1,135,2|0,0:0|0:0,0:0:0:0:
172,72,73124,6,0,P|176:120|168:168,1,90,4|0,0:0|0:0,0:0:0:0:
156,204,73519,2,0,P|108:168|32:176,1,135,0|0,0:0|0:0,0:0:0:0:
80,252,74177,1,8,0:0:0:0:
32,328,74440,1,0,0:0:0:0:
120,332,74703,6,0,L|212:336,1,90,2|0,0:0|0:0,0:0:0:0:
288,380,75229,2,0,P|296:336|288:292,1,90,8|0,0:0|0:0,0:0:0:0:
264,252,75624,2,0,B|244:204|264:164|264:164|316:156,1,135
396,144,76282,1,8,0:0:0:0:
436,64,76545,1,0,0:0:0:0:
436,64,76677,1,0,0:0:0:0:
436,64,76808,6,0,P|484:132|448:216,1,180,2|8,0:0|0:0,0:0:0:0:
396,144,77598,1,0,0:0:0:0:
308,120,77861,2,0,B|264:112|264:112|220:120,1,90,0|0,0:0|0:0,0:0:0:0:
132,144,78387,2,0,L|132:240,1,90,8|0,0:0|0:0,0:0:0:0:
132,324,78914,5,2,0:0:0:0:
212,280,79177,1,0,0:0:0:0:
256,360,79440,1,8,0:0:0:0:
256,360,79703,1,0,0:0:0:0:
300,280,79966,1,8,0:0:0:0:
380,324,80229,1,0,0:0:0:0:
376,232,80493,2,0,B|384:200|400:176|424:164|424:164|400:148|376:148|352:104,1,180,8|4,0:0|0:0,0:0:0:0:
116,256,89440,6,0,B|104:292|132:312|164:300|164:268|164:268|164:224|192:196,1,180,4|8,0:0|0:0,0:0:0:0:
256,132,90229,2,0,L|304:132,2,45,0|0|0,0:0|0:0|0:0,0:0:0:0:
192,68,90756,2,0,L|96:68,1,90,0|8,0:0|0:0,0:0:0:0:
12,68,91282,1,0,0:0:0:0:
12,156,91545,6,0,P|12:200|24:248,1,90,4|0,0:0|0:0,0:0:0:0:
48,332,92072,2,0,B|104:316|112:252|112:252|140:260|164:300,1,180,8|0,0:0|0:0,0:0:0:0:
212,376,92861,1,0,0:0:0:0:
300,376,93124,2,0,L|344:376,2,45,8|0|0,0:0|0:0|0:0,0:0:0:0:
256,296,93651,6,0,B|232:208|284:208|256:120,1,180,2|8,0:0|0:0,0:0:0:0:
216,40,94440,1,0,0:0:0:0:
216,40,94572,1,0,0:0:0:0:
216,40,94703,2,0,P|171:31|127:40,1,90,0|0,0:0|0:0,0:0:0:0:
68,108,95229,2,0,P|59:152|68:196,1,90,8|0,0:0|0:0,0:0:0:0:
60,284,95756,6,0,B|128:284|152:224|152:224|224:248,1,180,4|8,0:0|0:0,0:0:0:0:
296,276,96545,2,0,L|280:320,2,45
324,192,97072,1,0,0:0:0:0:
404,232,97335,1,8,0:0:0:0:
436,148,97598,2,0,L|451:105,2,45,0|0|2,0:0|0:0|0:0,0:0:0:0:
404,232,98124,5,0,0:0:0:0:
324,192,98387,2,0,P|244:204|208:292,1,180,8|0,0:0|0:0,0:0:0:0:
296,276,99177,1,0,0:0:0:0:
376,320,99440,1,8,0:0:0:0:
404,232,99703,2,0,P|408:188|400:140,1,90,0|4,0:0|0:0,0:0:0:0:
372,56,100229,5,0,0:0:0:0:
280,64,100493,2,0,B|204:72|204:72|176:88|176:88|136:76|104:96,1,180,8|0,0:0|0:0,0:0:0:0:
148,176,101282,1,0,0:0:0:0:
148,176,101545,2,0,B|148:220|148:220|137:264,1,90,8|0,0:0|0:0,0:0:0:0:
55,299,102072,6,0,P|124:352|204:321,1,180,2|8,0:0|0:0,0:0:0:0:
137,264,102861,2,0,L|136:219,2,45,0|0|0,0:0|0:0|0:0,0:0:0:0:
220,232,103387,1,0,0:0:0:0:
304,200,103651,2,0,L|300:107,1,90,8|0,0:0|0:0,0:0:0:0:
296,20,104177,6,0,B|360:16|384:76|384:76|416:60|460:80,1,180,4|8,0:0|0:0,0:0:0:0:
416,160,104966,2,0,L|417:204,2,45,0|0|0,0:0|0:0|0:0,0:0:0:0:
324,152,105493,1,0,0:0:0:0:
248,200,105756,2,0,L|244:289,1,90,8|0,0:0|0:0,0:0:0:0:
168,344,106282,6,0,P|104:328|32:336,1,135,4|0,0:0|0:0,0:0:0:0:
24,244,107335,2,0,L|20:184,1,45,2|0,0:0|0:0,0:0:0:0:
108,216,107861,2,0,L|110:171,1,45,8|0,0:0|0:0,0:0:0:0:
196,200,108387,6,0,L|224:64,1,135,2|0,0:0|0:0,0:0:0:0:
308,36,109440,2,0,P|332:36|356:40,1,45,2|0,0:0|0:0,0:0:0:0:
440,60,109966,2,0,P|461:70|481:83,1,45,8|0,0:0|0:0,0:0:0:0:
512,168,110493,6,0,B|488:208|500:256|500:256|460:280,1,135,4|0,3:0|0:0,0:0:0:0:
380,316,111545,1,2,0:0:0:0:
312,256,111808,2,0,P|308:232|308:212,1,45,0|8,0:0|0:0,0:0:0:0:
312,120,112335,6,0,L|208:112,1,90
148,64,113124,2,0,P|136:108|144:156,1,90,2|0,0:0|0:0,0:0:0:0:
164,240,113914,1,8,0:0:0:0:
108,308,114177,6,0,L|64:312,2,45,0|0|0,0:0|0:0|0:0,0:0:0:0:
196,320,114703,6,0,B|268:328|268:328|304:368|368:352,1,180,4|8,0:0|0:0,0:0:0:0:
336,268,115493,2,0,B|336:192|384:152|384:152|364:104,1,180,0|0,0:0|0:0,0:0:0:0:
324,24,116282,1,8,0:0:0:0:
256,80,116545,1,0,0:0:0:0:
184,24,116808,6,0,P|140:12|96:20,2,90,2|0|8,0:0|0:0|0:0,0:0:0:0:
136,100,117598,2,0,P|72:128|12:224,1,180,0|0,0:0|0:0,0:0:0:0:
12,308,118387,1,8,0:0:0:0:
88,360,118651,1,0,0:0:0:0:
88,360,118782,1,0,0:0:0:0:
88,360,118914,6,0,B|152:356|152:356|200:336|200:336|264:332,1,180,2|8,0:0|0:0,0:0:0:0:
352,324,119703,2,0,L|348:264,2,45,0|0|0,0:0|0:0|0:0,0:0:0:0:
440,320,120229,1,0,0:0:0:0:
432,228,120493,2,0,L|426:138,1,90,8|0,0:0|0:0,0:0:0:0:
420,45,121019,5,2,0:0:0:0:
348,100,121282,1,0,0:0:0:0:
260,100,121545,1,0,0:0:0:0:
188,44,121808,1,0,0:0:0:0:
176,132,122072,2,0,B|160:196|168:248|168:248|188:220|220:216,1,180
240,304,122861,1,0,0:0:0:0:
160,340,123124,6,0,P|72:352|12:332,1,135
12,296,123651,2,0,P|20:252|20:204,1,90,4|0,0:0|0:0,0:0:0:0:
8,164,124045,2,0,P|32:100|88:72,1,135
96,160,124703,1,8,0:0:0:0:
180,188,124966,1,0,0:0:0:0:
264,160,125229,6,0,P|308:140|396:140,1,135,2|0,0:0|0:0,0:0:0:0:
432,160,125756,2,0,P|420:200|420:248,1,90,8|0,0:0|0:0,0:0:0:0:
428,292,126151,2,0,B|364:316|364:316|297:312,1,135,0|0,0:0|0:0,0:0:0:0:
208,308,126808,1,8,0:0:0:0:
256,232,127072,1,0,0:0:0:0:
256,232,127203,1,0,0:0:0:0:
256,232,127335,6,0,P|272:156|256:100,1,135,2|0,0:0|0:0,0:0:0:0:
224,72,127861,2,0,B|179:72|179:72|132:64,1,90,8|0,0:0|0:0,0:0:0:0:
92,48,128256,2,0,B|60:104|96:124|64:180,1,135,0|0,0:0|0:0,0:0:0:0:
28,260,128914,2,0,P|28:304|48:352,1,90,8|0,0:0|0:0,0:0:0:0:
112,288,129440,5,2,0:0:0:0:
200,308,129703,2,0,L|288:332,2,90,0|8|0,0:0|0:0|0:0,0:0:0:0:
172,220,130493,2,0,L|195:133,1,90,0|0,0:0|0:0,0:0:0:0:
224,48,131019,1,8,0:0:0:0:
280,116,131282,1,0,0:0:0:0:
280,116,131414,1,0,0:0:0:0:
280,116,131545,6,0,P|340:124|412:104,1,135,2|0,0:0|0:0,0:0:0:0:
448,76,132072,2,0,P|448:124|464:168,1,90,4|0,0:0|0:0,0:0:0:0:
480,204,132466,2,0,B|460:248|408:248|384:296,1,135,0|0,0:0|0:0,0:0:0:0:
332,372,133124,1,8,0:0:0:0:
256,324,133387,1,0,0:0:0:0:
180,372,133651,6,0,P|112:360|64:316,1,135,2|0,0:0|0:0,0:0:0:0:
40,280,134177,2,0,P|52:240|52:192,1,90,8|0,0:0|0:0,0:0:0:0:
40,148,134572,2,0,L|180:136,1,135
264,128,135229,1,8,0:0:0:0:
316,60,135493,1,0,0:0:0:0:
316,60,135624,1,0,0:0:0:0:
316,60,135756,6,0,B|348:80|350:129|350:129|392:96|444:118,1,180,2|8,0:0|0:0,0:0:0:0:
406,199,136545,2,0,L|410:247,2,45
316,212,137072,1,0,0:0:0:0:
228,224,137335,2,0,L|220:134,1,90,8|0,0:0|0:0,0:0:0:0:
208,44,137861,5,2,0:0:0:0:
136,100,138124,1,0,0:0:0:0:
56,56,138387,1,8,0:0:0:0:
56,56,138651,1,0,0:0:0:0:
60,144,138914,1,8,0:0:0:0:
12,220,139177,1,0,0:0:0:0:
100,224,139440,2,0,B|144:240|160:288|160:288|168:320|192:328|216:320|220:296,1,180,8|4,0:0|0:0,0:0:0:0:
164,100,146019,5,0,0:0:0:0:
164,100,146282,2,0,B|176:144|176:144|172:188,1,90,0|2,0:0|0:0,0:0:0:0:
164,276,146808,2,0,L|212:280,1,45,8|0,0:0|0:0,0:0:0:0:
300,280,147203,2,0,L|344:276,1,45,0|2,0:0|0:0,0:0:0:0:
436,268,147598,1,2,0:0:0:0:
384,196,147861,2,0,P|376:152|376:104,1,90,8|0,0:0|0:0,0:0:0:0:
316,40,148387,6,0,B|256:16|200:48|200:48|208:76|196:106,1,180,4|8,0:0|0:0,0:0:0:0:
112,72,149177,2,0,L|64:68,2,45,0|0|0,0:0|0:0|0:0,0:0:0:0:
124,160,149703,1,0,0:0:0:0:
76,236,149966,2,0,P|68:280|76:324,1,90,8|0,0:0|0:0,0:0:0:0:
156,280,150493,6,0,B|240:256|248:304|336:280,1,180,2|8,0:0|0:0,0:0:0:0:
400,220,151282,2,0,L|396:175,2,45,0|0|0,0:0|0:0|0:0,0:0:0:0:
488,236,151808,2,0,L|480:143,1,90,0|8,0:0|0:0,0:0:0:0:
472,56,152335,1,2,0:0:0:0:
472,56,152466,1,2,0:0:0:0:
472,56,152598,6,0,B|432:56|412:88|412:88|380:84|344:92|320:132,1,180,2|8,0:0|0:0,0:0:0:0:
402,182,153387,1,0,0:0:0:0:
402,182,153519,1,0,0:0:0:0:
402,182,153651,2,0,P|406:227|400:272,1,90
376,356,154177,1,8,0:0:0:0:
224,260,154703,5,0,0:0:0:0:
148,308,154966,1,8,0:0:0:0:
68,268,155229,1,8,0:0:0:0:
144,220,155493,2,0,L|140:168,2,45,0|0|8,0:0|0:0|0:0,0:0:0:0:
148,308,156019,1,0,0:0:0:0:
228,352,156282,1,8,0:0:0:0:
304,300,156545,1,0,0:0:0:0:
256,192,156808,12,2,158914,0:0:0:0:
72,176,159440,6,0,P|137:176|183:223,1,135,4|0,0:0|0:0,0:0:0:0:
204,264,159966,2,0,P|232:240|256:192,1,90,0|0,0:0|0:0,0:0:0:0:
268,104,160493,1,8,0:0:0:0:
348,60,160756,1,0,0:0:0:0:
424,104,161019,6,0,P|448:160|448:240,1,135,2|0,0:0|0:0,0:0:0:0:
436,276,161545,2,0,P|392:256|348:256,1,90,8|0,0:0|0:0,0:0:0:0:
312,276,161940,2,0,B|244:292|244:256|180:276,1,135,0|0,0:0|0:0,0:0:0:0:
100,320,162598,1,8,0:0:0:0:
48,244,162861,1,0,0:0:0:0:
48,244,162993,1,0,0:0:0:0:
48,244,163124,6,0,P|44:176|68:92,1,135,2|0,0:0|0:0,0:0:0:0:
76,68,163651,2,0,L|176:80,1,90,8|0,0:0|0:0,0:0:0:0:
208,92,164045,2,0,B|244:92|268:64|268:64|300:76|300:120,1,135
284,208,164703,1,8,0:0:0:0:
336,284,164966,1,0,0:0:0:0:
424,284,165229,5,2,0:0:0:0:
476,208,165493,2,0,L|476:116,2,90,0|8|0,0:0|0:0|0:0,0:0:0:0:
424,284,166282,1,0,0:0:0:0:
380,208,166545,2,0,L|380:118,1,90,0|8,0:0|0:0,0:0:0:0:
336,40,167072,1,0,0:0:0:0:
336,40,167203,1,0,0:0:0:0:
336,40,167335,6,0,B|292:68|292:124|292:124|256:132,1,135,2|0,0:0|0:0,0:0:0:0:
212,140,167861,2,0,P|220:184|216:228,1,90,4|0,0:0|0:0,0:0:0:0:
196,268,168256,2,0,L|332:264,1,135,0|0,0:0|0:0,0:0:0:0:
421,262,168914,1,8,0:0:0:0:
496,312,169177,1,0,0:0:0:0:
500,224,169440,6,0,B|502:176|502:176|476:144|476:92,1,135,2|0,0:0|0:0,0:0:0:0:
476,48,169966,2,0,P|432:36|388:36,1,90,8|0,0:0|0:0,0:0:0:0:
348,56,170361,2,0,B|315:84|275:92|275:92|283:116|271:148,1,135,0|0,0:0|0:0,0:0:0:0:
188,116,171019,1,8,0:0:0:0:
116,64,171282,1,0,0:0:0:0:
116,64,171414,1,0,0:0:0:0:
116,64,171545,6,0,P|100:124|136:188,1,135,2|0,0:0|0:0,0:0:0:0:
168,216,172072,2,0,P|124:220|84:244,1,90,8|0,0:0|0:0,0:0:0:0:
152,304,172598,1,0,0:0:0:0:
212,372,172861,1,0,0:0:0:0:
300,372,173124,1,8,0:0:0:0:
360,304,173387,1,0,0:0:0:0:
272,288,173651,5,2,0:0:0:0:
260,200,173914,2,0,L|260:100,2,90,0|8|0,0:0|0:0|0:0,0:0:0:0:
188,260,174703,1,8,0:0:0:0:
116,212,174966,1,0,0:0:0:0:
48,272,175229,2,0,P|36:316|36:360,1,90,8|0,0:0|0:0,0:0:0:0:
120,328,175756,5,4,0:0:0:0:
192,136,182072,5,2,0:0:0:0:
196,224,182335,1,8,0:0:0:0:
108,228,182598,1,8,0:0:0:0:
104,140,182861,1,0,0:0:0:0:
192,136,183124,2,0,L|288:132,2,90,8|0|8,0:0|0:0|0:0,0:0:0:0:
104,140,183914,2,0,L|100:52,2,45,0|0|2,0:0|0:0|0:0,0:0:0:0:
60,316,184703,6,0,P|112:324|148:316,1,90,4|0,0:0|0:0,0:0:0:0:
192,308,185098,2,0,P|180:240|192:176,1,135
228,92,185756,1,8,0:0:0:0:
304,40,186019,1,0,0:0:0:0:
380,92,186282,6,0,B|432:104|476:80|476:80|496:112,1,135,2|0,0:0|0:0,0:0:0:0:
512,152,186808,2,0,P|512:200|496:248,1,90,8|0,0:0|0:0,0:0:0:0:
480,280,187203,2,0,B|412:304|408:264|344:280,1,135
272,328,187861,1,8,0:0:0:0:
188,287,188124,1,0,0:0:0:0:
188,287,188256,1,0,0:0:0:0:
188,287,188387,6,0,P|168:228|172:144,1,135,2|0,0:0|0:0,0:0:0:0:
188,116,188914,2,0,L|98:104,1,90,8|0,0:0|0:0,0:0:0:0:
9,94,189440,1,0,0:0:0:0:
44,176,189703,2,0,P|44:224|32:268,2,90,0|8|0,0:0|0:0|0:0,0:0:0:0:
9,94,190493,5,2,0:0:0:0:
60,20,190756,1,8,0:0:0:0:
96,100,191019,1,8,0:0:0:0:
152,28,191282,1,0,0:0:0:0:
188,112,191545,1,8,0:0:0:0:
248,44,191808,1,0,0:0:0:0:
276,132,192072,2,0,B|340:144|396:128|396:128|380:108|380:72,1,180,8|4,0:0|2:0,0:0:0:0:
