osu file format v14

[General]
AudioFilename: xihuanni.mp3
AudioLeadIn: 0
PreviewTime: -1
Countdown: 1
SampleSet: None
StackLeniency: 0.7
Mode: 0
LetterboxInBreaks: 1
WidescreenStoryboard: 0

[Editor]
DistanceSpacing: 1.2
BeatDivisor: 4
GridSize: 8
TimelineZoom: 1

[Metadata]
Title:Xi huan ni
TitleUnicode:Xi huan ni
Artist:GEM
ArtistUnicode:GEM
Creator:-shuko
Version:Insane
Source:I am singer Season2
Tags:
BeatmapID:406700
BeatmapSetID:167437

[Difficulty]
HPDrainRate:8
CircleSize:4
OverallDifficulty:7
ApproachRate:9
SliderMultiplier:2
SliderTickRate:1

[Events]
//Background and Video events
//Break Periods
2,84803,88346
2,139277,149135
//Storyboard Layer 0 (Background)
//Storyboard Layer 1 (Fail)
//Storyboard Layer 2 (Pass)
//Storyboard Layer 3 (Foreground)
//Storyboard Sound Samples

[TimingPoints]
525,394.736842105263,4,2,1,30,1,0
55788,-200,4,2,1,32,0,0
60327,-100,4,2,0,45,0,1
84603,-100,4,2,0,45,0,0
109472,-200,4,1,0,38,0,1
111643,-100,4,2,0,53,0,1
148844,-100,4,2,0,53,0,0
178946,-200,4,1,0,35,0,1
180919,-100,4,3,1,35,0,1
205788,-100,4,3,1,35,0,0

[HitObjects]
56,104,525,5,4,0:0:0:0:
296,120,919,2,4,B|368:136|368:160|456:96|368:32,1,200
256,40,1511,1,4,0:0:0:0:
432,112,2103,1,4,0:0:0:0:
400,232,2301,1,4,0:0:0:0:
256,144,2498,2,4,B|328:120|352:160|392:72|280:48,1,200
287,49,3288,1,4,0:0:0:0:
56,104,3682,2,8,B|112:112|96:144|168:120|200:72|240:168,1,200
472,120,4472,1,2,0:0:0:0:
232,128,4867,2,0,B|288:168|272:200|424:192,3,200
176,240,6446,5,0,0:0:0:0:
296,256,6643,1,0,0:0:0:0:
288,136,6840,2,0,B|344:120|328:88|408:112|360:192|432:240,1,200
416,226,7432,1,0,0:0:0:0:
80,104,8025,2,0,B|136:112|136:176|256:160|272:232|152:296|296:120|336:240|392:144|384:248|512:216|504:96|360:88|472:16|304:32,1,600
208,40,9406,1,0,0:0:0:0:
96,88,9603,2,2,B|64:192|112:216|48:280,1,200
168,304,10196,1,0,0:0:0:0:
280,256,10393,2,0,B|344:224|320:192|400:168|416:296,1,200
248,104,11182,6,0,B|176:104|160:152|112:80|48:120,1,200
112,224,11774,1,0,0:0:0:0:
232,240,11972,2,0,B|288:224|328:296|432:216|408:96|456:56|360:16|296:72,1,400
72,112,13156,1,0,0:0:0:0:
56,352,13551,2,0,L|184:320,1,100
360,200,14143,2,0,B|296:192|272:240|216:176|136:192,1,200
232,96,14735,1,0,0:0:0:0:
352,96,14932,1,0,0:0:0:0:
264,176,15130,2,0,B|208:208|168:192|152:288|56:224,1,200
32,128,15722,1,0,0:0:0:0:
72,240,15919,6,0,B|144:216|144:176|224:328,1,200
264,80,16709,2,0,B|232:128|280:160|200:176|168:96|136:208,1,200
168,296,17498,2,0,P|224:256|240:288,1,100
352,248,17893,2,0,P|456:224|456:288,1,200
512,152,18485,1,8,0:0:0:0:
432,88,18682,1,8,0:0:0:0:
312,104,18880,1,8,0:0:0:0:
192,128,19077,1,8,0:0:0:0:
160,240,19274,1,8,0:0:0:0:
280,256,19472,6,0,L|392:240,1,100
472,168,19867,2,0,B|440:104|384:88|464:32|320:24,1,200
232,56,20459,2,0,L|120:80,1,100
168,312,21051,2,0,P|224:312|224:264,1,100
320,192,21446,2,0,B|304:120|248:104|208:96|344:56,1,200
448,96,22038,1,0,0:0:0:0:
400,208,22235,1,0,0:0:0:0:
288,248,22432,2,0,L|184:200,1,100
184,112,23024,2,0,B|288:88|296:40|376:80,1,200
208,256,23814,2,0,B|288:256|312:216|376:272|368:344,1,200
232,128,24998,5,0,0:0:0:0:
168,232,25393,2,0,B|232:208|248:248|312:208|320:320,1,200
360,112,26182,2,0,B|304:88|240:88|296:192|176:136,1,200
120,248,26774,1,0,0:0:0:0:
240,272,26972,1,0,0:0:0:0:
336,208,27169,2,0,B|304:136|360:112|320:48|240:120,1,200
136,176,27761,2,0,B|200:192|208:144|288:216|240:320,1,200
336,136,28748,5,0,0:0:0:0:
224,104,28946,1,0,0:0:0:0:
224,224,29143,1,0,0:0:0:0:
120,160,29340,1,0,0:0:0:0:
144,40,29538,2,0,B|208:56|216:96|344:72|352:72,1,200
432,152,30130,1,0,0:0:0:0:
384,264,30327,2,0,B|312:184|272:224|192:264,1,200
120,160,30919,6,0,B|184:136|200:176|256:112|320:152,1,200
288,32,31511,2,0,B|384:64|376:120|480:128,1,200
360,192,32103,2,0,B|312:160|288:208|264:88|176:184,1,200
88,96,32696,2,0,B|72:192|88:272|0:280,1,200
144,272,33288,2,0,B|192:224|232:296|336:200,1,200
224,144,33880,2,0,B|176:80|136:136|104:48|232:24,1,200
320,96,34472,2,0,B|376:120|360:168|456:144|496:64,1,200
280,200,35261,6,0,P|208:224|192:184,1,100
96,152,35656,1,0,0:0:0:0:
200,96,35853,1,0,0:0:0:0:
304,256,36051,2,0,B|216:232|224:208|152:264|96:192,1,200
216,152,36643,1,0,0:0:0:0:
160,48,36840,1,0,0:0:0:0:
56,104,37038,1,0,0:0:0:0:
200,96,37235,2,0,B|224:152|280:144|240:240|328:264,1,200
200,304,37827,1,0,0:0:0:0:
128,208,38024,1,0,0:0:0:0:
248,192,38222,6,0,B|312:152|344:224|432:128,1,200
464,248,38814,1,0,0:0:0:0:
360,304,39011,1,0,0:0:0:0:
336,184,39209,1,0,0:0:0:0:
144,80,39603,2,0,L|72:176,1,100
8,256,39998,2,0,B|80:256|112:208|144:304|232:272,1,200
200,176,41577,5,0,0:0:0:0:
320,192,41774,1,0,0:0:0:0:
320,312,41972,2,0,P|392:264|384:224,1,100
280,224,42367,2,0,B|264:144|224:112|304:56|192:24,1,200
416,168,43156,2,0,L|288:192,1,100
248,88,43551,2,0,B|208:112|144:88|168:200|88:192,1,200
16,232,44143,1,0,0:0:0:0:
128,272,44340,2,0,P|192:240|232:272,1,100
312,176,44735,2,0,B|320:104|296:96|416:48|456:152,1,200
152,128,45919,6,0,L|264:128,1,100
368,112,46314,1,0,0:0:0:0:
48,272,47103,2,0,P|120:248|144:272,1,100
256,248,47498,2,0,L|272:128,1,100
168,80,47893,1,0,0:0:0:0:
288,96,48090,2,0,B|360:96|360:128|448:80|464:184,1,200
400,272,48682,1,0,0:0:0:0:
304,200,48880,2,0,L|200:168,1,100
88,192,49274,1,0,0:0:0:0:
128,304,49472,2,0,B|176:256|208:280|240:192|224:112,1,200
272,144,50656,5,0,0:0:0:0:
272,24,50853,1,0,0:0:0:0:
152,40,51051,2,0,L|72:104,1,100
144,200,51446,1,0,0:0:0:0:
256,240,51643,2,0,L|368:224,1,100
448,152,52038,1,0,0:0:0:0:
328,128,52235,2,0,L|208:136,1,100
104,136,52630,2,0,B|48:88|24:152|16:240|96:280,2,200
296,232,53814,1,0,0:0:0:0:
328,120,54011,1,0,0:0:0:0:
448,120,54209,1,0,0:0:0:0:
368,32,54406,2,0,B|320:48|272:72|216:32|200:152,1,200
88,152,54998,2,0,B|64:224|128:240|72:312|168:344,1,200
168,264,55788,6,0,L|280:264,1,100
296,176,56577,2,0,L|176:176,1,100
144,80,57367,2,0,L|264:80,1,100
208,176,58156,1,0,0:0:0:0:
312,152,58353,1,0,0:0:0:0:
432,160,58551,1,0,0:0:0:0:
368,320,58946,2,0,P|352:296|312:296,1,50
248,256,59340,1,0,0:0:0:0:
136,264,59538,2,0,P|112:232|128:208,1,50
40,144,59932,1,0,0:0:0:0:
88,112,60130,2,0,L|160:104,1,50,0|0,0:0|0:0,0:0:0:0:
400,152,60524,5,0,0:0:0:0:
160,192,60919,1,0,0:0:0:0:
288,296,61117,1,0,0:0:0:0:
392,168,61314,1,0,0:0:0:0:
240,64,61511,2,0,B|160:72|144:104|152:24|96:32|96:136,1,200
16,216,62103,1,0,0:0:0:0:
120,272,62301,1,0,0:0:0:0:
224,216,62498,1,0,0:0:0:0:
312,136,62696,2,0,L|416:120,1,100
320,48,63090,1,0,0:0:0:0:
224,120,63288,6,0,B|184:72|136:96|128:16|48:112,1,200
96,216,63880,1,0,0:0:0:0:
96,344,64077,2,0,B|144:304|176:320|232:272|144:216|224:192,1,200
296,280,64669,1,0,0:0:0:0:
336,168,64867,2,0,L|296:64,1,100
192,128,65261,2,0,B|120:80|112:88|176:16|272:40,1,200
368,48,65853,1,0,0:0:0:0:
456,128,66051,2,0,B|464:200|416:224|456:272|336:264,1,200
120,224,66840,2,0,B|160:184|120:152|224:144|248:192|312:128,1,200
512,224,67630,6,0,P|488:168|424:144,1,100
360,80,68024,1,0,0:0:0:0:
120,80,68419,2,0,B|80:152|120:176|32:232|24:296,1,200
280,264,69209,2,0,B|288:184|256:152|336:128|280:56,1,200
56,72,69998,2,0,B|88:128|56:176|104:256|184:184,1,200
208,312,70590,5,0,0:0:0:0:
400,184,70788,1,0,0:0:0:0:
280,192,70985,2,0,B|280:112|232:104|184:200|144:64,1,200
32,72,71577,2,0,P|32:128|80:168,1,100
64,280,71972,2,0,P|128:256|144:200,1,100
240,168,72367,2,0,L|336:104,1,100
400,208,72761,6,0,B|376:272|312:280|384:352|232:352,1,200
176,272,73353,2,0,B|152:224|88:232|176:136|56:96,1,200
200,128,73946,1,0,0:0:0:0:
280,216,74143,2,0,B|344:144|328:104|456:160,1,200
16,112,74735,1,0,0:0:0:0:
40,232,74932,1,0,0:0:0:0:
160,160,75130,1,0,0:0:0:0:
160,280,75327,2,0,L|272:280,1,100
232,160,75722,1,0,0:0:0:0:
128,96,75919,1,0,0:0:0:0:
344,200,76314,2,0,B|296:144|264:160|264:64|176:144,1,200
168,256,76906,1,0,0:0:0:0:
288,264,77103,6,0,B|264:200|304:152|232:96|248:128|184:176,1,200
440,136,77893,2,0,B|360:104|344:128|304:64|272:184,1,200
160,184,78485,1,0,0:0:0:0:
48,232,78682,2,0,B|40:152|72:136|48:56|168:96,1,200
256,80,79274,1,0,0:0:0:0:
296,192,79472,2,0,B|352:248|400:192|472:296,1,200
360,344,80064,1,0,0:0:0:0:
360,296,80261,1,0,0:0:0:0:
360,256,80459,2,0,B|360:192|312:184|384:120|232:160,1,200
128,216,81051,5,0,0:0:0:0:
128,176,81248,1,0,0:0:0:0:
128,128,81446,2,0,B|176:88|240:144|288:64|272:200,1,200
344,272,82038,1,0,0:0:0:0:
448,208,82235,2,0,P|416:160|360:184,1,100
256,192,82630,12,0,84603,0:0:0:0:
88,144,88946,5,0,0:0:0:0:
88,144,89143,1,0,0:0:0:0:
208,136,89340,2,0,B|200:200|272:200|192:304|112:256,1,200
208,352,89932,2,0,B|264:320|320:344|352:280|320:200,1,200
400,128,90524,2,0,P|352:80|320:104,1,100
332,88,90919,1,0,0:0:0:0:
104,152,91314,1,0,0:0:0:0:
104,152,91511,1,0,0:0:0:0:
216,192,91709,2,0,B|256:128|224:104|304:56|160:48,1,200
175,49,92301,1,0,0:0:0:0:
332,88,92498,6,0,B|352:160|400:128|328:232|240:240,1,200
160,288,93090,2,0,B|136:224|192:208|232:352|312:328,1,200
408,296,93682,2,0,P|392:232|432:184,1,100
344,104,94077,1,0,0:0:0:0:
240,48,94274,1,0,0:0:0:0:
120,56,94472,2,0,B|64:96|88:184|16:256,1,200
264,304,95261,2,0,P|256:224|208:200,1,100
368,208,95656,2,0,P|312:160|264:168,1,100
168,152,96051,1,0,0:0:0:0:
240,32,96248,2,0,B|304:72|288:144|416:64,1,200
480,168,96840,1,0,0:0:0:0:
384,248,97038,6,0,B|320:176|280:192|384:88,1,200
256,80,97630,2,0,B|160:80|152:40|56:112,1,200
24,216,98222,1,0,0:0:0:0:
104,128,98419,1,0,0:0:0:0:
112,240,98617,2,0,B|192:192|200:240|280:144|296:288,1,200
384,176,99209,1,0,0:0:0:0:
408,56,99406,1,0,0:0:0:0:
312,120,99603,2,0,B|256:72|224:80|200:8|112:96,1,200
48,160,100196,1,0,0:0:0:0:
168,152,100393,1,0,0:0:0:0:
400,224,100788,2,0,B|432:160|400:136|456:64|344:136|304:80,1,200
248,328,101577,5,0,0:0:0:0:
72,264,101972,1,0,0:0:0:0:
184,216,102169,5,0,0:0:0:0:
272,128,102367,1,0,0:0:0:0:
392,136,102564,2,0,P|392:72|368:72,1,100
256,64,102959,2,0,B|176:64|160:96|112:24|40:144,1,200
56,224,103551,1,0,0:0:0:0:
160,168,103748,1,0,0:0:0:0:
280,176,103946,2,0,P|352:184|360:216,1,100
304,304,104340,1,0,0:0:0:0:
392,224,104538,1,0,0:0:0:0:
424,112,104735,2,0,P|400:64|344:80,1,100
240,64,105130,2,0,P|168:48|136:88,1,100
40,88,105524,1,0,0:0:0:0:
88,200,105722,2,0,P|160:240|184:208,1,100
256,192,106117,12,0,107696,0:0:0:0:
128,280,107893,5,0,0:0:0:0:
432,72,108090,1,0,0:0:0:0:
104,64,108288,1,0,0:0:0:0:
416,320,108485,1,0,0:0:0:0:
240,64,108682,1,0,0:0:0:0:
456,200,108880,1,0,0:0:0:0:
128,184,109077,1,0,0:0:0:0:
432,72,109274,1,0,0:0:0:0:
288,256,109472,6,0,P|336:208|320:168,1,100
280,160,110261,2,0,P|248:112|208:112,1,100
120,192,111051,2,0,P|144:240|192:256,1,100
304,280,111643,2,0,P|320:216|288:168,1,100
296,64,112038,1,0,0:0:0:0:
176,88,112235,1,0,0:0:0:0:
64,128,112432,1,0,0:0:0:0:
144,224,112630,2,0,B|240:184|256:144|328:216,1,200
432,152,113222,2,0,P|416:88|376:88,1,100
288,136,113617,1,0,0:0:0:0:
176,88,113814,2,0,P|104:48|64:72,1,100
80,168,114209,2,0,B|152:192|208:176|192:256|312:208,1,200
392,232,114801,5,0,0:0:0:0:
336,128,114998,1,0,0:0:0:0:
232,72,115196,1,0,0:0:0:0:
112,72,115393,1,0,0:0:0:0:
24,152,115590,1,0,0:0:0:0:
64,264,115788,2,0,P|136:240|144:280,1,100
256,272,116182,2,0,P|280:208|256:176,1,100
144,168,116577,2,0,B|192:120|216:40|304:112,1,200
416,160,117169,1,0,0:0:0:0:
296,184,117367,6,0,B|280:120|224:96|312:32|160:56,1,200
64,80,117959,2,0,P|24:144|32:192,1,100
80,272,118353,1,0,0:0:0:0:
200,296,118551,2,0,P|200:232|152:200,1,100
296,184,118946,2,0,B|336:136|288:104|360:56|216:56,1,200
48,112,119735,2,0,B|104:88|112:136|152:56|192:136|104:240,1,200
216,232,120524,2,0,B|256:184|208:152|280:104|136:104,1,200
320,120,121117,1,0,0:0:0:0:
136,192,121314,1,0,0:0:0:0:
168,32,121511,1,0,0:0:0:0:
232,136,121709,6,0,P|280:192|240:240,1,100
368,288,122103,2,0,B|400:224|384:184|432:144|312:152,1,200
112,280,122893,2,0,B|152:232|104:200|176:152|32:152,1,200
280,176,123682,2,0,B|320:128|272:96|344:48|200:48,1,200
160,160,124274,1,0,0:0:0:0:
400,88,124472,1,0,0:0:0:0:
328,320,124669,1,0,0:0:0:0:
400,224,124867,2,0,P|344:168|296:192,1,100
232,96,125261,6,0,P|176:64|144:104,1,100
40,120,125656,2,0,P|40:176|96:176,1,100
160,272,126051,2,0,P|216:232|192:192,1,100
320,168,126446,2,0,P|336:104|288:80,1,100
200,80,126840,2,0,B|160:152|208:184|120:248|72:200,1,200
256,256,127432,1,0,0:0:0:0:
80,96,127630,1,0,0:0:0:0:
304,32,127827,1,0,0:0:0:0:
328,152,128024,2,0,P|272:144|240:184,1,100
128,192,128419,6,0,P|64:176|40:216,1,100
104,296,128814,2,0,P|192:272|200:240,1,100
256,168,129209,2,0,P|232:104|192:112,1,100
96,88,129603,1,0,0:0:0:0:
32,192,129801,1,0,0:0:0:0:
144,232,129998,2,0,B|208:192|248:248|288:104,1,200
400,136,130590,2,0,P|376:88|320:104,1,100
312,208,130985,2,0,P|264:160|232:208,1,100
128,160,131380,1,0,0:0:0:0:
296,184,131577,6,0,B|336:136|288:104|360:56|216:56,1,200
136,280,132367,2,0,B|176:232|128:200|200:152|56:152,1,200
280,256,133156,2,0,B|320:208|272:176|344:128|200:128,1,200
40,192,133748,1,0,0:0:0:0:
104,88,133946,1,0,0:0:0:0:
200,160,134143,1,0,0:0:0:0:
288,72,134340,1,0,0:0:0:0:
360,208,134538,1,0,0:0:0:0:
304,312,134735,2,0,B|248:280|184:312|216:216|128:200,1,200
56,120,135327,1,0,0:0:0:0:
168,88,135524,2,0,P|224:72|232:112,1,100
256,192,135919,12,0,139077,0:0:0:0:
392,200,149735,6,0,P|368:128|336:144,1,100
248,104,150130,2,0,P|192:80|160:112,1,100
64,168,150524,2,0,P|112:224|160:232,1,100
256,248,150919,2,0,P|288:184|264:152,1,100
168,120,151314,1,0,0:0:0:0:
280,160,151511,2,0,B|448:144|424:160|448:96|408:80,1,200
304,56,152103,2,0,B|248:48|208:88|152:32|104:104,1,200
16,168,152696,1,0,0:0:0:0:
72,272,152893,2,0,B|176:224|168:184|224:312,1,200
440,208,153682,2,0,B|392:160|336:152|360:72|256:88,1,200
72,192,154472,6,0,B|160:144|216:192|288:128,1,200
472,272,155261,2,0,B|400:248|336:304|264:224,1,200
160,216,155853,1,0,0:0:0:0:
256,144,156051,1,0,0:0:0:0:
136,128,156248,1,0,0:0:0:0:
248,80,156446,1,0,0:0:0:0:
232,200,156643,1,0,0:0:0:0:
328,128,156840,2,0,B|400:152|392:192|464:176|448:288,1,200
216,328,157630,2,0,B|328:304|360:264|416:352,1,200
216,184,158419,2,0,B|320:184|336:152|408:208,1,200
304,272,159011,5,0,0:0:0:0:
376,176,159209,1,0,0:0:0:0:
296,88,159406,1,0,0:0:0:0:
176,72,159603,1,0,0:0:0:0:
72,136,159801,1,0,0:0:0:0:
112,248,159998,1,0,0:0:0:0:
208,320,160196,1,0,0:0:0:0:
320,288,160393,6,0,P|336:232|312:176,4,100
224,216,161380,1,0,0:0:0:0:
72,112,161577,1,0,0:0:0:0:
72,160,161774,1,0,0:0:0:0:
72,208,161972,1,0,0:0:0:0:
72,248,162169,1,0,0:0:0:0:
72,248,162367,2,0,P|80:328|104:344,1,100
208,304,162761,2,0,B|256:256|256:200|344:232|352:112,1,200
224,136,163353,2,0,P|160:112|120:120,1,100
24,168,163748,1,0,0:0:0:0:
136,200,163946,5,0,0:0:0:0:
248,232,164143,2,0,B|312:200|320:144|376:248|408:128,1,200
320,56,164735,2,0,P|256:48|224:80,1,100
112,80,165130,2,0,P|64:104|72:144,1,100
176,200,165524,2,0,B|224:168|240:224|352:152|336:296,1,200
216,48,166314,5,0,0:0:0:0:
248,160,166511,1,0,0:0:0:0:
352,96,166709,1,0,0:0:0:0:
344,216,166906,1,0,0:0:0:0:
224,240,167103,2,0,B|160:232|144:184|104:280|64:120,1,200
70,142,167696,1,0,0:0:0:0:
56,264,167893,6,0,B|120:272|160:256|208:312|256:264,1,200
368,256,168485,1,0,0:0:0:0:
336,136,168682,1,0,0:0:0:0:
232,200,168880,1,0,0:0:0:0:
232,80,169077,2,0,P|184:40|160:72,1,100
112,168,169472,2,0,B|152:208|136:256|232:272|280:280,1,200
312,40,170261,2,0,B|352:80|336:128|432:144|480:152,1,200
232,208,171051,2,0,B|272:248|256:296|352:312|400:320,1,200
376,200,171643,1,0,0:0:0:0:
296,112,171840,1,0,0:0:0:0:
184,160,172038,1,0,0:0:0:0:
232,272,172235,5,0,0:0:0:0:
224,64,172432,1,0,0:0:0:0:
392,112,172630,1,0,0:0:0:0:
128,216,172827,1,0,0:0:0:0:
384,248,173024,1,0,0:0:0:0:
320,56,173222,1,0,0:0:0:0:
184,160,173419,1,0,0:0:0:0:
384,176,173617,1,0,0:0:0:0:
184,256,173814,1,0,0:0:0:0:
224,64,174011,1,0,0:0:0:0:
256,192,174209,12,0,177367,0:0:0:0:
96,288,178946,6,0,P|152:296|168:256,1,100
280,224,179735,2,0,P|336:192|336:152,1,100
248,80,180524,2,0,P|184:64|176:80,1,100
408,144,181314,1,0,0:0:0:0:
400,176,181511,1,0,0:0:0:0:
384,208,181709,2,0,P|336:224|264:216,1,100
160,200,182103,1,0,0:0:0:0:
168,160,182301,1,0,0:0:0:0:
176,120,182498,2,0,B|208:80|272:96|272:200|360:80,1,200
464,120,183090,1,0,0:0:0:0:
416,232,183288,6,0,B|360:224|352:176|304:288|208:264,1,200
168,160,183880,1,0,0:0:0:0:
232,56,184077,2,0,B|160:72|128:40|72:152,1,200
72,150,184669,1,0,0:0:0:0:
144,248,184867,1,0,0:0:0:0:
264,240,185064,1,0,0:0:0:0:
384,224,185261,2,0,P|368:160|336:152,1,100
232,104,185656,2,0,B|176:80|128:112|96:40|80:200,1,200
200,192,186248,1,0,0:0:0:0:
320,168,186446,1,0,0:0:0:0:
360,56,186643,1,0,0:0:0:0:
432,152,186840,6,0,B|392:240|344:232|280:320,1,200
192,232,187432,1,0,0:0:0:0:
248,120,187630,1,0,0:0:0:0:
136,72,187827,1,0,0:0:0:0:
48,192,188024,1,0,0:0:0:0:
320,200,188222,1,0,0:0:0:0:
328,80,188419,2,0,B|264:56|232:88|192:32|168:168,1,200
384,264,189209,2,0,B|320:240|288:272|248:216|224:352,1,200
160,96,189998,2,0,B|96:72|64:104|24:48|0:184,1,200
104,232,190590,5,0,0:0:0:0:
256,192,190788,1,0,0:0:0:0:
120,48,190985,1,0,0:0:0:0:
248,352,191182,1,0,0:0:0:0:
224,88,191380,1,0,0:0:0:0:
344,104,191577,2,0,B|376:168|424:176|344:232|408:264|448:272|408:312,1,200
232,128,192367,2,0,B|264:192|312:200|232:256|296:288|336:296|296:336,1,200
104,184,193156,2,0,B|136:248|184:256|104:312|168:344|208:352|168:392,1,200
272,280,193748,5,0,0:0:0:0:
456,136,193946,1,0,0:0:0:0:
304,24,194143,1,0,0:0:0:0:
376,280,194340,1,0,0:0:0:0:
256,136,194538,1,0,0:0:0:0:
136,136,194735,2,0,P|72:160|56:224,1,100
120,288,195130,2,0,P|168:256|176:200,1,100
296,192,195524,2,0,P|328:144|280:112,1,100
200,56,195919,2,0,P|120:56|112:88,1,100
48,160,196314,2,0,B|96:208|152:192|128:288|208:144,1,200
248,48,196906,5,0,0:0:0:0:
104,240,197103,1,0,0:0:0:0:
32,72,197301,1,0,0:0:0:0:
376,232,197498,1,0,0:0:0:0:
192,328,197696,1,0,0:0:0:0:
176,96,197893,6,0,P|128:56|96:72,1,100
16,152,198288,2,0,P|8:216|32:264,1,100
112,320,198682,2,0,P|168:288|200:240,1,100
296,200,199077,2,0,P|296:128|272:120,1,100
168,144,199472,2,0,B|96:104|64:112|64:40|24:200,1,200
128,248,200064,5,0,0:0:0:0:
160,48,200261,1,0,0:0:0:0:
8,176,200459,1,0,0:0:0:0:
256,184,200656,1,0,0:0:0:0:
256,336,200853,1,0,0:0:0:0:
344,256,201051,6,0,B|360:192|328:144|392:80|320:56,1,200
176,248,201840,2,0,B|192:184|160:136|224:72|152:48,1,200
40,256,202630,2,0,B|56:192|24:144|88:80|16:56,1,200
144,112,203222,1,0,0:0:0:0:
240,272,203419,1,0,0:0:0:0:
408,200,203617,1,0,0:0:0:0:
272,40,203814,1,0,0:0:0:0:
112,184,204011,1,0,0:0:0:0:
320,288,204209,6,0,B|248:296|256:256|168:320|120:208,1,200
80,128,204801,1,0,0:0:0:0:
200,96,204998,2,0,P|256:80|272:128,1,100
176,184,205393,2,0,L|288:184,2,100
