osu file format v13

[General]
AudioFilename: Grilletto.mp3
AudioLeadIn: 0
PreviewTime: 58126
Countdown: 0
SampleSet: Soft
StackLeniency: 0.7
Mode: 0
LetterboxInBreaks: 0
WidescreenStoryboard: 0

[Editor]
DistanceSpacing: 0.7
BeatDivisor: 4
GridSize: 4
TimelineZoom: 1.9

[Metadata]
Title:grilletto (TV Size Ver.)
TitleUnicode:grilletto (TV Size Ver.)
Artist:GARNiDELiA
ArtistUnicode:GARNiDELiA
Creator:HabiHolic
Version:Insane
Source:魔法科高校の劣等生
Tags:mahouka koukou no rettousei the irregular at magic high school MADHOUSE Happy623 IamKwaN [_Zzz_] yf_bmp Prayer KantoKun MARiA toku
BeatmapID:475437
BeatmapSetID:197277

[Difficulty]
HPDrainRate:7
CircleSize:4
OverallDifficulty:7
ApproachRate:9
SliderMultiplier:1.8
SliderTickRate:2

[Events]
//Background and Video events
Video,0,"Mahouka OP.avi"
0,0,"anime_wallpaper_The_Irregular_at_Magic_High_School_19939302.jpg",0,0
//Break Periods
//Storyboard Layer 0 (Background)
//Storyboard Layer 1 (Fail)
//Storyboard Layer 2 (Pass)
//Storyboard Layer 3 (Foreground)
//Storyboard Sound Samples
//Background Colour Transformations
3,100,163,162,255

[TimingPoints]
11,314.13612565445,4,2,0,60,1,0
1267,-133.333333333333,4,2,0,60,0,0
6293,-133.333333333333,4,2,1,60,0,0
11319,-200,4,2,0,60,0,0
15874,-200,4,2,2,60,0,0
16345,-100,4,2,1,60,0,0
26084,-200,4,2,1,60,0,0
26398,-133.333333333333,4,2,1,60,0,0
36136,-100,4,2,1,30,0,0
36450,-100,4,2,1,60,0,0
46503,-133.333333333333,4,2,1,60,0,0
58754,-133.333333333333,4,2,2,60,0,0
59068,-83.3333333333333,4,2,1,60,0,1
78859,-83.3333333333333,4,2,2,60,0,1
79173,-100,4,2,1,60,0,0

[Colours]
Combo1 : 169,160,250
Combo2 : 96,203,255
Combo3 : 18,124,255
Combo4 : 40,225,123

[HitObjects]
167,179,1267,6,0,P|43:275|199:288,1,405.000015449524,2|2,0:0|0:0,0:0:0:0:
248,216,2367,2,0,L|392:236,1,135.000005149841,0|0,0:0|0:0,0:0:0:0:
500,144,2838,2,0,L|356:124,1,135.000005149841,2|0,0:0|0:0,0:0:0:0:
244,40,3466,1,2,0:0:0:0:
244,40,3780,6,0,P|228:104|256:172,1,135.000005149841,0|2,0:0|0:0,0:0:0:0:
328,228,4251,2,0,L|480:224,2,135.000005149841,0|0|2,0:0|0:0|0:0,0:0:0:0:
208,336,5194,1,0,0:0:0:0:
208,336,5351,2,0,P|192:272|204:204,1,135.000005149841,2|0,0:0|0:0,0:0:0:0:
276,132,5822,1,0,0:0:0:0:
312,224,5979,1,2,0:0:0:0:
176,104,6136,1,0,0:0:0:0:
341,57,6293,6,0,L|409:65,1,67.5000025749207,4|0,3:0|0:0,0:0:0:0:
440,160,6607,2,0,L|372:152,1,67.5000025749207,2|0,0:0|0:0,0:0:0:0:
216,204,6921,1,2,0:0:0:0:
216,204,7079,1,0,0:0:0:0:
248,32,7236,1,2,0:0:0:0:
248,32,7393,1,0,0:0:0:0:
156,96,7550,6,0,L|80:104,1,67.5000025749207,2|0,0:0|0:0,0:0:0:0:
24,208,7864,2,0,L|100:200,1,67.5000025749207,2|0,0:0|0:0,0:0:0:0:
264,112,8178,1,2,0:0:0:0:
160,288,8335,1,0,0:0:0:0:
264,112,8492,1,2,0:0:0:0:
364,148,8649,2,0,P|368:112|360:76,1,67.5000025749208,0|2,0:0|0:0,0:0:0:0:
268,208,8963,2,0,L|280:280,1,67.5000025749207,8|2,0:0|0:0,0:0:0:0:
348,348,9278,1,8,0:0:0:0:
440,280,9435,5,8,3:0:0:0:
244,200,9592,1,4,3:0:0:0:
484,184,9749,1,4,3:0:0:0:
216,192,9906,1,8,3:0:0:0:
224,172,11319,6,0,L|160:176,1,45
96,144,11634,2,0,L|51:146,1,45,2|0,0:0|0:0,0:0:0:0:
8,224,11948,1,0,0:0:0:0:
8,224,12105,2,0,P|24:260|20:312,1,90,0|2,0:0|0:0,0:0:0:0:
88,372,12576,2,0,L|184:368,1,90,0|2,0:0|0:0,0:0:0:0:
254,312,13047,2,0,L|344:316,2,90,2|2|2,0:0|0:0|0:0,0:0:0:0:
136,176,13990,6,0,L|132:128,1,45,0|2,0:0|0:0,0:0:0:0:
188,60,14304,1,0,0:0:0:0:
272,96,14461,1,0,0:0:0:0:
272,96,14618,2,0,P|320:104|368:88,1,90,0|2,0:0|0:0,0:0:0:0:
448,40,15089,2,0,L|460:136,1,90,0|2,0:0|0:0,0:0:0:0:
372,188,15560,2,0,L|383:277,1,90,2|4,0:0|3:0,0:0:0:0:
296,360,16031,1,8,0:0:0:0:
284,352,16346,6,0,P|240:356|200:336,1,90,4|0,0:0|0:0,0:0:0:0:
220,168,16660,2,0,P|244:204|252:276,1,90,8|0,0:0|0:0,0:0:0:0:
87,312,16974,2,0,P|105:271|140:243,1,90,2|2,0:0|0:0,0:0:0:0:
344,344,17288,1,8,0:0:0:0:
392,236,17445,1,0,0:0:0:0:
280,176,17602,2,0,L|284:76,1,90,2|2,0:0|0:0,0:0:0:0:
180,272,17916,2,0,L|176:172,1,90,8|0,0:0|0:0,0:0:0:0:
320,296,18230,6,0,P|400:327|472:279,1,180,2|8,0:0|0:0,0:0:0:0:
264,188,18702,2,0,L|284:376,1,180,2|0,0:0|0:0,0:0:0:0:
340,220,19173,2,0,P|344:176|320:128,1,90,8|0,0:0|0:0,0:0:0:0:
248,96,19487,1,2,0:0:0:0:
320,296,19644,1,2,0:0:0:0:
248,96,19801,1,8,0:0:0:0:
416,188,19958,1,0,0:0:0:0:
260,240,20115,6,0,L|164:252,1,90,2|2,0:0|0:0,0:0:0:0:
372,360,20429,2,8,P|396:320|400:272,1,90,8|0,0:0|0:0,0:0:0:0:
236,320,20743,2,0,P|156:304|84:368,1,180,2|8,0:0|0:0,0:0:0:0:
24,240,21215,1,2,0:0:0:0:
24,240,21293,1,8,0:0:0:0:
24,240,21372,6,0,P|64:220|116:216,1,90,2|2,0:0|0:0,0:0:0:0:
180,112,21686,2,0,P|136:108|76:108,1,90,8|0,0:0|0:0,0:0:0:0:
288,156,22000,2,0,P|292:104|284:52,1,90,2|2,0:0|0:0,0:0:0:0:
196,216,22314,2,0,L|208:312,1,90,8|0,0:0|0:0,0:0:0:0:
296,372,22628,2,0,P|340:308|444:312,1,180,2|8,0:0|0:0,0:0:0:0:
435,306,23100,1,0,0:0:0:0:
488,208,23257,2,0,P|488:168|496:108,1,90,2|2,0:0|0:0,0:0:0:0:
368,32,23571,2,0,L|376:144,1,90,8|0,0:0|0:0,0:0:0:0:
312,224,23885,5,2,0:0:0:0:
200,284,24042,1,2,0:0:0:0:
204,164,24199,2,0,P|200:120|184:68,1,90,8|0,0:0|0:0,0:0:0:0:
184,272,24513,2,0,L|200:368,2,90,2|2|8,0:0|0:0|0:0,0:0:0:0:
299,207,24984,6,0,P|365:213|416:171,1,135,8|0,0:0|0:0,0:0:0:0:
400,124,25298,2,0,P|334:118|283:160,1,135,8|0,0:0|0:0,0:0:0:0:
252,204,25613,1,8,0:0:0:0:
112,116,25927,1,0,0:0:0:0:
112,116,26084,2,0,P|116:156|116:192,1,67.5,2|0,0:0|0:0,0:0:0:0:
92,248,26398,6,0,L|100:316,1,67.5000025749208,2|0,0:0|0:0,0:0:0:0:
188,372,26712,2,0,L|196:304,1,67.5000025749208,2|0,0:0|0:0,0:0:0:0:
308,304,27026,2,0,L|316:372,1,67.5000025749208,2|0,0:0|0:0,0:0:0:0:
404,316,27340,2,0,L|412:248,1,67.5000025749208,2|0,0:0|0:0,0:0:0:0:
480,176,27654,1,2,0:0:0:0:
480,176,27812,1,0,0:0:0:0:
392,84,27969,1,2,0:0:0:0:
392,84,28126,1,0,0:0:0:0:
280,152,28283,6,0,P|248:152|212:144,1,67.5000025749208,2|0,0:0|0:0,0:0:0:0:
140,68,28597,1,2,0:0:0:0:
48,128,28754,1,0,0:0:0:0:
48,128,28832,1,0,0:0:0:0:
48,128,28911,2,0,L|52:200,1,67.5000025749208,2|0,0:0|0:0,0:0:0:0:
144,324,29225,2,0,L|140:252,1,67.5000025749208,2|0,0:0|0:0,0:0:0:0:
220,192,29539,2,0,P|256:180|288:176,1,67.5000025749208,2|0,0:0|0:0,0:0:0:0:
440,212,29853,2,0,P|404:224|372:228,1,67.5000025749208,2|0,0:0|0:0,0:0:0:0:
292,272,30168,6,0,L|304:352,1,67.5000025749208,2|0,0:0|0:0,0:0:0:0:
372,136,30482,2,0,L|360:56,1,67.5000025749208,2|0,0:0|0:0,0:0:0:0:
272,28,30796,1,2,0:0:0:0:
272,28,30953,1,0,0:0:0:0:
180,96,31110,1,2,0:0:0:0:
180,96,31267,1,0,0:0:0:0:
76,60,31424,6,0,L|8:56,1,67.5000025749208,2|0,0:0|0:0,0:0:0:0:
168,192,31738,2,0,L|236:188,1,67.5000025749208,2|0,0:0|0:0,0:0:0:0:
328,124,32052,1,2,0:0:0:0:
328,124,32209,1,0,0:0:0:0:
444,184,32367,1,2,0:0:0:0:
444,184,32524,1,0,0:0:0:0:
424,88,32681,6,0,L|496:80,1,67.5000025749208,2|0,0:0|0:0,0:0:0:0:
344,32,32995,2,0,P|304:32|272:40,1,67.5000025749208,2|0,0:0|0:0,0:0:0:0:
196,100,33309,2,0,P|180:64|176:32,1,67.5000025749208,2|0,0:0|0:0,0:0:0:0:
280,120,33623,2,0,L|272:192,1,67.5000025749208,2|0,0:0|0:0,0:0:0:0:
200,244,33937,6,0,P|168:252|120:252,1,67.5000025749208,2|0,0:0|0:0,0:0:0:0:
32,356,34251,2,0,P|64:348|112:348,1,67.5000025749208,2|0,0:0|0:0,0:0:0:0:
200,364,34565,1,2,0:0:0:0:
296,312,34723,1,0,0:0:0:0:
300,208,34880,1,2,0:0:0:0:
296,312,35037,6,0,P|408:336|456:188,1,270.000010299683,2|0,0:0|0:0,0:0:0:0:
392,148,35822,1,0,0:0:0:0:
452,72,35979,1,0,0:0:0:0:
300,112,36136,1,8,0:0:0:0:
273,117,36215,1,8,0:0:0:0:
246,120,36293,1,8,0:0:0:0:
219,121,36372,1,8,0:0:0:0:
192,120,36450,2,0,P|152:120|104:108,1,90,4|2,0:0|0:0,0:0:0:0:
32,40,36764,5,8,0:0:0:0:
144,204,36921,1,2,0:0:0:0:
224,32,37079,2,0,L|316:28,1,90,2|2,0:0|0:0,0:0:0:0:
384,96,37393,1,8,0:0:0:0:
492,176,37550,2,0,P|408:203|368:281,1,180,2|2,0:0|0:0,0:0:0:0:
276,344,38021,2,0,L|264:252,1,90,8|2,0:0|0:0,0:0:0:0:
216,176,38335,2,0,L|220:84,1,90,2|2,0:0|0:0,0:0:0:0:
304,32,38649,1,8,0:0:0:0:
120,112,38806,1,2,0:0:0:0:
120,112,38885,1,8,0:0:0:0:
120,112,38963,1,2,0:0:0:0:
296,136,39120,6,0,P|340:132|388:120,1,90,2|8,0:0|0:0,0:0:0:0:
444,40,39435,1,2,0:0:0:0:
488,220,39592,2,0,P|444:224|396:236,1,90,2|2,0:0|0:0,0:0:0:0:
336,304,39906,1,8,0:0:0:0:
120,264,40063,2,0,P|203:284|262:222,1,180,2|2,0:0|0:0,0:0:0:0:
204,40,40534,2,0,P|201:84|205:129,1,90,8|0,0:0|0:0,0:0:0:0:
380,224,40848,1,2,0:0:0:0:
404,368,41005,1,2,0:0:0:0:
460,172,41162,1,8,0:0:0:0:
460,172,41476,6,0,P|382:133|302:168,1,180,2|8,0:0|0:0,0:0:0:0:
215,215,41948,2,0,P|204:172|207:127,1,90,2|2,0:0|0:0,0:0:0:0:
304,256,42262,2,0,L|296:356,1,90,2|8,0:0|0:0,0:0:0:0:
58,338,42576,2,0,P|142:360|212:308,1,180,2|2,0:0|0:0,0:0:0:0:
292,160,43047,1,8,0:0:0:0:
388,312,43204,5,2,0:0:0:0:
401,310,43283,1,8,0:0:0:0:
414,309,43361,1,2,0:0:0:0:
496,192,43518,2,0,P|460:196|400:200,1,90,2|8,0:0|0:0,0:0:0:0:
328,40,43832,1,2,0:0:0:0:
292,160,43990,6,0,P|228:196|136:144,1,180,2|8,0:0|0:0,0:0:0:0:
132,56,44461,1,2,0:0:0:0:
48,188,44618,2,0,P|52:232|48:280,1,90,2|2,0:0|0:0,0:0:0:0:
0,348,44932,1,8,0:0:0:0:
152,228,45089,2,0,P|148:184|152:136,1,90,2|2,0:0|0:0,0:0:0:0:
236,76,45403,1,2,0:0:0:0:
140,32,45560,2,0,P|100:36|40:36,1,90,8|2,0:0|0:0,0:0:0:0:
50,36,45796,1,8,0:0:0:0:
50,36,45874,1,2,0:0:0:0:
224,88,46031,2,0,P|264:84|324:84,1,90,4|4,3:0|3:0,0:0:0:0:
384,228,46346,1,4,3:0:0:0:
288,200,46503,6,0,P|224:208|148:208,1,135.000005149842,4|2,0:0|0:0,0:0:0:0:
56,328,46974,2,0,P|120:320|196:320,1,135.000005149842,2|2,0:0|0:0,0:0:0:0:
280,352,47445,1,2,0:0:0:0:
316,224,47602,2,0,L|312:152,1,67.5000025749208,2|2,0:0|0:0,0:0:0:0:
252,80,47916,1,2,0:0:0:0:
404,144,48073,2,0,L|400:72,1,67.5000025749208,2|2,0:0|0:0,0:0:0:0:
324,16,48387,1,8,0:0:0:0:
160,56,48545,2,0,P|96:52|12:52,1,135.000005149842,2|2,0:0|0:0,0:0:0:0:
220,168,49016,6,0,P|288:172|336:128,1,135.000005149842,2|2,0:0|0:0,0:0:0:0:
184,76,49487,2,0,L|112:72,1,67.5000025749208,2|8,0:0|0:0,0:0:0:0:
72,180,49801,1,2,0:0:0:0:
280,84,49958,1,2,0:0:0:0:
72,180,50115,2,0,P|92:248|84:320,1,135.000005149842,2|2,0:0|0:0,0:0:0:0:
183,360,50586,2,0,P|217:353|249:343,1,67.5000025749208,2|2,0:0|0:0,0:0:0:0:
232,184,50901,2,0,P|220:220|220:272,1,67.5000025749208,8|2,0:0|0:0,0:0:0:0:
316,272,51215,1,2,0:0:0:0:
296,88,51372,5,2,0:0:0:0:
296,88,51450,1,8,0:0:0:0:
296,88,51529,1,6,0:0:0:0:
128,136,51686,1,2,0:0:0:0:
148,244,51843,2,0,L|76:240,1,67.5000025749208,2|2,0:0|0:0,0:0:0:0:
20,168,52157,1,2,0:0:0:0:
228,296,52314,2,0,P|240:264|244:224,1,67.5000025749208,2|2,0:0|0:0,0:0:0:0:
208,12,52628,2,0,L|216:156,1,135.000005149842,2|2,0:0|0:0,0:0:0:0:
308,192,53100,1,8,0:0:0:0:
416,112,53257,5,2,0:0:0:0:
416,112,53335,1,8,0:0:0:0:
416,112,53414,1,2,0:0:0:0:
304,88,53571,1,4,3:0:0:0:
416,224,53728,2,0,L|496:216,1,67.5000025749208,4|4,3:0|3:0,0:0:0:0:
280,188,54042,5,8,0:0:0:0:
192,108,54199,2,0,L|132:144,1,67.5000025749208,0|8,0:0|0:0,0:0:0:0:
274,207,54513,5,0,0:0:0:0:
279,88,54670,2,0,L|213:66,1,67.5000025749208,8|0,0:0|0:0,0:0:0:0:
255,216,54984,5,8,0:0:0:0:
336,32,55141,1,8,0:0:0:0:
160,168,55770,5,0,0:0:0:0:
104,256,55927,1,0,0:0:0:0:
104,256,56084,2,0,P|172:264|248:256,1,135.000005149842
348,192,56555,5,8,0:0:0:0:
436,272,56712,2,0,L|496:236,1,67.5000025749208,8|0,0:0|0:0,0:0:0:0:
353,172,57026,5,0,0:0:0:0:
348,291,57183,2,0,L|414:313,1,67.5000025749208,8|0,0:0|0:0,0:0:0:0:
372,163,57497,5,8,0:0:0:0:
292,348,57654,1,8,0:0:0:0:
160,196,58126,1,0,0:0:0:0:
304,40,58440,5,0,0:0:0:0:
364,112,58597,1,0,0:0:0:0:
396,24,58754,1,8,0:0:0:0:
216,180,59068,6,0,L|96:172,1,107.999996704102,4|2,1:0|0:0,0:0:0:0:
44,96,59382,1,8,0:0:0:0:
108,268,59539,1,2,0:0:0:0:
108,268,59618,1,8,0:0:0:0:
108,268,59696,1,2,0:0:0:0:
308,232,59853,2,0,P|316:176|304:120,1,107.999996704102,2|8,0:0|0:0,0:0:0:0:
216,288,60168,6,0,P|309:333|398:281,1,215.999993408203,2|2,0:0|0:0,0:0:0:0:
432,176,60639,1,8,0:0:0:0:
344,136,60796,1,2,0:0:0:0:
342,125,60874,1,8,0:0:0:0:
340,114,60953,1,2,0:0:0:0:
384,28,61110,1,2,0:0:0:0:
236,136,61267,1,8,0:0:0:0:
476,80,61424,1,2,0:0:0:0:
236,136,61581,6,0,P|240:224|144:312,1,215.999993408203,2|8,0:0|0:0,0:0:0:0:
16,216,62052,1,2,0:0:0:0:
16,216,62131,1,8,0:0:0:0:
16,216,62209,2,0,P|68:200|124:196,1,107.999996704102,2|2,0:0|0:0,0:0:0:0:
320,300,62524,1,8,0:0:0:0:
388,228,62681,6,0,B|380:184|380:184|404:144|404:144|372:76|412:16,1,215.999993408203,2|2,0:0|0:0,0:0:0:0:
488,84,63152,1,8,0:0:0:0:
296,132,63309,1,2,0:0:0:0:
296,132,63387,1,8,0:0:0:0:
296,132,63466,1,2,0:0:0:0:
208,48,63623,1,0,0:0:0:0:
220,232,63780,2,0,P|176:232|112:224,1,107.999996704102,8|2,0:0|0:0,0:0:0:0:
44,132,64094,5,2,0:0:0:0:
192,24,64251,2,0,P|176:76|184:128,1,107.999996704102,2|8,0:0|0:0,0:0:0:0:
332,235,64565,2,0,P|433:216|502:294,1,215.999993408203,2|2,0:0|0:0,0:0:0:0:
404,304,65037,1,8,0:0:0:0:
436,120,65194,1,2,0:0:0:0:
436,120,65351,2,0,P|440:64|436:12,2,107.999996704102,2|2|8,0:0|0:0|0:0,0:0:0:0:
248,172,65822,2,0,B|168:164|168:164|136:128|136:128|40:116,1,215.999993408203,2|2,0:0|0:0,0:0:0:0:
68,228,66293,1,8,0:0:0:0:
200,56,66450,5,2,0:0:0:0:
88,264,66607,1,2,0:0:0:0:
336,216,66764,2,0,P|344:168|328:112,1,107.999996704102,2|8,0:0|0:0,0:0:0:0:
252,272,67079,2,0,P|347:312|430:252,1,215.999993408203,2|2,0:0|0:0,0:0:0:0:
444,160,67550,1,8,0:0:0:0:
252,176,67707,2,0,P|200:176|136:192,1,107.999996704102,2|2,0:0|0:0,0:0:0:0:
72,272,68021,1,2,0:0:0:0:
24,96,68178,2,0,P|76:96|140:80,1,107.999996704102,8|0,0:0|0:0,0:0:0:0:
288,68,68492,5,8,0:0:0:0:
288,68,68571,1,2,0:0:0:0:
288,68,68649,1,2,0:0:0:0:
288,68,68728,1,2,0:0:0:0:
288,68,68806,2,0,L|340:96,1,53.9999983520508,8|2,0:0|0:0,0:0:0:0:
288,180,68963,2,0,L|319:230,1,53.9999983520508,2|2,0:0|0:0,0:0:0:0:
215,256,69120,2,0,P|158:342|55:343,1,215.999993408203,4|8,0:0|0:0,0:0:0:0:
124,80,69592,5,2,0:0:0:0:
124,80,69670,1,8,0:0:0:0:
124,80,69749,2,0,L|132:188,1,107.999996704102,2|2,0:0|0:0,0:0:0:0:
48,256,70063,1,8,0:0:0:0:
316,275,70220,2,0,P|420:269|494:344,1,215.999993408203,2|2,0:0|0:0,0:0:0:0:
220,320,70691,2,0,L|208:200,1,107.999996704102,8|2,0:0|0:0,0:0:0:0:
224,188,70927,1,8,0:0:0:0:
240,168,71005,1,2,0:0:0:0:
256,56,71162,5,2,0:0:0:0:
108,172,71319,2,0,L|120:280,1,107.999996704102,8|2,0:0|0:0,0:0:0:0:
312,248,71634,2,0,P|400:272|492:192,1,215.999993408203,2|8,0:0|0:0,0:0:0:0:
416,80,72105,1,2,0:0:0:0:
418,96,72183,1,8,0:0:0:0:
420,112,72262,1,2,0:0:0:0:
256,144,72419,2,0,L|144:152,1,107.999996704102,2|8,0:0|0:0,0:0:0:0:
4,276,72733,6,0,P|104:268|192:352,1,215.999993408203,2|2,0:0|0:0,0:0:0:0:
240,184,73204,2,0,L|224:68,1,107.999996704102,8|2,0:0|0:0,0:0:0:0:
296,272,73518,2,0,L|312:388,1,107.999996704102,2|2,0:0|0:0,0:0:0:0:
500,176,73832,5,8,0:0:0:0:
456,207,73911,1,2,0:0:0:0:
403,209,73990,1,2,0:0:0:0:
358,181,74068,1,2,0:0:0:0:
336,132,74147,2,0,L|340:24,1,107.999996704102,2|2,0:0|0:0,0:0:0:0:
140,144,74461,1,8,0:0:0:0:
40,192,74618,2,0,P|32:136|44:80,1,107.999996704102,2|2,0:0|0:0,0:0:0:0:
136,236,74932,2,0,L|124:356,1,107.999996704102,2|8,0:0|0:0,0:0:0:0:
32,292,75246,1,2,0:0:0:0:
228,308,75403,5,2,0:0:0:0:
312,364,75560,1,2,0:0:0:0:
320,172,75717,1,8,0:0:0:0:
396,324,75874,2,0,P|452:312|496:284,1,107.999996704102,2|2,0:0|0:0,0:0:0:0:
427,92,76189,2,0,P|419:145|428:198,1,107.999996704102,2|8,0:0|0:0,0:0:0:0:
316,272,76503,6,0,L|96:288,1,215.999993408203,2|2,0:0|0:0,0:0:0:0:
32,212,76974,1,8,0:0:0:0:
128,160,77131,2,0,P|136:100|124:48,1,107.999996704102,2|2,0:0|0:0,0:0:0:0:
24,36,77445,1,2,0:0:0:0:
128,160,77602,1,8,0:0:0:0:
212,24,77759,1,8,0:0:0:0:
368,228,78387,5,0,0:0:0:0:
360,352,78545,1,0,0:0:0:0:
476,296,78702,1,0,0:0:0:0:
256,284,78859,1,8,0:0:0:0:
256,284,79173,6,0,L|248:192,1,90,4|2,0:0|0:0,0:0:0:0:
296,20,79487,2,0,L|304:112,1,90,8|2,0:0|0:0,0:0:0:0:
388,264,79801,1,2,0:0:0:0:
456,64,79958,1,2,0:0:0:0:
496,176,80115,2,0,L|400:168,1,90,8|2,0:0|0:0,0:0:0:0:
279,235,80429,2,0,P|194:226|141:293,1,180,2|8,0:0|0:0,0:0:0:0:
228,304,80901,1,0,0:0:0:0:
212,136,81058,2,0,P|216:88|208:40,1,90,2|2,0:0|0:0,0:0:0:0:
124,8,81372,1,8,0:0:0:0:
11,167,81529,6,0,P|76:227|164:223,1,180,2|2,0:0|0:0,0:0:0:0:
300,192,82000,2,0,P|340:164|388:156,1,90,8|0,0:0|0:0,0:0:0:0:
420,332,82314,2,0,P|392:292|384:244,1,90,2|2,0:0|0:0,0:0:0:0:
476,116,82628,2,0,P|480:156|468:204,1,90,8|0,0:0|0:0,0:0:0:0:
288,288,82942,2,0,B|212:280|212:280|176:292|176:292|108:284,1,180,2|8,0:0|0:0,0:0:0:0:
28,336,83414,1,2,0:0:0:0:
164,200,83571,2,0,P|168:156|164:104,1,90,2|2,0:0|0:0,0:0:0:0:
88,48,83885,1,8,0:0:0:0:
256,156,84042,1,2,0:0:0:0:
282,152,84120,1,8,0:0:0:0:
309,149,84199,1,2,0:0:0:0:
392,240,84356,6,0,L|292:260,1,90,2|8,0:0|0:0,0:0:0:0:
236,344,84670,1,2,0:0:0:0:
488,288,84827,2,0,P|496:240|484:192,1,90,2|2,0:0|0:0,0:0:0:0:
396,48,85141,2,0,L|408:152,1,90,8|2,0:0|0:0,0:0:0:0:
300,304,85456,6,0,L|112:316,1,180,2|8,0:0|0:0,0:0:0:0:
40,360,85927,1,2,0:0:0:0:
144,208,86084,2,0,P|148:164|144:112,1,90,2|2,0:0|0:0,0:0:0:0:
72,48,86398,1,8,0:0:0:0:
240,156,86555,2,0,P|316:140|408:188,1,180,2|2,0:0|0:0,0:0:0:0:
464,292,87026,2,0,L|520:220,1,90,8|2,0:0|0:0,0:0:0:0:
360,272,87340,1,2,0:0:0:0:
320,250,87419,1,2,0:0:0:0:
276,249,87497,1,2,0:0:0:0:
236,269,87576,1,2,0:0:0:0:
209,304,87654,1,8,0:0:0:0:
40,256,87812,6,0,P|88:248|132:224,1,90,8|0,0:0|0:0,0:0:0:0:
68,48,88126,2,0,P|60:100|68:144,1,90,8|0,0:0|0:0,0:0:0:0:
176,136,88440,1,8,0:0:0:0:
