osu file format v13

[General]
AudioFilename: Grilletto.mp3
AudioLeadIn: 0
PreviewTime: 58126
Countdown: 1
SampleSet: Soft
StackLeniency: 0.7
Mode: 0
LetterboxInBreaks: 1
WidescreenStoryboard: 1

[Editor]
DistanceSpacing: 1
BeatDivisor: 4
GridSize: 4
TimelineZoom: 1

[Metadata]
Title:grilletto (TV Size Ver.)
TitleUnicode:grilletto (TV Size Ver.)
Artist:GARNiDELiA
ArtistUnicode:GARNiDELiA
Creator:Aerous
Version:Normal
Source:魔法科高校の劣等生
Tags:Mahouka Koukou no Rettousei the irregular at magic high school GARNiDELiA Grilletto opening song
BeatmapID:502977
BeatmapSetID:208854

[Difficulty]
HPDrainRate:3
CircleSize:3
OverallDifficulty:3
ApproachRate:4.5
SliderMultiplier:1
SliderTickRate:1

[Events]
//Background and Video events
0,0,"47760-the-irregular-at-magic-high-school-the-irregular-at-magic-high-school.jpg",0,0
Video,0,"Mahouka OP.avi"
//Break Periods
//Storyboard Layer 0 (Background)
//Storyboard Layer 1 (Fail)
//Storyboard Layer 2 (Pass)
//Storyboard Layer 3 (Foreground)
//Storyboard Sound Samples
//Background Colour Transformations
3,100,163,162,255

[TimingPoints]
11,314.13612565445,4,2,10,30,1,0
1267,-133.333333333333,4,2,10,30,0,0
5822,-133.333333333333,4,2,10,40,0,0
6293,-100,4,2,8,60,0,0
7864,-100,4,2,88,60,0,0
8021,-100,4,2,8,60,0,0
8806,-100,4,2,8,70,0,0
11319,-100,4,2,10,50,0,0
15874,-100,4,2,8,50,0,0
16031,-100,4,2,9,70,0,0
16345,-100,4,2,8,50,0,0
17288,-100,4,2,89,50,0,0
17445,-100,4,2,8,60,0,0
19801,-100,4,2,89,60,0,0
19958,-100,4,2,8,60,0,0
22314,-100,4,2,89,60,0,0
22471,-100,4,2,8,60,0,0
26398,-100,4,2,8,50,0,0
34879,-100,4,2,88,50,0,0
35037,-100,4,2,8,50,0,0
46503,-133.333333333333,4,2,10,60,0,0
46660,-133.333333333333,4,2,8,50,0,0
54042,-100,4,2,10,70,0,0
58754,-100,4,2,9,70,0,0
59068,-100,4,2,8,70,0,1
64408,-100,4,2,89,70,0,1
64565,-100,4,2,8,70,0,1
65665,-100,4,2,89,70,0,1
65822,-100,4,2,8,70,0,1
69042,-100,4,2,8,70,0,0
69120,-100,4,2,8,70,0,1
74461,-100,4,2,89,70,0,1
74618,-100,4,2,8,70,0,1
75717,-100,4,2,89,70,0,1
75874,-100,4,2,8,70,0,1
77759,-100,4,2,8,70,0,0
78859,-100,4,2,9,70,0,0
79173,-100,4,2,8,60,0,1
79251,-100,4,2,8,60,0,0
80115,-100,4,2,89,60,0,0
80272,-100,4,2,8,60,0,0
82628,-100,4,2,89,60,0,0
82785,-100,4,2,8,60,0,0
85141,-100,4,2,89,60,0,0
85298,-100,4,2,8,60,0,0
88440,-100,4,2,10,15,0,0

[HitObjects]
72,96,1267,6,0,P|156:40|272:112,1,225.000008583069
200,184,2524,2,0,P|276:248|320:208,1,150.000005722046
408,208,3466,1,0,0:0:0:0:
412,132,3780,6,0,L|409:16,1,112.500004291534,2|0,0:0|0:0,0:0:0:0:
312,24,4565,1,0,0:0:0:0:
228,56,4880,2,0,L|104:100,1,112.500004291535
76,196,5822,2,0,L|72:270,1,75.000002861023,0|0,1:0|0:0,0:0:0:0:
168,252,6293,6,0,L|162:354,1,99.9999999999999,4|2,0:0|0:0,0:0:0:0:
280,336,6921,2,0,P|272:272|312:224,1,100
404,288,7550,2,0,L|388:184,1,100
396,80,8178,2,0,L|280:80,1,100
156,104,8806,6,0,L|149:52,2,50,2|0|8,0:0|0:0|0:0,0:0:0:0:
232,176,9435,2,0,L|316:192,2,75,0|0|0,0:0|0:0|0:0,0:0:0:0:
272,48,11319,6,0,P|204:60|180:88,1,100
128,164,11948,2,0,L|137:214,1,50,0|2,0:0|0:0,0:0:0:0:
216,252,12419,2,0,L|224:304,1,50,0|2,0:0|0:0,0:0:0:0:
324,324,12890,2,0,L|315:274,1,50,0|2,0:0|0:0,0:0:0:0:
356,156,13361,1,0,0:0:0:0:
276,72,13675,1,2,0:0:0:0:
184,64,13990,6,0,L|133:71,1,50,0|2,0:0|0:0,0:0:0:0:
104,176,14461,2,0,L|155:183,1,50,0|2,0:0|0:0,0:0:0:0:
156,284,14932,2,0,L|106:290,1,50,0|2,0:0|0:0,0:0:0:0:
256,328,15403,2,0,L|286:367,1,50,0|2,0:0|0:0,0:0:0:0:
388,256,15874,2,0,L|396:192,1,50,2|8,0:0|0:0,0:0:0:0:
400,96,16346,6,0,P|324:100|308:112,1,100
280,204,16974,2,0,P|208:208|164:136,1,150
136,72,17602,2,0,P|88:85|40:73,1,99.9999999999999,0|8,0:0|0:0,0:0:0:0:
40,192,18230,1,2,0:1:0:0:
84,300,18545,1,2,0:1:0:0:
168,216,18859,6,0,L|276:220,1,100,4|8,0:0|0:0,0:0:0:0:
304,304,19487,2,0,L|444:324,1,125,0|0,0:0|0:0,0:0:0:0:
472,240,20115,2,0,P|496:195|491:146,1,99.9999999999999,0|8,0:0|0:0,3:0:0:0:
428,60,20743,1,2,0:1:0:0:
332,104,21058,1,2,0:1:0:0:
220,128,21372,6,0,L|233:229,1,99.9999999999999,4|8,0:0|0:0,0:0:0:0:
184,324,22000,2,0,L|296:372,1,100
356,324,22628,2,0,L|448:268,1,100,0|8,0:0|0:0,0:0:0:0:
444,156,23257,1,2,0:1:0:0:
396,56,23571,1,2,0:1:0:0:
288,64,23885,6,0,P|224:80|192:104,1,100
144,196,24513,2,0,L|195:201,1,50
376,320,26398,6,0,P|329:334|281:319,1,99.9999999999999,4|2,0:1|0:0,0:0:0:0:
252,240,27026,2,0,P|184:224|152:248,1,100
64,216,27497,2,0,L|76:280,1,50
140,336,27969,1,2,0:0:0:0:
268,336,28283,2,0,P|277:285|263:239,2,99.9999999999999,0|2|0,0:0|0:0|0:0,0:0:0:0:
380,268,29225,5,2,0:0:0:0:
384,176,29539,2,0,L|384:68,2,100,0|2|0,0:0|0:0|0:0,0:0:0:0:
296,232,30482,1,2,0:0:0:0:
208,236,30796,2,0,P|188:284|140:300,1,100
76,292,31503,6,0,P|40:236|40:148,2,150,0|0|0,0:0|0:0|0:0,0:0:0:0:
208,280,32681,2,0,P|188:204|192:164,1,100
280,160,33230,2,0,L|288:72,1,75
432,136,33780,5,0,0:0:0:0:
432,136,33937,2,0,L|424:37,1,99.9999999999999,2|2,0:0|0:0,0:0:0:0:
352,20,34565,2,0,B|304:60|288:-12|260:52|216:24,1,125
96,200,36450,6,0,L|152:104,1,100
224,40,37079,2,0,L|373:47,1,150,0|8,0:0|0:0,0:0:0:0:
480,56,37864,1,0,0:0:0:0:
488,164,38021,2,0,L|480:268,1,100,8|0,0:0|0:0,0:0:0:0:
376,256,38649,2,0,L|366:157,1,99.9999999999999,8|0,0:0|0:0,0:0:0:0:
328,56,39278,5,8,0:0:0:0:
224,72,39592,2,0,P|165:123|186:184,1,150,0|8,0:0|0:0,0:0:0:0:
236,244,40377,1,0,0:0:0:0:
236,244,40534,2,0,P|285:235|333:254,1,99.9999999999999,8|0,0:0|0:0,0:0:0:0:
408,272,41162,1,8,0:0:0:0:
496,264,41476,6,0,P|459:202|481:126,2,150,4|4|2,0:0|0:0|0:0,0:0:0:0:
424,292,42576,2,0,B|364:256|320:288|276:264,1,150
240,164,43361,2,0,P|288:158|338:179,1,99.9999999999999,0|8,0:0|0:0,0:0:0:0:
448,168,43990,6,0,P|473:121|469:75,1,99.9999999999999,0|8,0:0|0:0,0:0:0:0:
376,40,44618,2,0,B|288:16|324:88|228:56,1,150
128,92,45403,2,0,L|78:100,1,50,0|8,0:0|0:3,0:0:0:0:
76,196,45874,2,0,P|60:244|70:291,1,99.9999999999999,0|8,0:0|0:0,0:0:0:0:
236,292,46503,6,0,P|328:264|336:208,2,150.000005722046,0|0|0,0:0|0:0|0:0,0:0:0:0:
144,252,48073,1,0,0:0:0:0:
88,152,48387,2,0,L|92:64,1,75.0000028610231
224,72,49016,6,0,L|375:53,2,150.000005722046,0|8|0,0:0|0:0|0:0,0:0:0:0:
232,176,50586,1,0,0:0:0:0:
231,298,50901,2,0,P|194:307|158:299,1,75.000002861023,8|0,0:0|0:0,0:0:0:0:
76,228,51529,2,0,L|72:72,2,150.000005722046,0|0|0,0:0|0:0|0:0,0:0:0:0:
96,312,53100,1,0,0:0:0:0:
212,320,53414,2,0,L|284:308,2,56.2500021457673,0|8|8,0:0|0:3|0:3,0:0:0:0:
340,284,54042,6,0,L|350:337,1,50,0|4,1:0|0:3,0:0:0:0:
416,204,54513,2,0,L|426:257,1,50,0|4,1:0|0:3,0:0:0:0:
492,116,54984,2,0,L|502:169,1,50,0|4,1:0|0:3,0:0:0:0:
188,216,56555,6,0,L|178:163,1,50,0|4,1:0|0:3,0:0:0:0:
260,132,57026,2,0,L|250:79,1,50,0|4,1:0|0:3,0:0:0:0:
368,176,57497,2,0,L|358:123,1,50,0|4,1:0|0:3,0:0:0:0:
104,260,58126,2,0,L|164:172,2,100,0|0|0,0:0|0:0|0:0,0:0:0:0:
196,308,59068,6,0,B|243:311|243:300|295:308,2,99.9999999999999,4|8|2,0:1|0:0|0:0,0:0:0:0:
200,224,60010,1,8,0:0:0:0:
200,136,60325,2,0,B|153:133|153:144|101:136,2,99.9999999999999,2|8|2,0:0|0:0|0:0,0:0:0:0:
304,132,61267,1,8,0:0:0:0:
416,180,61581,5,2,0:0:0:0:
444,280,61895,2,0,P|397:294|348:278,1,99.9999999999999,8|2,0:0|0:0,0:0:0:0:
248,296,62524,1,8,0:0:0:0:
120,296,62838,2,0,L|122:195,1,99.9999999999999,2|8,0:0|0:0,0:0:0:0:
136,72,63466,1,2,0:0:0:0:
264,76,63780,1,8,0:0:0:0:
372,88,64094,6,0,P|440:160|424:200,2,150,0|0|0,0:0|0:0|0:0,0:0:0:0:
328,196,65351,2,0,P|272:260|308:320,2,150,0|0|0,0:0|0:0|0:0,0:0:0:0:
404,112,66607,6,0,L|304:76,1,100
244,56,67236,2,0,B|176:88|244:144|168:176,1,150
84,280,68021,2,0,L|136:273,1,50,2|8,0:0|0:3,0:0:0:0:
244,264,68492,2,0,P|260:310|246:357,1,99.9999999999999,2|8,0:0|0:0,0:0:0:0:
280,160,69120,6,0,P|229:151|182:164,2,99.9999999999999,4|8|2,0:1|0:0|0:0,0:0:0:0:
380,172,70063,1,8,0:0:0:0:
500,144,70377,2,0,P|466:107|460:57,2,99.9999999999999,2|8|2,0:0|0:0|0:0,0:0:0:0:
492,264,71319,2,0,L|436:348,1,100
324,344,71948,2,0,P|228:356|208:316,1,150
136,248,72733,1,2,0:0:0:0:
256,128,73047,1,0,0:0:0:0:
256,128,73204,2,0,L|332:104,2,75,0|0|0,0:0|0:0|0:0,0:0:0:0:
306,225,74147,6,0,B|346:187|399:198|399:198|442:176,2,150,2|0|8,0:0|0:0|0:0,0:0:0:0:
208,244,75403,1,0,0:0:0:0:
76,252,75717,2,0,L|72:136,1,100
152,56,76346,1,0,0:0:0:0:
288,60,76660,6,0,P|320:93|371:91,1,99.9999999999999,2|8,0:0|0:0,0:0:0:0:
468,144,77288,2,0,P|472:224|424:288,1,150
204,328,78230,6,0,L|212:224,1,100
236,124,78859,1,8,0:0:0:0:
364,132,79173,6,0,L|373:31,1,99.9999999999999,4|8,0:1|0:0,0:0:0:0:
480,68,79801,2,0,P|488:152|464:216,2,150,0|0|0,0:0|0:0|0:0,0:0:0:0:
332,48,81058,1,2,0:1:0:0:
248,128,81372,1,2,0:1:0:0:
116,188,81686,6,0,P|92:230|97:279,1,99.9999999999999,0|8,0:0|0:0,0:0:0:0:
176,296,82314,2,0,L|276:316|296:320,1,100
396,316,82942,2,0,L|472:224,1,100
340,208,83571,1,2,0:1:0:0:
252,104,83885,1,2,0:1:0:0:
392,72,84199,6,0,P|438:85|487:70,1,99.9999999999999,0|8,0:0|0:0,0:0:0:0:
428,188,84827,2,0,L|368:284,1,100
288,316,85456,2,0,L|176:332,1,100
76,268,86084,1,2,0:1:0:0:
116,156,86398,1,2,0:1:0:0:
256,189,86712,5,2,0:0:0:0:
256,192,86869,12,0,88440,0:0:0:0:
