osu file format v13

[General]
AudioFilename: Grilletto.mp3
AudioLeadIn: 0
PreviewTime: 58126
Countdown: 1
SampleSet: Soft
StackLeniency: 0.7
Mode: 0
LetterboxInBreaks: 1
WidescreenStoryboard: 0

[Editor]
DistanceSpacing: 1
BeatDivisor: 4
GridSize: 4
TimelineZoom: 1.9

[Metadata]
Title:grilletto (TV Size Ver.)
TitleUnicode:grilletto (TV Size Ver.)
Artist:GARNiDELiA
ArtistUnicode:GARNiDELiA
Creator:Aerous
Version:Insane
Source:魔法科高校の劣等生
Tags:Mahouka Koukou no Rettousei the irregular at magic high school GARNiDELiA Grilletto opening song
BeatmapID:492402
BeatmapSetID:208854

[Difficulty]
HPDrainRate:6
CircleSize:4
OverallDifficulty:8
ApproachRate:9
SliderMultiplier:1.8
SliderTickRate:2

[Events]
//Background and Video events
0,0,"47760-the-irregular-at-magic-high-school-the-irregular-at-magic-high-school.jpg",0,0
//Break Periods
//Storyboard Layer 0 (Background)
//Storyboard Layer 1 (Fail)
//Storyboard Layer 2 (Pass)
//Storyboard Layer 3 (Foreground)
//Storyboard Sound Samples
//Background Colour Transformations
3,100,163,162,255

[TimingPoints]
1264,314.13612565445,4,2,2,30,1,0
1264,-200,4,2,2,30,0,0
4211,-200,4,2,1,50,0,0
5818,-83.3333333333333,4,2,2,50,0,0
6290,-100,4,2,1,70,0,0
8803,-100,4,2,1,80,0,0
10531,-142.857142857143,4,2,1,30,0,0
11316,-125,4,2,2,60,0,0
15714,-125,4,2,1,70,0,0
15871,-125,4,2,2,80,0,0
16028,-83.3333333333333,4,2,2,80,0,0
16342,-100,4,2,1,80,0,0
18227,-76.9230769230769,4,2,1,80,0,0
18541,-100,4,2,1,80,0,0
20740,-76.9230769230769,4,2,1,80,0,0
21054,-100,4,2,1,80,0,0
23253,-76.9230769230769,4,2,1,80,0,0
23567,-100,4,2,1,80,0,0
25923,-200,4,2,1,60,0,0
26394,-125,4,2,1,70,0,0
36447,-100,4,2,1,75,0,0
46499,-125,4,2,1,70,0,0
55766,-125,4,2,1,50,0,0
56551,-125,4,2,1,70,0,0
58122,-200,4,2,1,60,0,0
58750,-83.3333333333333,4,2,2,70,0,0
59065,-86.9565217391304,4,2,1,85,0,1
78855,-86.9565217391304,4,2,2,75,0,1
79169,-76.9230769230769,4,2,1,80,0,0
79562,-86.9565217391304,4,2,1,80,0,0
81054,-76.9230769230769,4,2,1,80,0,0
81368,-86.9565217391304,4,2,1,80,0,0
83567,-76.9230769230769,4,2,1,80,0,0
83881,-86.9565217391304,4,2,1,80,0,0
86080,-76.9230769230769,4,2,1,80,0,0
86394,-86.9565217391304,4,2,1,80,0,0
88750,-86.9565217391304,4,2,1,50,0,0

[HitObjects]
144,80,1264,6,0,P|204:96|220:144,1,111.999996582031
252,172,1892,1,0,0:0:0:0:
116,236,2520,2,0,P|144:284|200:288,1,111.999996582031
244,292,3148,1,0,0:0:0:0:
344,232,3541,1,0,0:0:0:0:
344,232,3777,2,0,P|408:264|448:264,2,111.999996582031,0|0|0,0:0|0:0|0:0,0:0:0:0:
192,56,4876,1,0,0:0:0:0:
184,148,5190,2,0,L|180:228,2,67.5,0|0|0,0:0|0:0|0:0,0:0:0:0:
240,164,5818,6,0,B|348:160|348:124|412:216,1,179.999994506836
448,268,6290,6,0,L|424:176,1,75,4|0,3:0|0:0,0:0:0:0:
344,288,6604,2,0,L|320:196,1,75,2|0,0:0|0:0,0:0:0:0:
224,232,6918,2,0,L|240:322,1,75,2|0,0:0|0:0,0:0:0:0:
128,192,7232,1,2,0:0:0:0:
260,92,7389,1,0,0:0:0:0:
376,192,7546,5,2,0:0:0:0:
256,304,7703,1,0,0:0:0:0:
156,192,7860,1,2,0:0:0:0:
156,192,8017,2,0,B|199:193|199:193|236:184,1,75,0|2,0:0|0:0,0:0:0:0:
312,136,8332,2,0,B|270:126|270:126|236:104,1,75,0|2,0:0|0:0,0:0:0:0:
208,68,8646,1,0,0:0:0:0:
400,56,8803,5,6,0:0:0:0:
400,144,8960,1,8,0:0:0:0:
400,236,9117,2,0,L|400:324,1,75
264,340,9431,1,8,0:0:0:0:
100,332,9588,1,8,3:0:0:0:
108,188,9745,1,8,3:0:0:0:
256,184,9902,1,12,0:0:0:0:
260,192,10531,5,0,0:0:0:0:
320,192,10688,2,0,L|432:192,1,104.999996795654
472,108,11159,1,0,0:0:0:0:
340,48,11316,5,4,3:0:0:0:
284,44,11474,2,0,P|241:46|204:56,1,60,0|2,0:0|0:0,0:0:0:0:
112,140,11788,1,0,0:0:0:0:
136,272,11945,2,0,P|89:289|72:304,1,60,2|2,0:0|0:0,0:0:0:0:
268,196,12259,1,0,0:0:0:0:
248,52,12415,6,0,L|152:44,1,68,2|2,0:0|0:0,0:0:0:0:
68,40,12730,1,0,0:0:0:0:
64,180,12887,2,0,L|148:188,1,60,2|2,0:0|0:0,0:0:0:0:
256,200,13201,1,0,0:0:0:0:
424,240,13358,2,0,L|420:156,1,60,2|0,0:0|0:0,0:0:0:0:
300,240,13672,6,0,L|304:173,1,68,2|0,0:0|0:0,0:0:0:0:
296,60,13986,1,2,0:0:0:0:
440,60,14143,1,2,0:0:0:0:
448,208,14300,5,0,0:0:0:0:
348,208,14457,2,0,B|272:212|272:212,1,70
168,208,14771,5,0,0:0:0:0:
32,216,14928,2,0,L|84:148,1,60
136,64,15243,5,0,0:0:0:0:
248,60,15400,2,0,L|248:120,1,60,2|2,0:0|0:0,0:0:0:0:
308,208,15714,5,2,0:0:0:0:
352,288,15871,1,2,0:0:0:0:
320,368,16028,6,0,L|248:220,1,134.999995880127,4|0,0:0|0:0,0:0:0:0:
260,244,16342,6,0,P|368:292|400:276,1,150
396,184,16814,1,0,0:0:0:0:
436,68,16971,2,0,P|472:111|484:148,1,75,2|2,0:0|0:0,0:0:0:0:
448,248,17285,1,8,0:0:0:0:
344,320,17442,6,0,P|304:336|248:324,1,75,0|2,0:0|0:0,0:0:0:0:
172,328,17756,1,2,0:0:0:0:
92,240,17913,1,8,0:0:0:0:
180,160,18070,1,0,0:0:0:0:
244,116,18227,6,0,L|328:32,1,97.4999955368044,12|2,0:0|0:0,0:0:0:0:
388,4,18542,1,12,0:0:0:0:
472,72,18699,6,0,L|472:164,1,87.5,0|2,0:0|0:0,0:0:0:0:
468,264,19013,1,0,0:0:0:0:
360,264,19169,2,0,L|368:372,1,75,8|0,0:0|0:0,0:0:0:0:
248,340,19484,2,0,L|244:260,1,75,2|2,0:0|0:0,0:0:0:0:
116,244,19798,1,8,0:0:0:0:
168,104,19955,1,0,0:0:0:0:
268,20,20112,5,2,0:0:0:0:
166,104,20269,1,2,0:0:0:0:
52,136,20426,2,0,L|61:252,1,85,8|0,0:0|0:0,0:0:0:0:
196,200,20740,6,0,L|200:308,1,97.4999955368044,12|2,0:0|0:0,0:0:0:0:
320,208,21054,1,12,0:0:0:0:
416,156,21211,2,0,L|452:148,2,37.5,0|0|0,0:0|0:0|0:0,0:0:0:0:
432,248,21525,1,0,0:0:0:0:
380,328,21682,2,0,P|328:344|284:340,1,87.5
180,320,21996,1,2,0:0:0:0:
88,252,22154,2,0,P|54:213|48:160,1,75,2|8,0:0|0:0,0:0:0:0:
104,100,22468,1,0,0:0:0:0:
208,132,22625,6,0,L|316:124,1,75,2|2,0:0|0:0,0:0:0:0:
216,216,22939,2,0,L|312:208,1,75,8|0,0:0|0:0,0:0:0:0:
196,84,23253,6,0,L|328:76,1,110.499994941712,12|2,0:0|0:0,0:0:0:0:
404,100,23567,1,12,0:0:0:0:
400,208,23724,6,0,L|328:300,1,80
284,328,24038,1,0,0:0:0:0:
152,340,24195,2,0,L|140:244,1,87.5,8|0,0:0|0:0,0:0:0:0:
128,160,24510,1,2,0:0:0:0:
240,44,24667,2,0,L|240:144,1,75,2|8,0:0|0:0,0:0:0:0:
72,204,24981,6,0,L|72:112,1,87.5
164,304,25295,2,0,L|168:216,1,87.5
272,372,25609,2,0,L|276:284,1,87.5
356,184,25923,6,0,B|316:148|296:220|260:196,1,106.666666666667
260,196,26394,6,0,L|180:188,1,80,6|0,0:0|0:0,0:0:0:0:
32,228,26709,1,2,0:0:0:0:
44,100,26866,1,0,0:0:0:0:
44,100,27023,2,0,L|52:24,2,60,2|0|2,0:0|0:0|0:0,0:0:0:0:
168,96,27494,6,0,P|248:84|324:120,1,160
360,184,27965,2,0,P|316:212|284:216,1,64,2|0,0:0|0:0,0:0:0:0:
180,268,28279,1,2,0:0:0:0:
56,324,28436,2,0,L|68:244,1,64,0|2,0:0|0:0,0:0:0:0:
240,344,28750,6,0,L|272:340,3,30,0|0|0|0,0:0|0:0|0:0|0:0,0:0:0:0:
416,300,29143,1,0,0:0:0:0:
416,300,29222,2,0,P|380:272|352:232,1,80,2|0,0:0|0:0,0:0:0:0:
292,172,29536,2,0,L|264:100,2,64,0|0|0,0:0|0:0|0:0,0:0:0:0:
188,112,30007,6,0,B|164:160|164:160|184:276,1,128
64,224,30478,2,0,P|68:180|80:140,1,80,2|0,0:0|0:0,0:0:0:0:
208,176,30792,2,0,P|212:220|220:256,1,60,2|0,0:0|0:0,0:0:0:0:
352,232,31106,2,0,L|352:152,1,60
484,336,31421,6,0,B|524:272|444:276|480:212,1,120
368,228,31892,2,0,B|324:264|420:304|380:356,1,120
312,356,32363,1,2,0:0:0:0:
224,360,32520,2,0,B|192:340|160:356|152:328,1,60
124,264,32834,2,0,P|80:264|44:252,1,80,0|2,0:0|0:0,0:0:0:0:
104,96,33148,1,0,0:0:0:0:
104,96,33305,2,0,L|84:16,2,80,2|0|2,0:0|0:0|0:0,0:0:0:0:
200,200,33777,5,0,0:0:0:0:
200,200,33855,1,0,0:0:0:0:
200,200,33934,2,0,L|304:208,1,80,2|0,0:0|0:0,0:0:0:0:
384,128,34248,2,0,P|332:116|296:120,1,80,2|0,0:0|0:0,0:0:0:0:
176,100,34562,1,2,0:0:0:0:
60,144,34719,2,0,L|56:60,1,80,0|2,0:0|0:0,0:0:0:0:
236,88,35033,1,2,0:0:0:0:
256,192,35112,12,0,35976,0:0:0:0:
292,88,36133,5,0,1:0:0:0:
284,116,36211,1,0,1:0:0:0:
276,144,36290,1,0,1:0:0:0:
268,168,36368,1,0,1:0:0:0:
256,200,36447,6,0,P|217:195|204:160,1,75,6|0,0:0|0:0,0:0:0:0:
224,80,36761,2,0,L|308:92,1,75,8|0,0:0|0:0,0:0:0:0:
416,112,37075,1,2,0:0:0:0:
424,232,37232,2,0,P|412:284|420:324,1,75,2|0,0:0|0:0,0:0:0:0:
320,340,37546,6,0,B|256:364|256:364|160:348,1,160,8|2,0:0|0:0,0:0:0:0:
64,312,38017,2,0,P|76:268|68:236,1,75,8|0,0:0|0:0,0:0:0:0:
96,128,38332,1,2,0:0:0:0:
192,76,38489,2,0,L|228:156,1,75,2|8,0:0|0:0,0:0:0:0:
332,120,38803,2,0,L|304:40,1,75
256,208,39117,5,0,0:0:0:0:
388,224,39274,2,0,L|392:144,1,75,8|0,0:0|0:0,0:0:0:0:
332,32,39588,1,2,0:0:0:0:
256,136,39745,2,0,L|256:224,1,75,2|0,0:0|0:0,0:0:0:0:
184,272,40059,6,0,B|88:208|84:200|144:168,1,150
216,72,40531,2,0,P|256:80|296:80,1,75,8|0,0:0|0:0,0:0:0:0:
284,200,40845,2,0,P|244:208|200:204,1,75,2|2,0:0|0:0,0:0:0:0:
96,208,41159,2,0,P|92:156|108:112,1,75,8|0,0:0|0:0,0:0:0:0:
312,108,41473,6,0,P|372:156|364:232,1,150,6|8,0:0|0:0,0:0:0:0:
300,192,41944,2,0,P|352:156|448:184,1,150
488,264,42415,1,0,0:0:0:0:
432,352,42572,2,0,L|336:360,1,75,8|0,0:0|0:0,0:0:0:0:
220,324,42887,2,0,P|160:324|132:296,1,75
104,236,43201,1,0,0:0:0:0:
100,204,43253,1,0,0:0:0:0:
96,164,43358,1,0,0:0:0:0:
96,132,43410,2,0,P|152:104|164:104,1,40
240,120,43672,6,0,P|220:177|204:208,1,75,8|0,0:0|0:0,0:0:0:0:
216,228,43986,6,0,B|80:172|128:192|104:168|104:164,1,112.5
276,56,44457,1,0,0:0:0:0:
408,64,44614,1,2,0:0:0:0:
296,192,44771,2,0,P|296:248|304:272,1,75,2|0,0:0|0:0,0:0:0:0:
464,196,45085,6,0,P|416:164|376:156,1,75,8|8,0:0|0:0,0:0:0:0:
276,172,45400,1,0,0:0:0:0:
280,200,45478,2,0,L|280:256,1,40
416,240,45714,1,0,1:0:0:0:
416,268,45792,1,0,1:0:0:0:
416,300,45871,1,0,1:0:0:0:
260,312,46028,2,0,P|220:336|152:356,1,112.5,8|0,0:3|0:0,0:0:0:0:
236,248,46499,6,0,P|292:244|388:296,1,160,6|0,0:0|0:0,0:0:0:0:
416,308,46970,1,2,0:0:0:0:
288,352,47127,2,0,L|212:364,2,64,8|0|0,0:0|0:0|0:0,0:0:0:0:
312,256,47599,2,0,P|320:196|312:160,1,80,0|2,0:0|0:0,0:0:0:0:
200,128,47913,5,2,0:0:0:0:
200,128,48070,2,0,P|180:88|184:64,1,60,0|2,0:0|0:0,0:0:0:0:
292,16,48384,1,8,0:0:0:0:
400,92,48541,2,0,L|380:228,1,120
200,320,49012,6,0,P|192:288|172:188,1,128,2|0,0:0|0:0,0:0:0:0:
136,104,49483,1,0,0:0:0:0:
272,88,49640,2,0,L|340:56,1,60,0|0,0:0|0:0,0:0:0:0:
304,200,49955,2,0,L|368:200,1,60
364,200,50269,1,0,0:0:0:0:
364,200,50373,1,0,0:0:0:0:
412,296,50583,2,0,P|376:332|364:360,1,60,0|2,0:0|0:0,0:0:0:0:
196,288,50897,2,0,P|260:280|280:272,1,60,8|0,0:0|0:0,0:0:0:0:
308,172,51211,1,8,0:0:0:0:
336,52,51368,5,0,1:0:0:0:
336,52,51447,1,0,1:0:0:0:
336,52,51525,2,0,L|192:24,1,120,0|0,1:0|0:0,0:0:0:0:
92,68,52154,1,8,0:0:0:0:
40,192,52311,1,0,0:0:0:0:
84,328,52468,1,0,0:0:0:0:
184,244,52625,6,0,B|280:172|276:212|308:216,1,120
312,240,53096,1,0,0:0:0:0:
312,272,53174,1,0,0:0:0:0:
312,304,53253,1,0,0:0:0:0:
308,336,53332,1,0,0:0:0:0:
276,340,53410,2,0,P|232:312|208:288,1,80,8|8,0:0|0:3,0:0:0:0:
112,272,53724,2,0,P|120:312|144:356,1,64,8|2,0:3|0:0,0:0:0:0:
216,340,54038,5,8,0:0:0:0:
212,160,54195,1,8,0:0:0:0:
416,160,54510,5,8,0:0:0:0:
420,344,54667,1,8,0:0:0:0:
84,344,54981,5,8,0:0:0:0:
88,152,55138,1,8,0:0:0:0:
396,316,55766,5,0,0:0:0:0:
328,328,55923,1,0,0:0:0:0:
284,336,56080,2,0,P|224:332|160:312,1,128
84,344,56551,5,8,0:0:0:0:
88,152,56708,1,8,0:0:0:0:
256,152,57023,5,8,0:0:0:0:
260,344,57180,1,8,0:0:0:0:
448,344,57494,5,8,0:0:0:0:
448,156,57651,1,8,0:0:0:0:
276,236,58122,6,0,B|312:192|224:180|312:148|216:148|264:104,1,131.25
254,113,58750,6,0,P|218:165|276:216,1,134.999995880127,4|0,0:0|0:0,0:0:0:0:
248,300,59065,6,0,L|344:296,1,86.2500016450882,6|0,0:0|0:0,0:0:0:0:
452,220,59379,2,0,P|396:200|312:232,1,129.375002467632,8|8,0:0|0:0,0:0:0:0:
240,232,59693,1,2,0:0:0:0:
188,352,59850,1,2,0:0:0:0:
300,352,60007,1,8,0:0:0:0:
396,356,60164,6,0,P|420:324|416:276,1,86.2500016450882
404,172,60478,1,2,0:0:0:0:
312,96,60635,2,0,L|316:8,1,86.2500016450882,8|0,0:0|0:0,0:0:0:0:
188,12,60949,2,0,P|156:40|156:108,1,86.2500016450882
116,200,61263,2,0,P|88:256|84:296,1,86.2500016450882,8|0,0:0|0:0,0:0:0:0:
208,348,61578,5,2,0:0:0:0:
348,336,61735,2,0,P|384:296|392:252,1,86.2500016450882
432,168,62049,1,0,0:0:0:0:
428,136,62088,1,0,0:0:0:0:
420,104,62127,2,0,P|364:108|332:112,1,86.2500016450882
216,64,62468,1,0,0:0:0:0:
96,84,62677,6,0,P|64:128|16:152,1,86.2500016450882,0|2,0:0|0:0,0:0:0:0:
56,260,62991,1,0,0:0:0:0:
116,340,63148,1,0,0:0:0:0:
272,344,63384,5,0,0:0:0:0:
312,340,63462,2,0,P|364:332|400:328,1,86.2500016450882,2|2,0:0|0:0,0:0:0:0:
368,200,63777,2,0,P|324:184|288:156,1,86.2500016450882,8|0,0:0|0:0,0:0:0:0:
440,96,64091,6,0,P|456:16|452:-8,1,86.2500016450882
308,80,64405,2,0,P|316:32|356:-16,1,86.2500016450882
176,88,64719,2,0,L|144:0,1,86.2500016450882,2|0,0:0|0:0,0:0:0:0:
40,104,65033,2,0,L|60:8,1,86.2500016450882,8|0,0:0|0:0,0:0:0:0:
256,84,65347,5,2,0:0:0:0:
208,200,65504,1,0,0:0:0:0:
296,288,65661,1,0,0:0:0:0:
412,236,65818,2,0,L|424:144,1,86.2500016450882
340,60,66133,2,0,P|288:68|240:96,1,86.2500016450882,0|8,0:0|0:0,0:0:0:0:
164,200,66447,6,0,P|212:232|240:236,1,86.2500016450882
332,236,66682,2,0,P|380:240|404:212,1,86.2500016450882
464,128,66996,1,0,0:0:0:0:
372,76,67154,2,0,L|336:100,1,43.1250008225441
316,108,67389,2,0,L|280:132,1,43.1250008225441
256,144,67546,2,0,L|220:168,1,43.1250008225441
231,202,67703,6,2,B|187:238|187:238|327:234,1,184.000003509522,6|8,0:0|0:3,0:0:0:0:
376,268,68174,2,0,P|320:284|276:316,1,86.2500016450882,8|0,0:3|0:0,0:0:0:0:
316,356,68489,2,0,L|168:352,1,129.375002467632
152,344,68803,1,8,0:3:0:0:
108,332,68881,1,0,0:0:0:0:
72,304,68960,1,8,0:3:0:0:
44,268,69038,1,0,0:0:0:0:
40,232,69117,6,0,P|108:220|176:144,1,153.333336257935,6|8,0:0|0:0,0:0:0:0:
240,56,69588,1,0,0:0:0:0:
240,56,69667,1,8,0:0:0:0:
240,56,69745,1,2,0:0:0:0:
296,136,69902,2,0,P|260:164|220:172,1,86.2500016450882,2|8,0:0|0:0,0:0:0:0:
224,248,70216,1,0,0:0:0:0:
112,204,70373,6,0,P|84:148|92:92,1,86.2500016450882,2|2,0:0|0:0,0:0:0:0:
200,104,70688,2,0,B|212:196|212:196|204:240,1,129.375002467632,8|8,0:0|0:0,0:0:0:0:
304,188,71002,2,0,L|300:296,1,92.0000017547608
404,252,71316,2,0,L|404:344,1,92.0000017547608
188,224,71630,5,2,0:0:0:0:
192,272,71787,2,0,P|200:328|192:368,1,86.2500016450882,0|8,0:0|0:0,0:0:0:0:
332,344,72101,2,0,L|308:256,1,86.2500016450882,2|0,0:0|0:0,0:0:0:0:
456,344,72415,2,0,L|480:256,1,86.2500016450882,8|0,0:0|0:0,0:0:0:0:
192,356,72729,6,0,L|140:164,1,184.000003509522,6|2,0:0|0:0,0:0:0:0:
172,144,73201,2,0,P|196:216|196:244,1,86.2500016450882,8|0,0:0|0:0,0:0:0:0:
232,224,73515,2,0,L|224:268,1,43.1250008225441,2|0,0:0|0:0,0:0:0:0:
296,240,73672,2,0,L|280:284,1,43.1250008225441,8|0,0:0|0:0,0:0:0:0:
316,304,73829,1,8,0:3:0:0:
344,316,73907,1,0,0:0:0:0:
376,316,73986,1,8,0:3:0:0:
408,304,74065,1,0,0:0:0:0:
428,280,74143,6,0,L|436:160,1,86.2500016450882,6|0,0:0|0:0,0:0:0:0:
320,164,74457,2,0,L|328:280,1,86.2500016450882,8|0,0:0|0:0,0:0:0:0:
208,232,74771,2,0,L|216:120,1,86.2500016450882,2|0,0:0|0:0,0:0:0:0:
72,144,75085,2,0,L|80:264,1,86.2500016450882,8|0,0:0|0:0,0:0:0:0:
164,276,75400,5,2,0:0:0:0:
128,136,75557,2,0,P|184:128|228:140,1,86.2500016450882,0|8,0:0|0:0,0:0:0:0:
360,104,75871,2,0,P|325:59|312:12,1,86.2500016450882,0|2,0:0|0:0,0:0:0:0:
188,32,76185,2,0,P|166:84|136:116,1,86.2500016450882,0|8,0:0|0:0,0:0:0:0:
40,192,76499,5,0,0:0:0:0:
40,192,76578,1,0,0:0:0:0:
40,192,76656,1,0,0:0:0:0:
36,288,76813,2,0,P|24:312|20:376,1,86.2500016450882,0|8,0:0|0:0,0:0:0:0:
176,364,77127,2,0,P|172:304|160:268,1,86.2500016450882,0|2,0:0|0:0,0:0:0:0:
296,352,77442,1,0,0:0:0:0:
460,348,77599,1,0,0:0:0:0:
372,196,77756,1,12,0:0:0:0:
256,192,77913,12,4,78855,1:2:0:0:
336,184,79169,6,0,L|228:192,1,97.4999955368044,6|0,0:0|0:0,0:0:0:0:
216,240,79483,2,0,L|116:236,1,97.4999955368044
28,296,79798,1,2,0:0:0:0:
120,352,79955,2,0,L|208:356,1,86.2500016450882,2|8,0:0|0:0,0:0:0:0:
316,344,80269,5,0,0:0:0:0:
312,196,80426,2,0,P|264:212|228:208,1,86.2500016450882,0|2,0:0|0:0,0:0:0:0:
220,80,80740,2,0,P|296:80|328:100,1,86.2500016450882,8|0,0:0|0:0,0:0:0:0:
428,180,81054,2,0,P|468:136|480:96,1,97.4999955368044,2|2,0:0|0:0,0:0:0:0:
376,60,81368,2,0,P|336:104|328:132,1,86.2500016450882,8|0,0:0|0:0,0:0:0:0:
352,228,81682,5,2,0:0:0:0:
292,304,81839,1,2,0:0:0:0:
188,288,81996,2,0,P|128:292|92:284,1,86.2500016450882,8|0,0:0|0:0,0:0:0:0:
52,168,82311,1,2,0:0:0:0:
96,48,82468,2,0,P|141:41|188:44,1,86.2500016450882,2|8,0:0|0:0,0:0:0:0:
96,164,82782,5,0,0:0:0:0:
44,104,82939,2,0,P|44:44|48:16,1,86.2500016450882,2|2,0:0|0:0,0:0:0:0:
172,84,83253,2,0,P|172:24|204:4,1,86.2500016450882,8|0,0:0|0:0,0:0:0:0:
320,12,83567,2,0,P|320:64|328:108,1,97.4999955368044,2|0,0:0|0:0,0:0:0:0:
336,196,83881,1,8,0:0:0:0:
320,288,84038,5,0,1:0:0:0:
320,288,84117,1,0,1:0:0:0:
320,288,84195,2,0,L|320:380,1,86.2500016450882,0|0,1:0|0:0,0:0:0:0:
480,364,84510,2,0,L|468:276,1,86.2500016450882,8|0,0:0|0:0,0:0:0:0:
368,180,84824,1,2,0:0:0:0:
472,112,84981,2,0,L|472:8,1,86.2500016450882
344,32,85295,5,0,0:0:0:0:
252,24,85452,2,0,L|148:16,1,86.2500016450882,2|2,0:0|0:0,0:0:0:0:
64,92,85766,2,0,L|68:188,1,86.2500016450882,8|0,0:0|0:0,0:0:0:0:
68,292,86080,2,0,P|127:323|164:324,1,97.4999955368044
224,264,86394,2,0,P|267:293|312:296,1,86.2500016450882,8|0,0:0|0:0,0:0:0:0:
372,192,86709,5,6,0:0:0:0:
240,176,86866,1,0,0:0:0:0:
148,180,87023,2,0,P|84:180|60:168,1,86.2500016450882,8|0,0:0|0:0,0:0:0:0:
48,124,87337,1,8,0:3:0:0:
92,116,87415,1,8,0:3:0:0:
128,108,87494,2,0,L|200:100,3,43.1250008225441,0|0|0|0,0:0|0:0|0:0|0:0,0:0:0:0:
204,100,87808,6,0,L|268:80,3,43.1250008225441,0|0|0|0,0:0|0:0|0:0|0:0,0:0:0:0:
284,80,88122,1,8,0:3:0:0:
320,76,88200,1,8,0:3:0:0:
356,88,88279,1,8,0:3:0:0:
256,192,88436,1,2,0:0:0:0:
