osu file format v12

[General]
AudioFilename: Ambiguous.mp3
AudioLeadIn: 1000
PreviewTime: 51552
Countdown: 0
SampleSet: Soft
StackLeniency: 0.7
Mode: 0
LetterboxInBreaks: 0
WidescreenStoryboard: 0

[Editor]
DistanceSpacing: 2
BeatDivisor: 4
GridSize: 4
TimelineZoom: 1

[Metadata]
Title:ambiguous (TV size)
TitleUnicode:ambiguous (TV size)
Artist:GARNiDELiA
ArtistUnicode:GARNiDELiA
Creator:Umi
Version:Hard
Source:Kill la Kill
Tags:キルラキル opening xChippy matoi ryuko kiryuin satsuki studio trigger meg rock
BeatmapID:375835
BeatmapSetID:152786

[Difficulty]
HPDrainRate:6
CircleSize:4
OverallDifficulty:6
ApproachRate:8
SliderMultiplier:1.5
SliderTickRate:1

[Events]
//Background and Video events
0,0,"Kill1.jpg",0,0
Video,-550,"Kill la Kill.avi"
//Break Periods
//Storyboard Layer 0 (Background)
//Storyboard Layer 1 (Fail)
//Storyboard Layer 2 (Pass)
//Storyboard Layer 3 (Foreground)
//Storyboard Sound Samples
//Background Colour Transformations
3,100,163,162,255

[TimingPoints]
340,337.078651685393,4,2,1,50,1,0
340,-133.333333333333,4,2,1,50,0,0
7901,337.078651685393,4,2,2,60,1,0
8406,337.078651685393,4,2,1,60,1,0
19192,-133.333333333333,4,2,2,60,0,0
29979,-100,4,2,1,60,0,0
40597,-133.333333333333,4,2,1,60,0,0
50372,-133.333333333333,4,2,1,40,0,0
50540,-133.333333333333,4,2,1,50,0,0
50709,-133.333333333333,4,2,1,60,0,0
50877,-133.333333333333,4,2,1,70,0,0
51215,-133.333333333333,4,2,3,80,0,0
51552,-100,4,2,1,70,0,1
61833,-100,4,2,1,40,0,1
62254,-100,4,2,1,40,0,0
62338,-100,4,2,1,70,0,1
69754,-100,4,2,1,40,0,1
70428,-100,4,2,1,70,0,1
72788,-100,4,2,3,80,0,1
73125,-100,4,2,1,60,0,0
88293,-100,4,2,1,5,0,0

[Colours]
Combo1 : 71,119,231
Combo2 : 179,0,0
Combo3 : 168,168,168

[HitObjects]
159,145,340,6,0,P|212:131|266:145,1,112.500004291535,2|0,0:0|0:0,0:0:0:0:
375,231,845,2,0,P|321:245|267:231,2,112.500004291535,2|0|0,0:0|0:0|0:0,0:0:0:0:
422,161,1688,2,0,L|354:59,1,112.500004291535,2|0,0:0|0:0,0:0:0:0:
273,46,2193,2,0,P|221:63|169:46,2,112.500004291535,2|0|0,0:0|0:0|0:0,0:0:0:0:
274,158,3036,6,0,P|221:139|169:158,1,112.500004291535,2|0,0:0|0:0,0:0:0:0:
157,297,3542,2,0,P|205:272|222:220,2,112.500004291535,2|0|0,0:0|0:0|0:0,0:0:0:0:
47,218,4384,6,0,P|64:165|112:140,1,112.500004291535,2|0,0:0|0:0,0:0:0:0:
410,62,5059,2,0,P|393:115|345:140,1,112.500004291535,2|0,0:0|0:0,0:0:0:0:
256,192,5733,12,8,7901,0:0:0:0:
255,192,8069,5,8,0:3:0:0:
255,192,8406,6,0,P|292:184|328:192,1,75,4|0,0:0|0:0,0:0:0:0:
406,252,8743,1,8,0:0:0:0:
329,312,8912,2,0,P|292:320|256:312,1,75,2|0,0:0|0:0,0:0:0:0:
183,193,9249,1,2,0:0:0:0:
183,193,9586,6,0,P|219:184|255:192,1,75,4|0,0:0|0:0,0:0:0:0:
351,172,9923,1,0,0:0:0:0:
359,75,10092,1,8,0:0:0:0:
269,36,10260,2,0,B|217:31|179:63|179:63|121:43,1,150,2|0,0:0|0:0,0:0:0:0:
76,128,10766,2,0,L|168:160,1,75,8|0,0:0|0:0,0:0:0:0:
276,193,11103,6,0,L|208:237,1,75,4|0,0:0|0:0,0:0:0:0:
289,294,11440,1,8,0:0:0:0:
358,224,11608,2,0,P|366:188|357:152,1,75,2|0,0:0|0:0,0:0:0:0:
287,36,11945,2,0,P|278:72|287:108,1,75,2|8,0:0|0:0,0:0:0:0:
358,224,12283,1,4,0:0:0:0:
164,251,12620,6,0,L|189:175,1,75,0|8,0:0|0:0,0:0:0:0:
217,87,12957,2,0,P|276:117|374:83,1,150,2|0,0:0|0:0,0:0:0:0:
437,45,13462,1,8,0:0:0:0:
493,124,13631,1,0,0:0:0:0:
448,210,13799,6,0,P|412:220|384:245,1,75,4|0,0:0|0:0,0:0:0:0:
338,331,14136,1,8,0:0:0:0:
241,317,14305,2,0,P|210:296|191:263,1,75,2|0,0:0|0:0,0:0:0:0:
183,133,14642,2,0,P|213:153|232:186,1,75,2|8,0:0|0:0,0:0:0:0:
78,214,14979,1,4,0:0:0:0:
78,214,15316,5,0,0:0:0:0:
132,132,15485,1,8,0:0:0:0:
189,53,15653,2,0,B|267:53|267:53|294:82|294:82|326:82,1,150,2|0,0:0|0:0,0:0:0:0:
418,48,16159,1,8,0:0:0:0:
326,82,16327,1,2,0:0:0:0:
440,144,16496,6,0,P|480:128|505:93,1,75,4|0,0:0|0:0,0:0:0:0:
418,48,16833,1,8,0:0:0:0:
364,157,17002,2,0,L|394:253,1,75,2|0,0:0|0:0,0:0:0:0:
321,346,17339,2,0,L|291:250,1,75,0|8,0:0|0:0,0:0:0:0:
268,181,17676,1,4,0:0:0:0:
268,181,18013,5,0,0:0:0:0:
210,101,18181,1,8,0:0:0:0:
153,180,18350,1,0,0:0:0:0:
282,107,18518,1,0,0:0:0:0:
326,245,18687,2,0,P|263:273|186:234,1,150,2|0,0:0|0:0,0:0:0:0:
131,138,19193,6,0,L|202:127,1,56.2500021457673,12|0,0:0|0:0,0:0:0:0:
229,43,19530,2,0,L|300:56,1,56.2500021457673,8|0,0:0|0:0,0:0:0:0:
377,72,19867,2,0,P|360:124|378:176,1,112.500004291535,10|8,0:0|0:0,0:0:0:0:
461,300,20372,6,0,P|478:247|460:195,1,112.500004291535,2|0,0:0|0:0,0:0:0:0:
378,176,20878,1,8,0:0:0:0:
304,217,21047,2,0,P|249:219|200:165,1,112.500004291535,2|0,0:0|0:0,0:0:0:0:
200,99,21552,1,8,0:0:0:0:
313,42,21721,6,0,B|299:115|299:115|270:151,2,112.500004291535,2|0|2,0:0|0:0|0:0,0:0:0:0:
313,42,22901,5,8,0:0:0:0:
235,75,23069,1,0,0:0:0:0:
155,47,23238,2,0,P|149:74|154:102,1,56.2500021457673,10|0,0:0|0:0,0:0:0:0:
259,202,23575,2,0,P|264:174|259:146,1,56.2500021457673,8|0,0:0|0:0,0:0:0:0:
129,175,23912,2,0,P|156:179|184:174,1,56.2500021457673,10|0,0:0|0:0,0:0:0:0:
290,75,24249,2,0,P|262:70|234:75,1,56.2500021457673,8|0,0:0|0:0,0:0:0:0:
333,143,24586,6,0,P|367:100|365:45,1,112.500004291535,10|8,0:0|0:0,0:0:0:0:
474,76,25092,2,0,P|439:119|441:174,1,112.500004291535,2|0,0:0|0:0,0:0:0:0:
459,256,25597,1,8,0:0:0:0:
391,307,25766,1,8,0:0:0:0:
391,307,25849,1,8,0:0:0:0:
391,307,25934,6,0,L|317:279,1,56.2500021457673,8|0,0:0|0:0,0:0:0:0:
255,306,26271,2,0,L|237:245,1,56.2500021457673,8|0,0:0|0:0,0:0:0:0:
162,215,26608,2,0,L|193:154,1,56.2500021457673,8|0,0:0|0:0,0:0:0:0:
271,175,26945,1,8,0:0:0:0:
162,215,27114,6,0,P|109:200|55:215,1,112.500004291535,2|0,0:0|0:0,0:0:0:0:
67,323,27620,2,0,L|117:272,1,56.2500021457673,10|0,0:0|0:0,0:0:0:0:
162,215,27957,1,8,0:0:0:0:
293,108,28294,1,8,0:0:0:0:
293,108,28462,6,0,L|324:242,1,112.500004291535,2|0,0:0|0:0,0:0:0:0:
362,290,28968,2,0,P|390:267|400:238,1,56.2500021457673,10|0,0:0|0:0,0:0:0:0:
279,294,29305,2,0,P|251:317|241:346,1,56.2500021457673,10|0,0:0|0:0,0:0:0:0:
318,218,29642,1,4,0:3:0:0:
318,218,29979,6,0,B|263:218|263:218|223:207|223:207|169:207,1,150,4|8,0:0|0:0,0:0:0:0:
169,108,30485,2,0,B|224:108|224:108|264:97|264:97|317:97,1,150,2|0,0:0|0:0,0:0:0:0:
397,154,30990,1,8,0:0:0:0:
419,248,31159,6,0,P|378:305|302:318,1,150,2|0,0:0|0:0,0:0:0:0:
251,234,31665,1,8,0:0:0:0:
199,151,31833,2,0,P|126:162|77:231,1,150,2|0,0:0|0:0,0:0:0:0:
159,319,32339,2,0,L|178:247,1,75,8|0,0:0|0:0,0:0:0:0:
199,151,32676,1,0,0:0:0:0:
296,161,32844,2,0,P|335:138|354:108,1,75,2|8,0:0|0:0,0:0:0:0:
457,199,33181,1,2,0:0:0:0:
457,199,33687,5,8,0:0:0:0:
421,289,33856,1,0,0:0:0:0:
325,309,34024,2,0,L|243:309,1,75,2|0,0:0|0:0,0:0:0:0:
131,228,34361,2,0,L|213:228,1,75,8|0,0:0|0:0,0:0:0:0:
337,329,34698,6,0,L|255:329,1,75,2|0,0:0|0:0,0:0:0:0:
119,208,35035,2,0,L|201:208,1,75,8|0,0:0|0:0,0:0:0:0:
291,208,35372,6,0,P|312:139|381:118,1,150,2|8,0:0|0:0,0:0:0:0:
455,182,35878,2,0,P|433:250|364:271,1,150,2|0,0:0|0:0,0:0:0:0:
291,208,36384,1,8,0:0:0:0:
291,208,36721,5,0,0:0:0:0:
198,175,36889,2,0,P|155:179|118:215,1,75,2|8,0:0|0:0,0:0:0:0:
88,285,37226,1,2,0:0:0:0:
281,305,37563,1,0,0:0:0:0:
281,305,37732,1,8,0:0:0:0:
291,208,37901,6,0,B|308:102|308:102|339:67,1,150,2|0,0:0|0:0,0:0:0:0:
484,51,38406,2,0,B|467:157|467:157|436:192,1,150,8|0,0:0|0:0,0:0:0:0:
281,305,39080,5,8,0:0:0:0:
281,305,39249,2,0,P|197:301|129:304,1,150,2|0,0:0|0:0,0:0:0:0:
43,257,39754,2,0,P|68:229|102:213,1,75,8|0,0:0|0:0,0:0:0:0:
195,223,40092,2,0,P|229:207|255:180,1,75,2|0,0:0|0:0,0:0:0:0:
171,129,40429,1,8,0:0:0:0:
196,223,40597,6,0,L|314:273,1,112.500004291535,4|0,0:0|0:0,0:0:0:0:
427,280,41103,2,0,L|379:216,1,56.2500021457673,2|0,0:0|0:0,0:0:0:0:
340,169,41440,1,8,0:0:0:0:
340,169,41777,5,0,0:0:0:0:
241,212,41945,2,0,P|186:219|131:212,1,112.500004291535,4|0,0:0|0:0,0:0:0:0:
158,90,42451,2,0,P|185:86|213:91,1,56.2500021457673,2|0,0:0|0:0,0:0:0:0:
281,141,42788,1,8,0:0:0:0:
410,249,43125,1,2,0:0:0:0:
410,249,43294,6,0,B|410:167|410:167|423:128,1,112.500004291535,4|0,0:0|0:0,0:0:0:0:
378,64,43799,2,0,L|326:96,1,56.2500021457673,2|0,0:0|0:0,0:0:0:0:
201,120,44136,2,0,L|232:68,2,56.2500021457673,8|0|0,0:0|0:0|0:0,0:0:0:0:
146,221,44642,6,0,P|200:192|258:206,1,112.500004291535,4|0,0:0|0:0,0:0:0:0:
303,265,45148,2,0,P|327:241|331:205,1,56.2500021457673,2|0,0:0|0:0,0:0:0:0:
210,279,45484,1,8,0:0:0:0:
110,127,45822,1,2,0:0:0:0:
110,127,45990,6,0,B|146:97|146:97|170:97|170:97|207:65,1,112.500004291535,4|0,0:0|0:0,0:0:0:0:
271,21,46496,2,0,P|298:24|323:37,1,56.2500021457673,2|0,0:0|0:0,0:0:0:0:
397,136,46833,2,0,P|369:133|344:120,1,56.2500021457673,8|0,0:0|0:0,0:0:0:0:
323,37,47170,1,0,0:0:0:0:
440,62,47339,6,0,P|477:113|466:178,1,112.500004291535,4|0,0:0|0:0,0:0:0:0:
438,237,47844,2,0,P|400:253|378:281,1,56.2500021457673,2|0,0:0|0:0,0:0:0:0:
298,364,48181,1,8,0:0:0:0:
298,364,48518,5,0,0:0:0:0:
241,271,48687,2,0,L|187:152,1,112.500004291535,4|0,0:0|0:0,0:0:0:0:
185,84,49193,2,0,L|257:94,1,56.2500021457673,2|0,0:0|0:0,0:0:0:0:
122,137,49530,2,0,L|50:147,1,56.2500021457673,8|0,0:0|0:0,0:0:0:0:
19,74,49867,1,0,0:0:0:0:
111,228,50035,1,4,0:0:0:0:
111,228,50372,5,8,0:0:0:0:
251,250,50541,1,8,0:0:0:0:
192,168,50709,1,8,0:0:0:0:
170,311,50878,5,12,0:0:0:0:
209,332,51215,5,4,0:0:0:0:
250,353,51552,6,0,P|308:311|393:329,1,150,4|8,0:0|0:0,0:0:0:0:
471,281,52058,2,0,L|427:197,1,75,2|0,0:0|0:0,0:0:0:0:
388,128,52395,1,0,0:0:0:0:
388,128,52563,1,8,0:0:0:0:
298,166,52732,6,0,P|231:172|161:128,1,150,2|0,0:0|0:0,0:0:0:0:
112,46,53238,1,8,0:0:0:0:
52,123,53406,2,0,L|80:222,1,75,2|0,0:0|0:0,0:0:0:0:
100,288,53743,1,0,0:0:0:0:
247,352,53911,1,8,0:0:0:0:
247,352,54249,6,0,P|296:298|369:293,1,150,4|8,0:0|0:0,0:0:0:0:
421,211,54754,2,0,P|405:171|425:116,1,75,2|0,0:0|0:0,0:0:0:0:
420,43,55092,2,0,P|382:52|321:46,1,75,2|8,0:0|0:0,0:0:0:0:
236,44,55429,6,0,P|247:117|236:191,1,150,2|0,0:0|0:0,0:0:0:0:
205,284,55934,1,8,0:0:0:0:
289,331,56103,2,0,L|383:301,1,75,2|0,0:0|0:0,0:0:0:0:
353,156,56440,2,8,L|317:233,1,75,2|8,0:0|0:0,0:0:0:0:
289,331,56777,1,0,0:0:0:0:
289,331,56945,6,0,P|210:295|183:242,1,150,4|8,0:0|0:0,0:0:0:0:
215,81,57451,2,0,P|224:138|208:167,1,75,0|0,0:0|0:0,0:0:0:0:
182,241,57788,1,2,0:0:0:0:
182,241,58125,6,0,P|274:239|354:244,1,150,2|0,0:0|0:0,0:0:0:0:
412,186,58631,1,8,0:0:0:0:
383,91,58799,2,0,P|349:77|312:74,1,75,2|0,0:0|0:0,0:0:0:0:
215,81,59136,1,0,0:0:0:0:
132,131,59305,1,8,0:0:0:0:
215,81,59474,1,0,0:0:0:0:
132,131,59642,6,0,L|132:281,1,150,4|8,0:0|0:0,0:0:0:0:
223,316,60148,2,0,P|231:279|222:243,1,75,2|0,0:0|0:0,0:0:0:0:
51,244,60485,2,0,P|42:280|51:316,1,75,2|8,0:0|0:0,0:0:0:0:
131,203,60822,6,0,P|151:131|132:60,1,150,4|8,0:0|0:0,0:0:0:0:
223,75,61327,2,0,L|318:51,1,75,8|0,0:0|0:0,0:0:0:0:
391,37,61665,1,2,0:0:0:0:
449,115,61833,2,0,L|440:175,5,37.5,8|8|8|8|8|8,0:0|0:0|0:0|0:0|0:0|0:0,0:0:0:0:
433,199,62339,6,0,P|334:224|305:281,1,150,4|8,0:0|0:0,0:0:0:0:
279,352,62844,2,0,L|217:288,1,75,2|0,0:0|0:0,0:0:0:0:
160,226,63181,1,0,0:0:0:0:
180,130,63350,1,8,0:0:0:0:
276,125,63518,6,0,L|254:197,1,75,2|0,0:0|0:0,0:0:0:0:
374,126,63856,2,0,L|347:28,1,75,2|8,0:0|0:0,0:0:0:0:
470,139,64193,2,0,P|435:203|365:224,1,150,2|0,0:0|0:0,0:0:0:0:
374,126,64698,1,8,0:0:0:0:
190,59,65035,6,0,B|139:82|132:135|132:135|67:135,1,150,4|8,0:0|0:0,0:0:0:0:
76,232,65541,2,0,L|168:232,1,75,2|0,0:0|0:0,0:0:0:0:
300,142,65878,2,0,L|225:142,1,75,2|8,0:0|0:0,0:0:0:0:
151,232,66215,5,4,0:0:0:0:
343,347,66552,1,2,0:0:0:0:
459,155,66889,1,2,0:0:0:0:
266,39,67226,1,2,0:0:0:0:
151,232,67563,1,2,0:0:0:0:
151,232,67732,6,0,P|223:215|295:232,2,150,4|8|0,0:0|0:0|0:0,0:0:0:0:
60,195,68575,2,0,L|60:110,1,75,0|8,0:0|0:0,0:0:0:0:
113,39,68912,6,0,P|186:28|253:59,1,150,2|0,0:0|0:0,0:0:0:0:
285,152,69417,2,0,L|364:133,1,75,8|0,0:0|0:0,0:0:0:0:
435,194,69754,2,0,L|418:246,3,37.5,8|8|8|8,0:0|0:0|0:0|0:0,0:0:0:0:
379,251,70092,2,0,L|362:303,3,37.5,8|8|8|8,0:0|0:0|0:0|0:0,0:0:0:0:
351,333,70429,6,0,B|252:310|252:310|199:332,1,150,4|0,0:0|0:0,0:0:0:0:
139,258,70934,2,0,L|210:228,1,75,4|0,0:0|0:0,0:0:0:0:
208,130,71271,2,0,L|295:144,1,75,2|0,0:0|0:0,0:0:0:0:
440,114,71608,6,0,L|353:100,1,75,6|0,0:0|0:0,0:0:0:0:
317,17,71945,2,0,L|240:45,1,75,2|0,0:0|0:0,0:0:0:0:
122,89,72283,2,0,P|113:124|116:162,1,75,2|0,0:0|0:0,0:0:0:0:
139,258,72620,1,2,0:0:0:0:
208,130,72788,5,4,0:0:0:0:
208,130,73125,6,0,L|307:119,1,75,4|0,0:0|0:0,0:0:0:0:
380,109,73462,1,8,0:0:0:0:
404,202,73631,2,0,P|388:236|358:260,1,75,2|0,0:0|0:0,0:0:0:0:
307,342,73968,2,0,P|252:344|220:332,1,75,2|8,0:0|0:0,0:0:0:0:
145,296,74305,1,4,0:0:0:0:
162,101,74642,6,0,L|246:101,2,75,0|8|0,0:0|0:0|0:0,0:0:0:0:
273,163,75148,2,0,P|309:101|272:39,1,150,2|8,0:0|0:0,0:0:0:0:
162,101,75653,1,0,0:0:0:0:
165,223,75822,6,0,L|316:302,1,150,4|8,0:0|0:0,0:0:0:0:
416,227,76327,2,0,P|379:218|343:226,1,75,2|0,0:0|0:0,0:0:0:0:
490,262,76665,2,0,P|498:225|488:188,1,75,2|8,0:0|0:0,0:0:0:0:
417,124,77002,1,4,0:0:0:0:
233,59,77339,5,0,0:0:0:0:
233,59,77507,2,0,L|194:135,1,75,8|0,0:0|0:0,0:0:0:0:
146,249,77844,2,0,P|198:237|304:256,1,150,2|8,0:0|0:0,0:0:0:0:
374,303,78350,1,0,0:0:0:0:
452,244,78518,6,0,P|462:189|412:93,1,150,4|8,0:0|0:0,0:0:0:0:
338,59,79024,2,0,P|302:66|265:58,1,75,2|0,0:0|0:0,0:0:0:0:
139,128,79361,2,0,P|176:120|213:128,1,75,2|0,0:0|0:0,0:0:0:0:
250,243,79698,6,0,P|176:255|102:243,1,150,4|0,0:0|0:0,0:0:0:0:
30,175,80204,1,8,0:0:0:0:
63,83,80372,1,0,0:0:0:0:
159,68,80541,2,0,B|211:68|211:68|253:102|303:88,1,150,2|8,0:0|0:0,0:0:0:0:
396,60,81047,6,0,B|401:111|401:111|384:153,1,75,0|4,0:0|0:0,0:0:0:0:
314,244,81384,2,0,B|309:193|309:193|326:151,2,75,2|0|0,0:0|0:0|0:0,0:0:0:0:
236,300,81889,2,0,B|168:240|168:240|136:248|109:240,1,150,2|0,0:0|0:0,0:0:0:0:
103,142,82395,6,0,P|140:134|176:141,1,75,4|0,0:0|0:0,0:0:0:0:
256,85,82732,2,0,P|309:109|330:144,1,75,2|8,0:0|0:0,0:0:0:0:
342,254,83069,2,0,P|289:230|268:195,1,75,2|0,0:0|0:0,0:0:0:0:
256,85,83406,1,2,0:0:0:0:
256,85,83911,5,2,0:0:0:0:
342,105,84080,2,0,L|387:17,2,75,8|8|0,0:0|0:0|0:0,0:0:0:0:
298,191,84585,1,8,0:0:0:0:
251,277,84754,2,0,B|208:258|200:211|200:211|141:233,1,150,10|4,0:0|0:0,0:0:0:0:
256,192,85175,12,0,88293,0:0:0:0:
