osu file format v12

[General]
AudioFilename: kill la kill op2.mp3
AudioLeadIn: 2000
PreviewTime: 52164
Countdown: 0
SampleSet: Soft
StackLeniency: 0.7
Mode: 0
LetterboxInBreaks: 0
WidescreenStoryboard: 0

[Editor]
DistanceSpacing: 0.9
BeatDivisor: 4
GridSize: 4
TimelineZoom: 1.2

[Metadata]
Title:ambiguous (TV Size)
TitleUnicode:ambiguous (TV Size)
Artist:GARNiDELiA
ArtistUnicode:GARNiDELiA
Creator:dalollypop
Version:Normal
Source:Kill la Kill
Tags:op opening 2 ryuko matoi mako Mankanshoku studio trigger satsuki kiryuin Four Devas student council Tagre Blaziken Nofool aonkub555
BeatmapID:365499
BeatmapSetID:147654

[Difficulty]
HPDrainRate:5
CircleSize:3
OverallDifficulty:5
ApproachRate:5
SliderMultiplier:1
SliderTickRate:1

[Events]
//Background and Video events
Video,0,"FormatFactoryklkop2.avi"
0,0,"kill_la_kill_kiryuuin_satsuki_matoi_ryuuko_4k_wallpaper_tatsujin_1v4.jpg",0,0
//Break Periods
//Storyboard Layer 0 (Background)
//Storyboard Layer 1 (Fail)
//Storyboard Layer 2 (Pass)
//Storyboard Layer 3 (Foreground)
//Storyboard Sound Samples
//Background Colour Transformations
3,100,163,162,255

[TimingPoints]
929,337.077817772778,4,2,0,50,1,0
9018,-100,4,1,0,60,0,0
19805,-133.333333333333,4,2,0,50,0,0
30591,-100,4,1,0,40,0,0
41378,-133.333333333333,4,2,0,50,0,0
46771,-100,4,1,0,60,0,0
52164,-100,4,1,0,70,0,1
73737,-100,4,1,0,60,0,0
85704,-100,4,2,0,40,0,0

[Colours]
Combo1 : 126,78,156
Combo2 : 189,47,71
Combo3 : 23,165,181
Combo4 : 105,153,158
Combo5 : 175,18,1

[HitObjects]
112,176,929,22,2,P|144:112|216:96,1,150
300,132,1771,1,2,0:0:0:0:
300,132,2108,1,2,0:0:0:0:
300,220,2445,2,0,P|284:264|240:300,2,100
164,232,3625,6,2,P|131:162|168:92,1,150
220,164,4467,1,2,0:0:0:0:
308,188,4805,2,0,P|340:232|392:240,1,100
388,152,5479,2,2,P|356:112|300:104,2,100
256,192,6322,12,4,8681,0:0:0:0:
373,244,9018,6,0,B|373:130|291:130,1,150
212,140,9861,1,0,0:0:0:0:
132,180,10198,1,0,0:0:0:0:
80,256,10535,2,0,L|40:200,2,50
108,292,11041,1,0,0:0:0:0:
196,316,11378,5,0,0:0:0:0:
196,316,11715,2,0,L|196:212,2,100,4|0|0,0:0|0:0|0:0,0:0:0:0:
316,320,12895,2,0,P|375:338|464:312,1,150
452,228,13738,1,0,0:0:0:0:
364,228,14075,1,0,0:0:0:0:
408,152,14412,5,4,0:0:0:0:
324,128,14749,2,0,P|344:88|396:68,1,100
276,136,15591,2,0,B|200:136|200:136|120:296,1,250,4|0,0:0|0:0,0:0:0:0:
200,336,16771,5,0,0:0:0:0:
200,336,17108,2,0,B|276:336|276:336|336:212,1,200,4|0,0:0|0:0,0:0:0:0:
372,96,18288,2,0,P|314:114|256:192,1,150,4|0,0:0|0:0,0:0:0:0:
244,224,18962,2,0,P|190:237|143:219,1,100
104,132,19805,6,2,P|176:120|252:148,1,150.000005722046
300,192,20816,1,0,0:0:0:0:
300,192,21153,1,0,0:0:0:0:
356,232,21490,2,2,L|304:304,2,75.0000028610231
384,172,22502,1,2,0:0:0:0:
376,104,22839,1,2,0:0:0:0:
340,48,23176,1,2,0:0:0:0:
272,36,23513,6,0,P|232:36|184:52,1,75.0000028610231
164,104,24187,2,0,L|124:184,1,75.0000028610231
116,236,24861,1,0,0:0:0:0:
116,236,25198,2,0,B|180:324|248:176|332:264,1,225.000008583069,2|0,0:3|0:3,0:3:0:0:
392,144,26884,5,0,0:0:0:0:
340,104,27221,1,0,0:0:0:0:
276,80,27558,2,0,B|184:56|148:128,1,150.000005722046
168,192,28569,1,0,0:0:0:0:
204,248,28906,2,0,B|268:340|268:340|336:244,1,225.000008583069
376,196,30254,1,0,0:0:0:0:
336,116,30591,6,8,L|272:24|272:24,1,100
192,60,31266,2,8,L|120:128,1,100
176,200,31940,2,8,L|176:312,1,100
176,344,32445,1,8,0:0:0:0:
308,312,32951,5,0,0:0:0:0:
308,312,33120,2,0,B|388:310|388:310|464:156,1,250,0|4,0:0|0:0,0:0:0:0:
472,68,34299,1,0,0:0:0:0:
384,68,34636,2,0,B|304:70|304:70|252:188,1,200
244,268,35648,1,4,0:0:0:0:
156,268,35985,5,0,0:0:0:0:
68,264,36322,2,0,P|4:208|76:148,1,200
164,148,37333,2,0,L|268:148,1,100
352,152,38007,2,0,L|352:256,1,100
352,340,38681,6,0,L|244:340,1,100
168,304,39355,1,0,0:0:0:0:
168,212,39693,2,8,L|168:104,2,100
168,304,40704,1,8,0:0:0:0:
296,260,41209,6,4,P|396:288|360:196,1,250,4|8,0:0|0:0,0:0:0:0:
300,164,42389,2,8,L|300:80,2,75.0000028610231
132,152,43906,6,8,P|52:132|68:216,1,187.500007152558
112,252,45086,2,8,L|112:336,2,75.0000028610231
180,252,46097,1,8,0:0:0:0:
240,336,46603,6,4,P|344:328|376:224,1,225.000008583069,4|0,0:0|0:0,0:0:0:0:
304,168,47951,1,0,0:0:0:0:
216,168,48288,6,0,P|200:212|224:264,2,100
304,168,49299,2,0,P|320:208|296:264,2,100
260,92,50310,1,0,0:0:0:0:
256,192,50647,12,4,51827,0:0:0:0:
104,304,52164,6,0,P|120:240|156:200,1,100
172,184,52670,2,0,B|220:160|220:160|276:184,1,100
336,232,53344,1,0,0:0:0:0:
412,284,53681,2,0,B|468:212|468:212|404:164|404:164|404:72,1,250
320,56,54861,6,0,P|256:72|216:108,1,100
204,128,55367,2,0,B|180:176|180:176|204:232,1,100
252,292,56041,1,0,0:0:0:0:
76,264,56715,6,0,L|76:144,1,100
148,108,57389,2,0,P|220:92|304:108,1,150
336,128,58063,1,0,0:0:0:0:
372,152,58232,6,0,P|416:208|365:275,1,150,0|4,0:0|0:0,0:0:0:0:
232,164,59412,5,0,0:0:0:0:
156,212,59749,2,0,L|188:264,2,50
116,232,60254,2,0,P|88:276|108:320,1,100
148,332,60760,1,0,0:0:0:0:
236,336,61097,1,0,0:0:0:0:
325,330,61435,2,0,P|363:222|317:130,1,200
308,120,62277,1,0,0:0:0:0:
136,156,62951,5,2,0:0:0:0:
136,244,63288,1,2,0:0:0:0:
136,244,63457,2,0,L|24:244,2,100,2|2|2,0:0|0:0|0:0,0:0:0:0:
224,260,64468,1,2,0:0:0:0:
308,292,64805,1,0,0:0:0:0:
392,324,65142,2,0,P|440:284|440:200,1,150
360,160,65985,5,8,0:0:0:0:
360,160,66153,2,0,P|312:180|280:216,2,100,0|8|4,0:0|0:0|0:0,0:0:0:0:
284,104,67164,2,0,P|325:82|378:77,2,100,0|4|0,0:0|0:0|0:0,0:0:0:0:
200,188,68176,5,0,0:0:0:0:
200,188,68344,2,0,P|128:132|212:116,1,200,12|4,0:0|0:0,0:0:0:0:
284,104,69355,2,0,P|384:136|312:228,1,250,8|0,0:0|0:0,0:0:0:0:
284,104,70704,6,0,L|284:32,1,50
240,56,71041,2,0,P|164:140|236:232,1,250,4|0,0:0|0:0,0:0:0:0:
324,220,72220,2,0,P|372:124|316:60,1,200,4|4,0:0|0:0,0:0:0:0:
272,140,73231,1,0,0:0:0:0:
272,276,73737,1,0,0:0:0:0:
88,224,75760,6,0,P|136:280|172:276,1,100
176,192,76435,2,0,P|252:148|332:312,1,300
88,160,78456,6,0,P|136:104|172:108,1,100
176,192,79131,2,0,P|252:236|332:72,1,300
132,168,80984,6,8,P|156:88|236:72,1,150
256,196,81996,1,0,0:0:0:0:
184,312,82501,2,8,P|256:336|324:316,1,150
344,228,83344,1,0,0:0:0:0:
344,140,83681,1,0,0:0:0:0:
260,108,84018,6,8,P|192:132|173:217,1,150
184,292,84861,1,0,0:0:0:0:
256,240,85198,2,0,L|256:180|256:180,1,50
256,192,85704,12,0,88569,0:0:0:0:
