osu file format v14

[General]
AudioFilename: mirai.mp3
AudioLeadIn: 452
PreviewTime: 60704
Countdown: 0
SampleSet: Soft
StackLeniency: 0.7
Mode: 0
LetterboxInBreaks: 0
WidescreenStoryboard: 0

[Editor]
DistanceSpacing: 1.8
BeatDivisor: 4
GridSize: 4
TimelineZoom: 1

[Metadata]
Title:MIRAI (TV size ver.)
TitleUnicode:MIRAI (TV size ver.)
Artist:GARNiDELiA
ArtistUnicode:GARNiDELiA
Creator:Kocari
Version:Easy
Source:ガンスリンガー ストラトス -THE ANIMATION-
Tags:MARiA Mizuhashi Mai toku ending gunslinger stratos guineaQ Kibbleru
BeatmapID:681668
BeatmapSetID:303113

[Difficulty]
HPDrainRate:2
CircleSize:2.5
OverallDifficulty:2.5
ApproachRate:3
SliderMultiplier:1
SliderTickRate:1

[Events]
//Background and Video events
Video,657,"video.flv"
0,0,"BG.jpg",0,0
//Break Periods
//Storyboard Layer 0 (Background)
//Storyboard Layer 1 (Fail)
//Storyboard Layer 2 (Pass)
//Storyboard Layer 3 (Foreground)
//Storyboard Sound Samples

[TimingPoints]
1548,750,4,2,1,35,1,0
11673,-100,4,2,1,35,0,0
25548,-100,4,2,1,45,0,0
37548,-100,4,2,1,55,0,0
58548,-100,4,2,1,65,0,0
61548,-100,4,2,1,75,0,1
85548,-100,4,2,1,25,0,0

[Colours]
Combo1 : 255,255,202
Combo2 : 241,135,138
Combo3 : 199,244,97
Combo4 : 130,238,253

[HitObjects]
80,308,1548,6,0,P|128:324|192:304,1,100,2|0,0:0|0:0,0:0:0:0:
132,236,2673,2,0,L|132:120,1,100,2|0,0:0|0:0,0:0:0:0:
132,46,3798,1,0,0:0:0:0:
289,136,4548,6,0,L|389:136,1,100,2|0,0:0|0:0,0:0:0:0:
464,86,5673,2,0,P|480:138|464:190,1,100,2|0,0:0|0:0,0:0:0:0:
433,264,6798,1,0,0:0:0:0:
262,320,7548,6,0,L|162:320,1,100,2|0,0:0|0:0,0:0:0:0:
83,277,8673,2,0,P|67:229|75:173,1,100,2|0,0:0|0:0,0:0:0:0:
60,91,9798,2,0,L|116:79,1,50
196,100,10548,6,0,B|240:84|240:84|288:120|348:100,1,150,2|2,0:0|0:0,0:0:0:0:
112,76,13548,6,0,L|104:184,1,100,2|0,0:0|0:0,0:0:0:0:
152,252,14673,2,0,P|208:244|304:268,1,150,2|0,0:0|0:0,0:0:0:0:
388,267,16173,1,0,0:0:0:0:
452,204,16548,6,0,P|472:132|464:57,2,150,2|2|0,0:0|0:0|0:0,0:0:0:0:
388,267,19173,1,0,0:0:0:0:
325,203,19548,6,0,P|304:131|312:56,2,150,2|2|0,0:0|0:0|0:0,0:0:0:0:
273,277,22173,1,0,0:0:0:0:
216,344,22548,2,0,B|196:328|140:348|140:348|88:328|64:340,1,150,2|2,0:0|0:0,0:0:0:0:
20,164,24423,2,0,L|32:96,1,50
200,60,25548,6,0,P|268:32|340:68,2,150,2|0|2,0:2|0:0|0:0,0:0:0:0:
268,120,28173,1,0,0:0:0:0:
268,208,28548,2,0,L|268:308,1,100,2|0,0:0|0:0,0:0:0:0:
356,308,29673,2,0,L|355:188,1,100,2|0,0:0|0:0,0:0:0:0:
391,126,30798,2,0,P|403:94|403:62,1,50,2|0,0:0|0:0,0:0:0:0:
314,77,31548,6,0,P|270:61|210:81,1,100,2|0,0:0|0:0,0:0:0:0:
139,113,32673,1,2,0:0:0:0:
92,36,33048,1,0,0:0:0:0:
38,108,33423,2,0,L|38:172,1,50,0|2,0:0|0:0,0:0:0:0:
100,223,34173,1,0,0:0:0:0:
184,192,34548,2,0,B|204:176|260:196|260:196|312:176|336:188,1,150,2|2,0:0|0:0,0:0:0:0:
448,340,37548,6,0,L|456:236,1,100,2|0,0:3|0:0,0:0:0:0:
437,152,38673,2,0,P|389:136|325:152,1,100,2|0,0:0|0:0,0:0:0:0:
265,192,39798,2,0,L|215:189,1,50,8|2,0:0|0:3,0:0:0:0:
148,129,40548,6,0,P|125:174|129:223,2,100,2|2|0,0:3|0:0|0:0,0:0:0:0:
210,64,42423,1,2,0:3:0:0:
270,131,42798,2,0,L|342:135,1,50,8|0,0:0|0:0,0:0:0:0:
409,148,43548,6,0,B|421:200|421:200|405:248,2,100,2|2|0,0:3|0:0|0:0,0:0:0:0:
376,64,45423,1,0,0:0:0:0:
319,132,45798,2,0,L|269:129,1,50,8|2,0:0|0:3,0:0:0:0:
193,81,46548,6,0,B|165:133|197:185|197:185|172:232|192:280,1,200,2|0,0:3|0:0,0:0:0:0:
272,236,48423,1,2,0:3:0:0:
351,193,48798,2,0,L|412:194,1,50,8|0,0:0|0:0,0:0:0:0:
472,139,49548,6,0,P|372:99|272:143,1,200,4|0,0:1|0:0,0:0:0:0:
208,89,51423,1,2,0:3:0:0:
148,156,51798,2,0,L|145:205,1,50,8|0,0:0|0:0,0:0:0:0:
108,288,52548,5,4,0:1:0:0:
235,160,53298,1,8,0:0:0:0:
364,288,54048,1,2,0:3:0:0:
490,159,54798,2,0,L|390:159,1,100,8|4,0:0|0:1,0:0:0:0:
267,28,56298,6,0,L|167:28,1,100,0|0,0:0|0:1,0:0:0:0:
84,63,57423,1,0,0:0:0:0:
18,124,57798,2,0,P|6:164|18:232,2,100,0|8|0,0:0|0:0|0:0,0:0:0:0:
84,64,59673,2,0,P|132:48|188:56,1,100,8|2,0:0|0:3,0:0:0:0:
240,120,60798,2,0,L|300:116,1,50,8|0,0:0|0:0,0:0:0:0:
353,180,61548,6,0,B|364:232|364:232|352:288,1,100,4|8,0:1|0:0,0:0:0:0:
288,340,62673,2,0,P|356:312|436:348,1,150,4|8,0:1|0:0,0:0:0:0:
478,265,64173,1,0,0:0:0:0:
488,176,64548,6,0,B|492:124|492:124|464:76,1,100,4|8,0:1|0:0,0:0:0:0:
391,35,65673,2,0,P|347:55|279:43,1,100,4|2,0:1|0:3,0:0:0:0:
216,8,66798,1,8,0:0:0:0:
153,72,67173,1,0,0:0:0:0:
88,134,67548,6,0,L|79:243,1,100,4|0,0:1|0:0,0:0:0:0:
143,297,68673,2,0,P|215:269|303:297,1,150,4|8,0:1|0:0,0:0:0:0:
364,325,70173,1,0,0:0:0:0:
418,253,70548,6,0,P|434:205|430:156,1,100,4|0,0:1|0:0,0:0:0:0:
380,84,71673,2,0,B|308:44|236:84,1,150,4|8,0:1|0:0,0:0:0:0:
173,19,73173,1,0,0:0:0:0:
109,82,73548,6,0,B|101:107|101:107|117:163|117:163|111:177,1,100,4|0,0:1|0:0,0:0:0:0:
40,232,74673,2,0,P|88:264|180:232,1,150,4|8,0:1|0:0,0:0:0:0:
258,215,76173,1,0,0:0:0:0:
305,292,76548,6,0,P|341:248|342:191,1,100,4|0,0:1|0:0,0:0:0:0:
303,127,77673,2,0,B|259:111|259:111|199:131,1,100,4|2,0:1|0:3,0:0:0:0:
123,155,78798,1,8,0:0:0:0:
68,84,79173,1,2,0:3:0:0:
14,156,79548,6,0,L|10:258,1,100,4|0,0:1|0:0,0:0:0:0:
75,319,80673,2,0,P|123:335|179:335,1,100,4|2,0:1|0:3,0:0:0:0:
235,272,81798,1,8,0:0:0:0:
298,335,82173,1,0,0:0:0:0:
361,271,82548,2,0,P|373:243|385:159,1,100,4|8,0:1|0:0,0:0:0:0:
256,192,83673,12,4,85548,0:1:0:0:
