osu file format v14

[General]
AudioFilename: Gokuraku Jodo.mp3
AudioLeadIn: 0
PreviewTime: 179530
Countdown: 0
SampleSet: Soft
StackLeniency: 0.7
Mode: 3
LetterboxInBreaks: 0
SpecialStyle: 0
WidescreenStoryboard: 0

[Editor]
DistanceSpacing: 2
BeatDivisor: 4
GridSize: 4
TimelineZoom: 1.2

[Metadata]
Title:Gokuraku Jodo
TitleUnicode:極楽浄土
Artist:GARNiDELiA
ArtistUnicode:GARNiDELiA
Creator:SanadaYukimura
Version:Elysium
Source:
Tags:約束 -Promise code-
BeatmapID:1045200
BeatmapSetID:490357

[Difficulty]
HPDrainRate:8.5
CircleSize:4
OverallDifficulty:8.5
ApproachRate:5
SliderMultiplier:1.4
SliderTickRate:1

[Events]
//Background and Video events
0,0,"Jodo.jpg",0,0
//Break Periods
//Storyboard Layer 0 (Background)
//Storyboard Layer 1 (Fail)
//Storyboard Layer 2 (Pass)
//Storyboard Layer 3 (Foreground)
//Storyboard Sound Samples

[TimingPoints]
447,458.015267175573,4,2,1,45,1,0
60905,-100,4,2,1,45,0,1
75103,-100,4,2,1,45,0,0
101210,-200,4,2,1,45,0,0
101324,-66.6666666666667,4,2,1,45,0,0
101439,-100,4,2,1,45,0,0
102126,-200,4,2,1,45,0,0
102240,-66.6666666666667,4,2,1,45,0,0
102355,-100,4,2,1,45,0,0
103042,-200,4,2,1,45,0,0
103156,-66.6666666666667,4,2,1,45,0,0
103271,-200,4,2,1,45,0,0
103385,-66.6666666666667,4,2,1,45,0,0
103500,-200,4,2,1,45,0,0
103614,-66.6666666666667,4,2,1,45,0,0
103729,-200,4,2,1,45,0,0
103843,-66.6666666666667,4,2,1,45,0,0
103958,-100,4,2,1,45,0,0
119530,-100,4,2,1,45,0,1
133729,-100,4,2,1,45,0,0
179530,-333.333333333333,4,2,1,45,0,0
179874,-58.8235294117647,4,2,1,45,0,0
179988,-100,4,2,1,45,0,1
194645,-100,4,2,1,45,0,0

[HitObjects]
448,192,447,128,0,905:0:0:0:0:
192,192,905,128,0,1363:0:0:0:0:
320,192,1363,128,0,1821:0:0:0:0:
448,192,1821,1,0,0:0:0:0:
64,192,1821,128,0,2279:0:0:0:0:
320,192,2050,1,0,0:0:0:0:
192,192,2279,1,2,0:0:0:0:
448,192,2279,1,0,0:0:0:0:
192,192,2508,1,0,0:0:0:0:
320,192,2622,1,0,0:0:0:0:
64,192,2737,1,0,0:0:0:0:
192,192,2851,1,0,0:0:0:0:
320,192,2966,1,0,0:0:0:0:
448,192,2966,1,0,0:0:0:0:
192,192,3195,1,0,0:0:0:0:
64,192,3195,1,0,0:0:0:0:
320,192,3424,1,0,0:0:0:0:
192,192,3538,1,0,0:0:0:0:
448,192,3653,1,0,0:0:0:0:
320,192,3767,1,0,0:0:0:0:
192,192,3882,1,0,0:0:0:0:
64,192,3882,1,0,0:0:0:0:
320,192,4111,1,0,0:0:0:0:
448,192,4111,1,0,0:0:0:0:
64,192,4340,1,0,0:0:0:0:
448,192,4340,1,0,0:0:0:0:
192,192,4569,1,0,0:0:0:0:
64,192,4569,1,0,0:0:0:0:
320,192,4798,1,0,0:0:0:0:
448,192,4798,1,0,0:0:0:0:
64,192,5027,1,0,0:0:0:0:
192,192,5027,1,0,0:0:0:0:
320,192,5256,1,0,0:0:0:0:
192,192,5370,1,0,0:0:0:0:
64,192,5485,1,0,0:0:0:0:
448,192,5485,1,0,0:0:0:0:
320,192,5599,1,0,0:0:0:0:
192,192,5714,1,0,0:0:0:0:
64,192,5714,1,0,0:0:0:0:
320,192,5828,1,0,0:0:0:0:
64,192,5943,1,0,0:0:0:0:
448,192,5943,1,0,0:0:0:0:
320,192,6172,1,0,0:0:0:0:
192,192,6286,1,0,0:0:0:0:
448,192,6401,1,0,0:0:0:0:
320,192,6515,1,0,0:0:0:0:
192,192,6630,1,0,0:0:0:0:
64,192,6630,1,0,0:0:0:0:
320,192,6859,1,0,0:0:0:0:
448,192,6859,1,0,0:0:0:0:
192,192,7088,1,0,0:0:0:0:
320,192,7202,1,0,0:0:0:0:
64,192,7317,1,0,0:0:0:0:
192,192,7431,1,0,0:0:0:0:
320,192,7546,1,0,0:0:0:0:
448,192,7546,1,0,0:0:0:0:
192,192,7775,1,0,0:0:0:0:
64,192,7775,1,0,0:0:0:0:
64,192,8004,1,0,0:0:0:0:
448,192,8004,1,0,0:0:0:0:
448,192,8233,1,0,0:0:0:0:
320,192,8233,1,0,0:0:0:0:
192,192,8462,1,0,0:0:0:0:
64,192,8462,1,0,0:0:0:0:
320,192,8691,1,0,0:0:0:0:
448,192,8691,1,0,0:0:0:0:
192,192,8920,1,0,0:0:0:0:
320,192,9034,1,0,0:0:0:0:
448,192,9149,1,0,0:0:0:0:
64,192,9149,1,0,0:0:0:0:
192,192,9263,1,0,0:0:0:0:
320,192,9378,1,0,0:0:0:0:
448,192,9378,1,0,0:0:0:0:
192,192,9492,1,0,0:0:0:0:
64,192,9607,1,0,0:0:0:0:
448,192,9607,1,0,0:0:0:0:
64,192,9836,128,0,10065:0:0:0:0:
192,192,9836,1,0,0:0:0:0:
192,192,10065,1,8,0:0:0:0:
448,192,10065,1,0,0:0:0:0:
64,192,10294,128,0,10523:0:0:0:0:
320,192,10294,1,0,0:0:0:0:
192,192,10523,1,0,0:0:0:0:
64,192,10752,128,0,10981:0:0:0:0:
448,192,10752,1,0,0:0:0:0:
320,192,10981,1,8,0:0:0:0:
192,192,10981,1,0,0:0:0:0:
64,192,11210,128,0,11439:0:0:0:0:
448,192,11210,1,0,0:0:0:0:
192,192,11439,1,0,0:0:0:0:
320,192,11668,1,0,0:0:0:0:
448,192,11668,128,0,11897:0:0:0:0:
320,192,11897,1,8,0:0:0:0:
64,192,11897,1,0,0:0:0:0:
448,192,12126,128,0,12355:0:0:0:0:
192,192,12126,1,0,0:0:0:0:
320,192,12355,1,0,0:0:0:0:
448,192,12584,128,0,12813:0:0:0:0:
64,192,12584,1,0,0:0:0:0:
192,192,12813,1,8,0:0:0:0:
320,192,12813,1,0,0:0:0:0:
448,192,13042,128,0,13271:0:0:0:0:
64,192,13042,1,0,0:0:0:0:
192,192,13271,1,8,0:0:0:0:
64,192,13271,1,0,0:0:0:0:
320,192,13500,1,0,0:0:0:0:
64,192,13729,1,8,0:0:0:0:
192,192,13729,1,0,0:0:0:0:
448,192,13958,1,0,0:0:0:0:
64,192,14187,1,8,0:0:0:0:
320,192,14187,1,0,0:0:0:0:
192,192,14416,1,0,0:0:0:0:
448,192,14645,1,8,0:0:0:0:
320,192,14645,1,0,0:0:0:0:
64,192,14874,1,0,0:0:0:0:
448,192,15103,1,8,0:0:0:0:
320,192,15103,1,2,0:0:0:0:
64,192,15332,1,0,0:0:0:0:
448,192,15447,1,0,0:0:0:0:
320,192,15504,1,0,0:0:0:0:
192,192,15561,1,2,0:0:0:0:
64,192,15561,1,0,0:0:0:0:
320,192,15790,1,2,0:0:0:0:
448,192,15790,1,0,0:0:0:0:
192,192,16019,1,2,0:0:0:0:
64,192,16019,1,0,0:0:0:0:
448,192,16248,1,0,0:0:0:0:
448,192,16477,1,2,0:0:0:0:
320,192,16477,1,4,0:0:0:0:
192,192,16477,1,0,0:0:0:0:
64,192,16477,1,0,0:0:0:0:
192,192,16935,1,2,0:0:0:0:
448,192,16935,1,0,0:0:0:0:
64,192,16935,128,0,17279:0:0:0:0:
448,192,17164,1,0,0:0:0:0:
64,192,17393,128,2,17737:0:0:0:0:
192,192,17393,1,0,0:0:0:0:
320,192,17622,1,0,0:0:0:0:
64,192,17851,128,2,18195:0:0:0:0:
192,192,17851,1,0,0:0:0:0:
448,192,18080,1,0,0:0:0:0:
448,192,18309,1,2,0:0:0:0:
64,192,18309,1,0,0:0:0:0:
320,192,18424,1,0,0:0:0:0:
192,192,18538,1,0,0:0:0:0:
64,192,18538,1,0,0:0:0:0:
320,192,18653,1,0,0:0:0:0:
448,192,18653,1,0,0:0:0:0:
192,192,18767,1,2,0:0:0:0:
64,192,18767,128,0,19111:0:0:0:0:
448,192,18996,1,0,0:0:0:0:
192,192,19225,1,2,0:0:0:0:
64,192,19225,128,0,19569:0:0:0:0:
448,192,19454,1,0,0:0:0:0:
64,192,19683,1,2,0:0:0:0:
192,192,19683,1,0,0:0:0:0:
448,192,19912,1,0,0:0:0:0:
64,192,20141,1,2,0:0:0:0:
448,192,20141,1,0,0:0:0:0:
192,192,20370,1,0,0:0:0:0:
448,192,20599,128,2,20943:0:0:0:0:
320,192,20599,1,0,0:0:0:0:
64,192,20828,1,0,0:0:0:0:
448,192,21057,128,2,21401:0:0:0:0:
320,192,21057,1,0,0:0:0:0:
192,192,21286,1,0,0:0:0:0:
448,192,21515,128,2,21859:0:0:0:0:
320,192,21515,1,0,0:0:0:0:
64,192,21744,1,0,0:0:0:0:
448,192,21973,1,2,0:0:0:0:
64,192,21973,1,0,0:0:0:0:
192,192,22088,1,0,0:0:0:0:
320,192,22202,1,0,0:0:0:0:
448,192,22202,1,0,0:0:0:0:
192,192,22317,1,0,0:0:0:0:
64,192,22317,1,0,0:0:0:0:
320,192,22431,1,2,0:0:0:0:
448,192,22431,128,0,22775:0:0:0:0:
64,192,22660,1,0,0:0:0:0:
320,192,22889,1,2,0:0:0:0:
448,192,22889,128,0,23233:0:0:0:0:
64,192,23118,1,0,0:0:0:0:
64,192,23347,1,2,0:0:0:0:
192,192,23405,1,0,0:0:0:0:
448,192,23462,1,0,0:0:0:0:
320,192,23519,1,0,0:0:0:0:
64,192,23576,1,0,0:0:0:0:
192,192,23634,1,0,0:0:0:0:
448,192,23691,1,0,0:0:0:0:
320,192,23748,1,0,0:0:0:0:
64,192,23805,1,2,0:0:0:0:
192,192,23863,1,0,0:0:0:0:
448,192,23920,1,0,0:0:0:0:
320,192,23977,1,0,0:0:0:0:
64,192,24034,1,0,0:0:0:0:
192,192,24092,1,0,0:0:0:0:
320,192,24149,1,0,0:0:0:0:
64,192,24263,1,2,0:0:0:0:
448,192,24263,1,4,0:0:0:0:
192,192,24263,1,0,0:0:0:0:
320,192,24492,1,0,0:0:0:0:
448,192,24721,1,2,0:0:0:0:
64,192,24721,1,0,0:0:0:0:
192,192,24721,1,0,0:0:0:0:
192,192,24950,1,0,0:0:0:0:
320,192,25179,1,2,0:0:0:0:
448,192,25179,1,0,0:0:0:0:
64,192,25179,1,0,0:0:0:0:
320,192,25408,1,0,0:0:0:0:
192,192,25637,1,2,0:0:0:0:
64,192,25637,1,0,0:0:0:0:
448,192,25637,1,0,0:0:0:0:
320,192,25752,1,0,0:0:0:0:
192,192,25866,1,2,0:0:0:0:
320,192,25981,1,0,0:0:0:0:
192,192,26095,1,2,0:0:0:0:
448,192,26095,1,0,0:0:0:0:
64,192,26095,1,0,0:0:0:0:
320,192,26324,1,0,0:0:0:0:
448,192,26553,1,2,0:0:0:0:
64,192,26553,1,0,0:0:0:0:
192,192,26553,1,0,0:0:0:0:
320,192,26782,1,0,0:0:0:0:
192,192,26897,1,0,0:0:0:0:
64,192,27011,1,2,0:0:0:0:
448,192,27011,1,0,0:0:0:0:
320,192,27011,1,0,0:0:0:0:
192,192,27240,1,0,0:0:0:0:
448,192,27469,1,2,0:0:0:0:
64,192,27469,1,0,0:0:0:0:
320,192,27469,1,0,0:0:0:0:
320,192,27698,1,0,0:0:0:0:
64,192,27927,1,2,0:0:0:0:
448,192,27927,1,0,0:0:0:0:
192,192,27927,1,0,0:0:0:0:
320,192,28156,1,0,0:0:0:0:
448,192,28156,1,0,0:0:0:0:
320,192,28385,1,2,0:0:0:0:
192,192,28385,1,0,0:0:0:0:
64,192,28385,1,0,0:0:0:0:
64,192,28614,1,0,0:0:0:0:
448,192,28614,1,0,0:0:0:0:
192,192,28729,1,0,0:0:0:0:
320,192,28843,1,2,0:0:0:0:
448,192,28843,1,0,0:0:0:0:
64,192,28843,1,0,0:0:0:0:
192,192,28958,1,0,0:0:0:0:
320,192,29072,1,0,0:0:0:0:
448,192,29072,1,0,0:0:0:0:
64,192,29301,1,2,0:0:0:0:
192,192,29301,1,0,0:0:0:0:
448,192,29301,1,0,0:0:0:0:
320,192,29416,1,0,0:0:0:0:
448,192,29530,1,0,0:0:0:0:
64,192,29530,1,0,0:0:0:0:
192,192,29645,1,0,0:0:0:0:
64,192,29759,1,2,0:0:0:0:
448,192,29759,1,4,0:0:0:0:
320,192,29759,1,0,0:0:0:0:
64,192,29988,1,0,0:0:0:0:
320,192,30103,1,0,0:0:0:0:
192,192,30160,1,0,0:0:0:0:
448,192,30217,1,2,0:0:0:0:
64,192,30217,1,0,0:0:0:0:
320,192,30447,1,2,0:0:0:0:
192,192,30447,1,0,0:0:0:0:
192,192,30676,1,2,0:0:0:0:
64,192,30676,1,0,0:0:0:0:
448,192,30676,1,0,0:0:0:0:
320,192,30905,1,0,0:0:0:0:
192,192,31134,1,2,0:0:0:0:
64,192,31134,128,0,31592:0:0:0:0:
448,192,31592,1,2,0:0:0:0:
192,192,31592,1,0,0:0:0:0:
320,192,31821,1,0,0:0:0:0:
64,192,32050,1,2,0:0:0:0:
448,192,32050,1,0,0:0:0:0:
320,192,32164,1,0,0:0:0:0:
192,192,32279,1,0,0:0:0:0:
64,192,32508,1,2,0:0:0:0:
448,192,32508,1,0,0:0:0:0:
192,192,32622,1,0,0:0:0:0:
320,192,32737,1,0,0:0:0:0:
448,192,32966,1,2,0:0:0:0:
64,192,32966,1,0,0:0:0:0:
320,192,33080,1,0,0:0:0:0:
192,192,33195,1,0,0:0:0:0:
64,192,33424,1,2,0:0:0:0:
320,192,33424,1,0,0:0:0:0:
192,192,33538,1,0,0:0:0:0:
320,192,33653,1,0,0:0:0:0:
448,192,33882,1,2,0:0:0:0:
192,192,33882,1,0,0:0:0:0:
320,192,33996,1,0,0:0:0:0:
192,192,34111,1,0,0:0:0:0:
64,192,34340,1,2,0:0:0:0:
320,192,34340,1,0,0:0:0:0:
192,192,34454,1,0,0:0:0:0:
320,192,34569,1,0,0:0:0:0:
448,192,34798,1,2,0:0:0:0:
192,192,34798,1,0,0:0:0:0:
320,192,34912,1,0,0:0:0:0:
192,192,35027,1,0,0:0:0:0:
448,192,35256,1,2,0:0:0:0:
64,192,35256,1,0,0:0:0:0:
320,192,35370,1,0,0:0:0:0:
192,192,35485,1,0,0:0:0:0:
448,192,35714,1,2,0:0:0:0:
64,192,35714,1,0,0:0:0:0:
192,192,35828,1,0,0:0:0:0:
320,192,35943,1,0,0:0:0:0:
448,192,36172,1,2,0:0:0:0:
64,192,36172,1,0,0:0:0:0:
320,192,36286,1,0,0:0:0:0:
192,192,36401,1,0,0:0:0:0:
64,192,36630,1,2,0:0:0:0:
448,192,36630,1,0,0:0:0:0:
192,192,36744,1,0,0:0:0:0:
320,192,36859,1,0,0:0:0:0:
192,192,37088,1,2,0:0:0:0:
64,192,37088,128,0,37317:0:0:0:0:
448,192,37317,1,0,0:0:0:0:
448,192,37546,128,2,37775:0:0:0:0:
320,192,37546,1,0,0:0:0:0:
64,192,37775,1,0,0:0:0:0:
64,192,38004,128,2,38462:0:0:0:0:
192,192,38004,1,0,0:0:0:0:
448,192,38233,1,0,0:0:0:0:
448,192,38462,128,2,38920:0:0:0:0:
320,192,38462,1,0,0:0:0:0:
64,192,38691,1,0,0:0:0:0:
320,192,38920,1,2,0:0:0:0:
64,192,38920,1,4,0:0:0:0:
192,192,38920,1,0,0:0:0:0:
320,192,39149,1,0,0:0:0:0:
448,192,39378,1,2,0:0:0:0:
192,192,39378,1,0,0:0:0:0:
320,192,39492,1,0,0:0:0:0:
192,192,39607,1,0,0:0:0:0:
64,192,39836,1,2,0:0:0:0:
320,192,39836,1,0,0:0:0:0:
192,192,39950,1,0,0:0:0:0:
320,192,40065,1,0,0:0:0:0:
192,192,40294,1,2,0:0:0:0:
448,192,40294,1,0,0:0:0:0:
320,192,40408,1,0,0:0:0:0:
192,192,40523,1,0,0:0:0:0:
64,192,40752,1,2,0:0:0:0:
448,192,40752,1,0,0:0:0:0:
192,192,40866,1,0,0:0:0:0:
320,192,40981,1,0,0:0:0:0:
64,192,41210,1,2,0:0:0:0:
448,192,41210,1,0,0:0:0:0:
320,192,41324,1,0,0:0:0:0:
192,192,41439,1,0,0:0:0:0:
64,192,41668,1,2,0:0:0:0:
448,192,41668,1,0,0:0:0:0:
192,192,41782,1,0,0:0:0:0:
320,192,41897,1,0,0:0:0:0:
448,192,42126,1,2,0:0:0:0:
64,192,42126,1,0,0:0:0:0:
320,192,42240,1,0,0:0:0:0:
192,192,42355,1,0,0:0:0:0:
64,192,42584,1,2,0:0:0:0:
448,192,42584,1,0,0:0:0:0:
320,192,42813,1,0,0:0:0:0:
192,192,43042,1,2,0:0:0:0:
448,192,43042,1,4,0:0:0:0:
64,192,43042,1,0,0:0:0:0:
320,192,43271,1,0,0:0:0:0:
448,192,43500,1,2,0:0:0:0:
64,192,43500,1,0,0:0:0:0:
192,192,43729,1,0,0:0:0:0:
448,192,43958,1,4,0:0:0:0:
64,192,43958,1,2,0:0:0:0:
320,192,43958,1,0,0:0:0:0:
192,192,44187,1,0,0:0:0:0:
64,192,44416,5,2,0:0:0:0:
448,192,44416,1,4,0:0:0:0:
320,192,44416,1,0,0:0:0:0:
192,192,44645,1,0,0:0:0:0:
320,192,44759,1,0,0:0:0:0:
448,192,44874,1,2,0:0:0:0:
192,192,44874,1,4,0:0:0:0:
64,192,44874,1,0,0:0:0:0:
320,192,45103,1,0,0:0:0:0:
192,192,45217,1,0,0:0:0:0:
320,192,45332,1,2,0:0:0:0:
64,192,45332,1,4,0:0:0:0:
448,192,45332,1,0,0:0:0:0:
448,192,45561,128,0,45790:0:0:0:0:
320,192,45561,1,0,0:0:0:0:
192,192,45790,128,0,46019:0:0:0:0:
64,192,45790,1,0,0:0:0:0:
320,192,46019,128,0,46248:0:0:0:0:
448,192,46019,1,0,0:0:0:0:
192,192,46248,1,2,0:0:0:0:
64,192,46248,1,4,0:0:0:0:
448,192,46248,1,0,0:0:0:0:
64,192,46477,1,0,0:0:0:0:
192,192,46592,1,0,0:0:0:0:
64,192,46706,1,2,0:0:0:0:
448,192,46706,1,0,0:0:0:0:
320,192,46706,1,0,0:0:0:0:
448,192,46935,128,0,47164:0:0:0:0:
320,192,46935,1,0,0:0:0:0:
64,192,47164,128,2,47622:0:0:0:0:
192,192,47164,1,0,0:0:0:0:
320,192,47279,1,0,0:0:0:0:
448,192,47393,1,0,0:0:0:0:
320,192,47622,1,2,0:0:0:0:
448,192,47622,1,0,0:0:0:0:
192,192,47622,1,0,0:0:0:0:
192,192,47851,1,0,0:0:0:0:
448,192,48080,1,2,0:0:0:0:
64,192,48080,1,0,0:0:0:0:
320,192,48309,1,0,0:0:0:0:
192,192,48538,1,2,0:0:0:0:
448,192,48538,1,0,0:0:0:0:
64,192,48538,1,0,0:0:0:0:
192,192,48767,1,0,0:0:0:0:
64,192,48767,128,0,48996:0:0:0:0:
448,192,48996,128,2,49454:0:0:0:0:
320,192,48996,1,0,0:0:0:0:
192,192,49111,1,0,0:0:0:0:
64,192,49225,1,0,0:0:0:0:
64,192,49454,1,2,0:0:0:0:
320,192,49454,1,0,0:0:0:0:
192,192,49454,1,0,0:0:0:0:
320,192,49683,1,0,0:0:0:0:
192,192,49798,1,0,0:0:0:0:
64,192,49912,1,2,0:0:0:0:
448,192,49912,1,0,0:0:0:0:
192,192,50141,1,0,0:0:0:0:
320,192,50256,1,0,0:0:0:0:
64,192,50370,1,2,0:0:0:0:
448,192,50370,1,0,0:0:0:0:
192,192,50370,1,0,0:0:0:0:
448,192,50599,128,0,50828:0:0:0:0:
64,192,50599,1,0,0:0:0:0:
64,192,50828,1,2,0:0:0:0:
320,192,50828,1,0,0:0:0:0:
192,192,50943,1,0,0:0:0:0:
320,192,51057,1,0,0:0:0:0:
64,192,51286,1,2,0:0:0:0:
448,192,51286,1,0,0:0:0:0:
192,192,51286,1,0,0:0:0:0:
192,192,51515,1,0,0:0:0:0:
64,192,51744,1,2,0:0:0:0:
448,192,51744,1,0,0:0:0:0:
320,192,51859,1,0,0:0:0:0:
192,192,51973,1,0,0:0:0:0:
448,192,52202,1,2,0:0:0:0:
64,192,52202,1,0,0:0:0:0:
192,192,52202,1,0,0:0:0:0:
320,192,52431,1,0,0:0:0:0:
448,192,52660,1,2,0:0:0:0:
64,192,52660,1,0,0:0:0:0:
192,192,52889,1,0,0:0:0:0:
64,192,52889,128,0,53118:0:0:0:0:
448,192,53118,1,2,0:0:0:0:
320,192,53118,128,0,53347:0:0:0:0:
64,192,53347,1,0,0:0:0:0:
192,192,53347,128,0,53576:0:0:0:0:
64,192,53576,1,2,0:0:0:0:
320,192,53576,1,4,0:0:0:0:
448,192,53576,1,0,0:0:0:0:
448,192,53805,1,0,0:0:0:0:
320,192,53920,1,0,0:0:0:0:
448,192,54034,1,2,0:0:0:0:
64,192,54034,1,0,0:0:0:0:
192,192,54034,1,0,0:0:0:0:
64,192,54263,128,0,54492:0:0:0:0:
192,192,54263,1,0,0:0:0:0:
320,192,54492,1,2,0:0:0:0:
448,192,54492,128,0,54950:0:0:0:0:
192,192,54607,1,0,0:0:0:0:
64,192,54721,1,0,0:0:0:0:
64,192,54950,1,2,0:0:0:0:
320,192,54950,1,0,0:0:0:0:
192,192,54950,1,0,0:0:0:0:
320,192,55179,1,0,0:0:0:0:
192,192,55408,1,2,0:0:0:0:
64,192,55408,1,0,0:0:0:0:
192,192,55637,1,0,0:0:0:0:
64,192,55866,1,2,0:0:0:0:
320,192,55866,1,0,0:0:0:0:
448,192,55866,1,0,0:0:0:0:
448,192,56095,128,0,56324:0:0:0:0:
320,192,56095,1,0,0:0:0:0:
192,192,56324,1,2,0:0:0:0:
64,192,56324,128,0,56782:0:0:0:0:
320,192,56439,1,0,0:0:0:0:
448,192,56553,1,0,0:0:0:0:
448,192,56782,1,2,0:0:0:0:
192,192,56782,1,0,0:0:0:0:
320,192,56782,1,0,0:0:0:0:
320,192,57011,1,0,0:0:0:0:
192,192,57126,1,0,0:0:0:0:
448,192,57240,1,2,0:0:0:0:
64,192,57240,1,0,0:0:0:0:
192,192,57469,1,0,0:0:0:0:
320,192,57584,1,0,0:0:0:0:
448,192,57698,1,2,0:0:0:0:
64,192,57698,1,0,0:0:0:0:
192,192,57698,1,0,0:0:0:0:
192,192,57927,1,0,0:0:0:0:
320,192,58042,1,0,0:0:0:0:
64,192,58156,1,2,0:0:0:0:
448,192,58156,1,0,0:0:0:0:
192,192,58271,1,0,0:0:0:0:
320,192,58385,1,0,0:0:0:0:
64,192,58614,1,2,0:0:0:0:
448,192,58614,1,0,0:0:0:0:
320,192,58614,1,0,0:0:0:0:
192,192,58843,1,2,0:0:0:0:
64,192,58843,1,0,0:0:0:0:
448,192,59072,128,0,60447:0:0:0:0:
64,192,59301,1,0,0:0:0:0:
192,192,59530,1,0,0:0:0:0:
320,192,59759,1,0,0:0:0:0:
64,192,59988,1,0,0:0:0:0:
64,192,60447,1,2,0:0:0:0:
192,192,60447,1,4,0:0:0:0:
320,192,60447,1,0,0:0:0:0:
64,192,60905,1,2,0:0:0:0:
448,192,60905,1,0,0:0:0:0:
192,192,60905,1,0,0:0:0:0:
64,192,61134,1,0,0:0:0:0:
320,192,61134,1,0,0:0:0:0:
192,192,61248,1,0,0:0:0:0:
448,192,61363,1,2,0:0:0:0:
64,192,61363,1,0,0:0:0:0:
320,192,61477,1,0,0:0:0:0:
192,192,61592,1,0,0:0:0:0:
64,192,61592,1,0,0:0:0:0:
448,192,61821,1,2,0:0:0:0:
320,192,61821,1,0,0:0:0:0:
448,192,62050,1,0,0:0:0:0:
64,192,62050,1,0,0:0:0:0:
192,192,62164,1,0,0:0:0:0:
320,192,62279,1,2,0:0:0:0:
448,192,62279,1,0,0:0:0:0:
192,192,62393,1,0,0:0:0:0:
448,192,62508,1,0,0:0:0:0:
64,192,62508,1,0,0:0:0:0:
320,192,62622,1,0,0:0:0:0:
192,192,62737,1,2,0:0:0:0:
64,192,62737,1,0,0:0:0:0:
448,192,62966,1,0,0:0:0:0:
192,192,62966,1,0,0:0:0:0:
320,192,63080,1,0,0:0:0:0:
64,192,63195,1,2,0:0:0:0:
448,192,63195,1,0,0:0:0:0:
192,192,63309,1,0,0:0:0:0:
320,192,63424,1,0,0:0:0:0:
448,192,63424,1,0,0:0:0:0:
192,192,63653,1,2,0:0:0:0:
64,192,63653,1,0,0:0:0:0:
448,192,63882,1,8,0:0:0:0:
64,192,63882,1,0,0:0:0:0:
320,192,63882,1,0,0:0:0:0:
448,192,64111,1,2,0:0:0:0:
64,192,64111,1,8,0:0:0:0:
192,192,64111,1,0,0:0:0:0:
448,192,64340,1,0,0:0:0:0:
64,192,64340,1,0,0:0:0:0:
192,192,64454,1,0,0:0:0:0:
448,192,64569,1,2,0:0:0:0:
320,192,64569,1,0,0:0:0:0:
64,192,64798,1,0,0:0:0:0:
192,192,64798,1,0,0:0:0:0:
64,192,65027,1,2,0:0:0:0:
448,192,65027,1,0,0:0:0:0:
320,192,65141,1,0,0:0:0:0:
192,192,65256,1,0,0:0:0:0:
448,192,65256,1,0,0:0:0:0:
192,192,65485,1,2,0:0:0:0:
64,192,65485,1,0,0:0:0:0:
448,192,65714,1,0,0:0:0:0:
64,192,65714,1,0,0:0:0:0:
320,192,65828,1,0,0:0:0:0:
192,192,65943,1,2,0:0:0:0:
64,192,65943,1,0,0:0:0:0:
448,192,66057,1,0,0:0:0:0:
64,192,66172,1,0,0:0:0:0:
320,192,66172,1,0,0:0:0:0:
192,192,66286,1,0,0:0:0:0:
320,192,66401,1,2,0:0:0:0:
448,192,66401,1,0,0:0:0:0:
192,192,66515,1,0,0:0:0:0:
64,192,66630,1,0,0:0:0:0:
448,192,66630,1,0,0:0:0:0:
192,192,66859,1,2,0:0:0:0:
448,192,66859,1,0,0:0:0:0:
320,192,66973,1,0,0:0:0:0:
192,192,67088,1,0,0:0:0:0:
320,192,67202,1,0,0:0:0:0:
448,192,67317,1,2,0:0:0:0:
64,192,67317,1,0,0:0:0:0:
192,192,67431,1,0,0:0:0:0:
320,192,67546,1,0,0:0:0:0:
192,192,67660,1,0,0:0:0:0:
448,192,67775,128,2,68233:0:0:0:0:
64,192,67775,1,0,0:0:0:0:
320,192,67775,1,0,0:0:0:0:
192,192,68004,1,0,0:0:0:0:
320,192,68233,1,2,0:0:0:0:
192,192,68233,1,4,0:0:0:0:
64,192,68233,1,0,0:0:0:0:
64,192,68462,1,0,0:0:0:0:
448,192,68462,1,0,0:0:0:0:
320,192,68576,1,0,0:0:0:0:
192,192,68691,1,2,0:0:0:0:
64,192,68691,1,0,0:0:0:0:
448,192,68805,1,0,0:0:0:0:
64,192,68920,1,0,0:0:0:0:
320,192,68920,1,0,0:0:0:0:
320,192,69149,1,2,0:0:0:0:
192,192,69149,1,0,0:0:0:0:
64,192,69378,1,0,0:0:0:0:
448,192,69378,1,0,0:0:0:0:
192,192,69492,1,0,0:0:0:0:
448,192,69607,1,2,0:0:0:0:
320,192,69607,1,0,0:0:0:0:
64,192,69721,1,0,0:0:0:0:
192,192,69836,1,0,0:0:0:0:
448,192,69836,1,0,0:0:0:0:
448,192,70065,1,2,0:0:0:0:
64,192,70065,1,0,0:0:0:0:
320,192,70179,1,0,0:0:0:0:
64,192,70294,1,0,0:0:0:0:
192,192,70294,1,0,0:0:0:0:
320,192,70408,1,0,0:0:0:0:
448,192,70523,1,2,0:0:0:0:
64,192,70523,1,0,0:0:0:0:
192,192,70637,1,0,0:0:0:0:
320,192,70752,1,0,0:0:0:0:
448,192,70752,1,0,0:0:0:0:
320,192,70981,1,2,0:0:0:0:
192,192,70981,1,0,0:0:0:0:
64,192,71210,1,8,0:0:0:0:
448,192,71210,1,0,0:0:0:0:
192,192,71210,1,0,0:0:0:0:
448,192,71439,1,8,0:0:0:0:
64,192,71439,1,2,0:0:0:0:
320,192,71439,1,0,0:0:0:0:
192,192,71668,1,0,0:0:0:0:
448,192,71668,1,0,0:0:0:0:
320,192,71782,1,0,0:0:0:0:
64,192,71897,1,2,0:0:0:0:
448,192,71897,1,0,0:0:0:0:
320,192,72126,1,0,0:0:0:0:
192,192,72126,1,0,0:0:0:0:
448,192,72355,1,2,0:0:0:0:
64,192,72355,1,0,0:0:0:0:
320,192,72469,1,0,0:0:0:0:
192,192,72584,1,0,0:0:0:0:
64,192,72584,1,0,0:0:0:0:
320,192,72813,1,2,0:0:0:0:
192,192,72813,1,0,0:0:0:0:
64,192,73042,1,0,0:0:0:0:
448,192,73042,1,0,0:0:0:0:
192,192,73156,1,0,0:0:0:0:
320,192,73271,1,2,0:0:0:0:
448,192,73271,1,0,0:0:0:0:
64,192,73385,1,0,0:0:0:0:
448,192,73500,1,0,0:0:0:0:
192,192,73500,1,0,0:0:0:0:
320,192,73614,1,0,0:0:0:0:
192,192,73729,5,2,0:0:0:0:
64,192,73729,1,0,0:0:0:0:
448,192,73958,1,2,0:0:0:0:
64,192,73958,1,0,0:0:0:0:
192,192,74072,1,0,0:0:0:0:
448,192,74187,1,2,0:0:0:0:
320,192,74187,1,0,0:0:0:0:
192,192,74416,1,2,0:0:0:0:
64,192,74416,1,0,0:0:0:0:
448,192,74645,1,2,0:0:0:0:
64,192,74645,1,0,0:0:0:0:
320,192,74759,1,0,0:0:0:0:
192,192,74874,1,0,0:0:0:0:
320,192,74988,1,0,0:0:0:0:
192,192,75103,1,4,0:0:0:0:
448,192,75103,1,0,0:0:0:0:
64,192,75103,128,0,75561:0:0:0:0:
320,192,75561,1,2,0:0:0:0:
192,192,75561,1,0,0:0:0:0:
448,192,75561,128,0,75905:0:0:0:0:
64,192,75790,1,0,0:0:0:0:
448,192,76019,128,2,76363:0:0:0:0:
320,192,76019,1,0,0:0:0:0:
192,192,76248,1,0,0:0:0:0:
448,192,76477,128,2,76821:0:0:0:0:
320,192,76477,1,0,0:0:0:0:
64,192,76706,1,0,0:0:0:0:
64,192,76935,1,2,0:0:0:0:
448,192,76935,1,0,0:0:0:0:
192,192,77050,1,0,0:0:0:0:
448,192,77164,1,0,0:0:0:0:
320,192,77164,1,0,0:0:0:0:
192,192,77279,1,0,0:0:0:0:
64,192,77279,1,0,0:0:0:0:
320,192,77393,1,2,0:0:0:0:
448,192,77393,128,0,77737:0:0:0:0:
64,192,77622,1,0,0:0:0:0:
320,192,77851,1,2,0:0:0:0:
448,192,77851,128,0,78195:0:0:0:0:
64,192,78080,1,0,0:0:0:0:
320,192,78309,1,2,0:0:0:0:
448,192,78309,1,0,0:0:0:0:
64,192,78538,1,0,0:0:0:0:
448,192,78767,1,2,0:0:0:0:
192,192,78767,1,0,0:0:0:0:
320,192,78996,1,0,0:0:0:0:
192,192,79225,1,2,0:0:0:0:
64,192,79225,128,0,79569:0:0:0:0:
448,192,79454,1,0,0:0:0:0:
192,192,79683,1,2,0:0:0:0:
64,192,79683,128,0,80027:0:0:0:0:
320,192,79912,1,0,0:0:0:0:
192,192,80141,1,2,0:0:0:0:
64,192,80141,128,0,80485:0:0:0:0:
448,192,80370,1,0,0:0:0:0:
448,192,80599,1,2,0:0:0:0:
64,192,80599,1,0,0:0:0:0:
320,192,80714,1,0,0:0:0:0:
64,192,80828,1,0,0:0:0:0:
192,192,80828,1,0,0:0:0:0:
448,192,80943,1,0,0:0:0:0:
320,192,80943,1,0,0:0:0:0:
192,192,81057,1,2,0:0:0:0:
64,192,81057,128,0,81401:0:0:0:0:
448,192,81286,1,0,0:0:0:0:
192,192,81515,1,2,0:0:0:0:
64,192,81515,128,0,81859:0:0:0:0:
448,192,81744,1,0,0:0:0:0:
448,192,81973,1,2,0:0:0:0:
320,192,82030,1,0,0:0:0:0:
64,192,82088,1,0,0:0:0:0:
192,192,82145,1,0,0:0:0:0:
448,192,82202,1,0,0:0:0:0:
320,192,82259,1,0,0:0:0:0:
64,192,82317,1,0,0:0:0:0:
192,192,82374,1,0,0:0:0:0:
448,192,82431,1,2,0:0:0:0:
320,192,82488,1,0,0:0:0:0:
64,192,82546,1,0,0:0:0:0:
192,192,82603,1,0,0:0:0:0:
448,192,82660,1,0,0:0:0:0:
320,192,82717,1,0,0:0:0:0:
192,192,82775,1,0,0:0:0:0:
320,192,82889,1,2,0:0:0:0:
448,192,82889,1,4,0:0:0:0:
64,192,82889,1,0,0:0:0:0:
192,192,83118,1,0,0:0:0:0:
320,192,83347,1,2,0:0:0:0:
64,192,83347,1,0,0:0:0:0:
448,192,83347,1,0,0:0:0:0:
320,192,83576,1,0,0:0:0:0:
192,192,83805,1,2,0:0:0:0:
64,192,83805,1,0,0:0:0:0:
448,192,83805,1,0,0:0:0:0:
192,192,84034,1,0,0:0:0:0:
320,192,84263,1,2,0:0:0:0:
448,192,84263,1,0,0:0:0:0:
64,192,84263,1,0,0:0:0:0:
192,192,84378,1,0,0:0:0:0:
320,192,84492,1,0,0:0:0:0:
192,192,84607,1,0,0:0:0:0:
448,192,84721,1,2,0:0:0:0:
64,192,84721,1,0,0:0:0:0:
320,192,84721,1,0,0:0:0:0:
192,192,84950,1,0,0:0:0:0:
320,192,85179,1,2,0:0:0:0:
64,192,85179,1,0,0:0:0:0:
448,192,85179,1,0,0:0:0:0:
192,192,85408,1,0,0:0:0:0:
320,192,85523,1,0,0:0:0:0:
448,192,85637,1,2,0:0:0:0:
64,192,85637,1,0,0:0:0:0:
192,192,85637,1,0,0:0:0:0:
320,192,85866,1,0,0:0:0:0:
64,192,86095,1,2,0:0:0:0:
448,192,86095,1,0,0:0:0:0:
192,192,86095,1,0,0:0:0:0:
192,192,86324,1,0,0:0:0:0:
64,192,86553,1,2,0:0:0:0:
448,192,86553,1,0,0:0:0:0:
320,192,86553,1,0,0:0:0:0:
192,192,86782,1,0,0:0:0:0:
64,192,86782,1,0,0:0:0:0:
320,192,87011,1,2,0:0:0:0:
192,192,87011,1,0,0:0:0:0:
448,192,87011,1,0,0:0:0:0:
64,192,87240,1,0,0:0:0:0:
448,192,87240,1,0,0:0:0:0:
320,192,87355,1,0,0:0:0:0:
192,192,87469,1,2,0:0:0:0:
64,192,87469,1,0,0:0:0:0:
448,192,87469,1,0,0:0:0:0:
320,192,87584,1,0,0:0:0:0:
64,192,87698,1,0,0:0:0:0:
192,192,87698,1,0,0:0:0:0:
448,192,87927,1,2,0:0:0:0:
320,192,87927,1,0,0:0:0:0:
64,192,87927,1,0,0:0:0:0:
192,192,88042,1,0,0:0:0:0:
64,192,88156,1,0,0:0:0:0:
448,192,88156,1,0,0:0:0:0:
320,192,88271,1,0,0:0:0:0:
192,192,88385,1,2,0:0:0:0:
64,192,88385,1,0,0:0:0:0:
448,192,88385,128,0,89072:0:0:0:0:
320,192,88614,128,0,89072:0:0:0:0:
64,192,89072,1,0,0:0:0:0:
64,192,89301,1,0,0:0:0:0:
448,192,89530,1,0,0:0:0:0:
448,192,89759,1,0,0:0:0:0:
448,192,90217,1,0,0:0:0:0:
192,192,90447,1,0,0:0:0:0:
320,192,90676,1,0,0:0:0:0:
64,192,90790,1,0,0:0:0:0:
320,192,91019,1,0,0:0:0:0:
64,192,91134,1,0,0:0:0:0:
448,192,91363,1,0,0:0:0:0:
320,192,91477,1,0,0:0:0:0:
64,192,91592,1,0,0:0:0:0:
192,192,91706,1,0,0:0:0:0:
320,192,91821,1,0,0:0:0:0:
64,192,92050,1,0,0:0:0:0:
320,192,92279,1,0,0:0:0:0:
192,192,92508,1,0,0:0:0:0:
448,192,92622,1,0,0:0:0:0:
192,192,92851,1,0,0:0:0:0:
448,192,92966,1,0,0:0:0:0:
64,192,93195,1,0,0:0:0:0:
192,192,93309,1,0,0:0:0:0:
448,192,93424,1,0,0:0:0:0:
320,192,93538,1,0,0:0:0:0:
192,192,93653,1,0,0:0:0:0:
448,192,93882,1,0,0:0:0:0:
192,192,94111,1,0,0:0:0:0:
320,192,94340,1,0,0:0:0:0:
64,192,94454,1,0,0:0:0:0:
320,192,94683,1,0,0:0:0:0:
64,192,94798,1,0,0:0:0:0:
448,192,95027,1,0,0:0:0:0:
320,192,95141,1,0,0:0:0:0:
64,192,95256,1,0,0:0:0:0:
192,192,95370,1,0,0:0:0:0:
320,192,95485,1,0,0:0:0:0:
64,192,95714,1,0,0:0:0:0:
320,192,95943,1,0,0:0:0:0:
192,192,96172,1,0,0:0:0:0:
448,192,96286,1,0,0:0:0:0:
192,192,96515,1,0,0:0:0:0:
448,192,96630,128,0,97317:0:0:0:0:
64,192,97317,1,0,0:0:0:0:
192,192,97374,1,0,0:0:0:0:
320,192,97431,1,0,0:0:0:0:
448,192,97488,1,0,0:0:0:0:
192,192,97546,1,2,0:0:0:0:
64,192,97546,1,4,0:0:0:0:
448,192,97775,1,0,0:0:0:0:
64,192,98004,1,2,0:0:0:0:
448,192,98004,1,0,0:0:0:0:
192,192,98118,1,0,0:0:0:0:
320,192,98233,1,0,0:0:0:0:
448,192,98462,1,2,0:0:0:0:
64,192,98462,1,0,0:0:0:0:
192,192,98691,1,0,0:0:0:0:
64,192,98920,1,2,0:0:0:0:
448,192,98920,1,0,0:0:0:0:
320,192,99034,1,0,0:0:0:0:
192,192,99149,1,0,0:0:0:0:
320,192,99378,1,2,0:0:0:0:
448,192,99378,1,0,0:0:0:0:
64,192,99607,1,0,0:0:0:0:
192,192,99836,1,2,0:0:0:0:
448,192,99836,1,0,0:0:0:0:
320,192,99950,1,0,0:0:0:0:
192,192,100065,1,0,0:0:0:0:
448,192,100294,1,2,0:0:0:0:
64,192,100294,1,0,0:0:0:0:
192,192,100408,1,0,0:0:0:0:
320,192,100523,1,0,0:0:0:0:
448,192,100752,1,2,0:0:0:0:
64,192,100752,1,0,0:0:0:0:
320,192,100866,1,0,0:0:0:0:
192,192,100981,1,0,0:0:0:0:
64,192,101210,5,2,0:0:0:0:
320,192,101210,1,4,0:0:0:0:
448,192,101210,1,0,0:0:0:0:
448,192,101439,1,4,0:0:0:0:
320,192,101439,1,2,0:0:0:0:
64,192,101439,1,0,0:0:0:0:
320,192,102011,1,0,0:0:0:0:
448,192,102011,1,0,0:0:0:0:
192,192,102126,1,2,0:0:0:0:
64,192,102126,1,4,0:0:0:0:
448,192,102126,1,0,0:0:0:0:
192,192,102355,1,2,0:0:0:0:
448,192,102355,1,4,0:0:0:0:
64,192,102355,1,0,0:0:0:0:
64,192,102927,1,0,0:0:0:0:
192,192,102927,1,0,0:0:0:0:
320,192,103042,1,2,0:0:0:0:
448,192,103042,1,4,0:0:0:0:
64,192,103042,1,0,0:0:0:0:
320,192,103271,1,2,0:0:0:0:
448,192,103271,1,4,0:0:0:0:
64,192,103271,1,0,0:0:0:0:
64,192,103500,1,2,0:0:0:0:
448,192,103500,1,4,0:0:0:0:
192,192,103500,1,0,0:0:0:0:
192,192,103729,1,2,0:0:0:0:
64,192,103729,1,4,0:0:0:0:
448,192,103729,1,0,0:0:0:0:
320,192,103958,1,2,0:0:0:0:
448,192,103958,1,4,0:0:0:0:
64,192,103958,1,0,0:0:0:0:
192,192,104187,1,0,0:0:0:0:
64,192,104187,128,0,104416:0:0:0:0:
320,192,104416,128,0,104645:0:0:0:0:
448,192,104416,1,0,0:0:0:0:
64,192,104645,1,0,0:0:0:0:
192,192,104645,128,0,104874:0:0:0:0:
64,192,104874,1,2,0:0:0:0:
448,192,104874,1,4,0:0:0:0:
320,192,104874,1,0,0:0:0:0:
320,192,105103,1,0,0:0:0:0:
64,192,105332,1,2,0:0:0:0:
448,192,105332,1,0,0:0:0:0:
192,192,105332,1,0,0:0:0:0:
64,192,105561,128,0,105790:0:0:0:0:
192,192,105561,1,0,0:0:0:0:
320,192,105790,1,2,0:0:0:0:
448,192,105790,128,0,106248:0:0:0:0:
192,192,105905,1,0,0:0:0:0:
64,192,106019,1,0,0:0:0:0:
320,192,106248,1,2,0:0:0:0:
64,192,106248,1,0,0:0:0:0:
192,192,106248,1,0,0:0:0:0:
320,192,106477,1,0,0:0:0:0:
64,192,106706,1,2,0:0:0:0:
192,192,106706,1,0,0:0:0:0:
192,192,106935,1,0,0:0:0:0:
320,192,107164,1,2,0:0:0:0:
448,192,107164,1,0,0:0:0:0:
64,192,107164,1,0,0:0:0:0:
448,192,107393,128,0,107622:0:0:0:0:
320,192,107393,1,0,0:0:0:0:
192,192,107622,1,2,0:0:0:0:
64,192,107622,128,0,108080:0:0:0:0:
320,192,107737,1,0,0:0:0:0:
448,192,107851,1,0,0:0:0:0:
448,192,108080,1,2,0:0:0:0:
192,192,108080,1,0,0:0:0:0:
320,192,108080,1,0,0:0:0:0:
320,192,108309,1,0,0:0:0:0:
192,192,108424,1,0,0:0:0:0:
64,192,108538,1,2,0:0:0:0:
448,192,108538,1,0,0:0:0:0:
192,192,108767,1,0,0:0:0:0:
320,192,108882,1,0,0:0:0:0:
448,192,108996,1,2,0:0:0:0:
192,192,108996,1,0,0:0:0:0:
64,192,108996,1,0,0:0:0:0:
64,192,109225,128,0,109454:0:0:0:0:
448,192,109225,1,0,0:0:0:0:
192,192,109454,1,2,0:0:0:0:
448,192,109454,1,0,0:0:0:0:
320,192,109569,1,0,0:0:0:0:
192,192,109683,1,0,0:0:0:0:
64,192,109912,1,2,0:0:0:0:
320,192,109912,1,0,0:0:0:0:
448,192,109912,1,0,0:0:0:0:
320,192,110141,1,0,0:0:0:0:
448,192,110370,1,2,0:0:0:0:
64,192,110370,1,0,0:0:0:0:
192,192,110485,1,0,0:0:0:0:
320,192,110599,1,0,0:0:0:0:
64,192,110828,1,2,0:0:0:0:
192,192,110828,1,0,0:0:0:0:
448,192,110828,1,0,0:0:0:0:
192,192,111057,1,0,0:0:0:0:
320,192,111286,1,2,0:0:0:0:
64,192,111286,1,0,0:0:0:0:
320,192,111515,1,0,0:0:0:0:
448,192,111515,128,0,111744:0:0:0:0:
64,192,111744,1,2,0:0:0:0:
192,192,111744,128,0,111973:0:0:0:0:
320,192,111973,128,0,112202:0:0:0:0:
448,192,111973,1,0,0:0:0:0:
448,192,112202,1,2,0:0:0:0:
64,192,112202,1,4,0:0:0:0:
192,192,112202,1,0,0:0:0:0:
192,192,112431,1,0,0:0:0:0:
320,192,112660,1,2,0:0:0:0:
448,192,112660,1,0,0:0:0:0:
64,192,112660,1,0,0:0:0:0:
320,192,112889,1,0,0:0:0:0:
448,192,112889,128,0,113118:0:0:0:0:
192,192,113118,1,2,0:0:0:0:
64,192,113118,128,0,113576:0:0:0:0:
320,192,113233,1,0,0:0:0:0:
448,192,113347,1,0,0:0:0:0:
192,192,113576,1,2,0:0:0:0:
320,192,113576,1,0,0:0:0:0:
448,192,113576,1,0,0:0:0:0:
192,192,113805,1,0,0:0:0:0:
320,192,114034,1,2,0:0:0:0:
448,192,114034,1,0,0:0:0:0:
320,192,114263,1,0,0:0:0:0:
64,192,114492,1,2,0:0:0:0:
448,192,114492,1,0,0:0:0:0:
192,192,114492,1,0,0:0:0:0:
192,192,114721,1,0,0:0:0:0:
64,192,114721,128,0,114950:0:0:0:0:
320,192,114950,1,2,0:0:0:0:
448,192,114950,128,0,115408:0:0:0:0:
192,192,115065,1,0,0:0:0:0:
64,192,115179,1,0,0:0:0:0:
320,192,115408,1,2,0:0:0:0:
192,192,115408,1,0,0:0:0:0:
64,192,115408,1,0,0:0:0:0:
320,192,115637,1,0,0:0:0:0:
192,192,115752,1,0,0:0:0:0:
448,192,115866,1,2,0:0:0:0:
64,192,115866,1,0,0:0:0:0:
192,192,116095,1,0,0:0:0:0:
320,192,116210,1,0,0:0:0:0:
64,192,116324,1,2,0:0:0:0:
448,192,116324,1,0,0:0:0:0:
192,192,116324,1,0,0:0:0:0:
320,192,116553,1,0,0:0:0:0:
192,192,116668,1,0,0:0:0:0:
448,192,116782,1,2,0:0:0:0:
64,192,116782,1,0,0:0:0:0:
320,192,116897,1,0,0:0:0:0:
192,192,117011,1,0,0:0:0:0:
192,192,117240,1,2,0:0:0:0:
64,192,117240,1,0,0:0:0:0:
448,192,117240,1,0,0:0:0:0:
448,192,117469,1,2,0:0:0:0:
320,192,117469,1,0,0:0:0:0:
64,192,117698,128,0,119072:0:0:0:0:
448,192,117927,5,0,0:0:0:0:
320,192,118156,1,0,0:0:0:0:
192,192,118385,1,0,0:0:0:0:
448,192,118614,1,0,0:0:0:0:
448,192,119072,1,2,0:0:0:0:
320,192,119072,1,4,0:0:0:0:
192,192,119072,1,0,0:0:0:0:
192,192,119530,1,2,0:0:0:0:
64,192,119530,1,0,0:0:0:0:
448,192,119530,1,0,0:0:0:0:
64,192,119759,1,0,0:0:0:0:
320,192,119759,1,0,0:0:0:0:
192,192,119874,1,0,0:0:0:0:
320,192,119988,1,2,0:0:0:0:
448,192,119988,1,0,0:0:0:0:
192,192,120103,1,0,0:0:0:0:
64,192,120217,1,0,0:0:0:0:
448,192,120217,1,0,0:0:0:0:
320,192,120447,1,2,0:0:0:0:
192,192,120447,1,0,0:0:0:0:
64,192,120676,1,0,0:0:0:0:
448,192,120676,1,0,0:0:0:0:
320,192,120790,1,0,0:0:0:0:
64,192,120905,1,2,0:0:0:0:
192,192,120905,1,0,0:0:0:0:
320,192,121019,1,0,0:0:0:0:
64,192,121134,1,0,0:0:0:0:
448,192,121134,1,0,0:0:0:0:
192,192,121248,1,0,0:0:0:0:
320,192,121363,1,2,0:0:0:0:
448,192,121363,1,0,0:0:0:0:
320,192,121592,1,0,0:0:0:0:
64,192,121592,1,0,0:0:0:0:
192,192,121706,1,0,0:0:0:0:
448,192,121821,1,2,0:0:0:0:
64,192,121821,1,0,0:0:0:0:
320,192,121935,1,0,0:0:0:0:
64,192,122050,1,0,0:0:0:0:
192,192,122050,1,0,0:0:0:0:
448,192,122279,1,2,0:0:0:0:
320,192,122279,1,0,0:0:0:0:
64,192,122508,1,8,0:0:0:0:
448,192,122508,1,0,0:0:0:0:
192,192,122508,1,0,0:0:0:0:
320,192,122737,1,2,0:0:0:0:
64,192,122737,1,8,0:0:0:0:
448,192,122737,1,0,0:0:0:0:
64,192,122966,1,0,0:0:0:0:
448,192,122966,1,0,0:0:0:0:
320,192,123080,1,0,0:0:0:0:
192,192,123195,1,2,0:0:0:0:
64,192,123195,1,0,0:0:0:0:
448,192,123424,1,0,0:0:0:0:
320,192,123424,1,0,0:0:0:0:
448,192,123653,1,2,0:0:0:0:
64,192,123653,1,0,0:0:0:0:
320,192,123767,1,0,0:0:0:0:
448,192,123882,1,0,0:0:0:0:
192,192,123882,1,0,0:0:0:0:
64,192,124111,1,2,0:0:0:0:
192,192,124111,1,0,0:0:0:0:
320,192,124340,1,0,0:0:0:0:
448,192,124340,1,0,0:0:0:0:
64,192,124454,1,0,0:0:0:0:
192,192,124569,1,2,0:0:0:0:
448,192,124569,1,0,0:0:0:0:
320,192,124683,1,0,0:0:0:0:
192,192,124798,1,0,0:0:0:0:
64,192,124798,1,0,0:0:0:0:
448,192,124912,1,0,0:0:0:0:
320,192,125027,1,2,0:0:0:0:
64,192,125027,1,0,0:0:0:0:
192,192,125141,1,0,0:0:0:0:
320,192,125256,1,0,0:0:0:0:
448,192,125256,1,0,0:0:0:0:
64,192,125485,1,2,0:0:0:0:
448,192,125485,1,0,0:0:0:0:
192,192,125599,1,0,0:0:0:0:
320,192,125714,1,0,0:0:0:0:
192,192,125828,1,0,0:0:0:0:
64,192,125943,1,2,0:0:0:0:
448,192,125943,1,0,0:0:0:0:
320,192,126057,1,0,0:0:0:0:
192,192,126172,1,0,0:0:0:0:
320,192,126286,1,0,0:0:0:0:
64,192,126401,128,2,126859:0:0:0:0:
448,192,126401,1,0,0:0:0:0:
192,192,126401,1,0,0:0:0:0:
320,192,126630,1,0,0:0:0:0:
448,192,126859,1,2,0:0:0:0:
192,192,126859,1,4,0:0:0:0:
320,192,126859,1,0,0:0:0:0:
448,192,127088,1,0,0:0:0:0:
64,192,127088,1,0,0:0:0:0:
192,192,127202,1,0,0:0:0:0:
320,192,127317,1,2,0:0:0:0:
448,192,127317,1,0,0:0:0:0:
192,192,127431,1,0,0:0:0:0:
64,192,127546,1,0,0:0:0:0:
448,192,127546,1,0,0:0:0:0:
320,192,127775,1,2,0:0:0:0:
192,192,127775,1,0,0:0:0:0:
64,192,128004,1,0,0:0:0:0:
448,192,128004,1,0,0:0:0:0:
320,192,128118,1,0,0:0:0:0:
64,192,128233,1,2,0:0:0:0:
192,192,128233,1,0,0:0:0:0:
448,192,128347,1,0,0:0:0:0:
320,192,128462,1,0,0:0:0:0:
64,192,128462,1,0,0:0:0:0:
64,192,128691,1,2,0:0:0:0:
448,192,128691,1,0,0:0:0:0:
192,192,128805,1,0,0:0:0:0:
448,192,128920,1,0,0:0:0:0:
320,192,128920,1,0,0:0:0:0:
192,192,129034,1,0,0:0:0:0:
64,192,129149,1,2,0:0:0:0:
448,192,129149,1,0,0:0:0:0:
320,192,129263,1,0,0:0:0:0:
64,192,129378,1,0,0:0:0:0:
192,192,129378,1,0,0:0:0:0:
192,192,129607,1,2,0:0:0:0:
320,192,129607,1,0,0:0:0:0:
320,192,129836,1,8,0:0:0:0:
448,192,129836,1,0,0:0:0:0:
64,192,129836,1,0,0:0:0:0:
192,192,130065,1,8,0:0:0:0:
64,192,130065,1,2,0:0:0:0:
448,192,130065,1,0,0:0:0:0:
192,192,130294,1,0,0:0:0:0:
320,192,130408,1,0,0:0:0:0:
448,192,130523,1,2,0:0:0:0:
64,192,130523,1,0,0:0:0:0:
320,192,130752,1,0,0:0:0:0:
192,192,130866,1,0,0:0:0:0:
64,192,130981,1,2,0:0:0:0:
320,192,130981,1,0,0:0:0:0:
448,192,130981,1,0,0:0:0:0:
192,192,131210,1,0,0:0:0:0:
320,192,131324,1,0,0:0:0:0:
448,192,131439,1,2,0:0:0:0:
64,192,131439,1,0,0:0:0:0:
192,192,131553,1,0,0:0:0:0:
320,192,131668,1,0,0:0:0:0:
192,192,131782,1,0,0:0:0:0:
64,192,131897,1,2,0:0:0:0:
448,192,131897,1,0,0:0:0:0:
320,192,132011,1,0,0:0:0:0:
192,192,132126,1,0,0:0:0:0:
448,192,132355,1,2,0:0:0:0:
320,192,132355,1,0,0:0:0:0:
448,192,132584,1,0,0:0:0:0:
64,192,132584,1,0,0:0:0:0:
320,192,132698,1,0,0:0:0:0:
192,192,132813,1,2,0:0:0:0:
64,192,132813,1,0,0:0:0:0:
448,192,133042,1,0,0:0:0:0:
320,192,133042,1,0,0:0:0:0:
64,192,133271,1,2,0:0:0:0:
448,192,133271,1,0,0:0:0:0:
192,192,133385,1,0,0:0:0:0:
320,192,133500,1,0,0:0:0:0:
192,192,133614,1,0,0:0:0:0:
448,192,133729,1,2,0:0:0:0:
64,192,133729,1,0,0:0:0:0:
320,192,133729,1,0,0:0:0:0:
448,192,134416,1,0,0:0:0:0:
192,192,134645,1,0,0:0:0:0:
320,192,134874,1,0,0:0:0:0:
64,192,135103,1,0,0:0:0:0:
448,192,135332,1,0,0:0:0:0:
320,192,135561,1,0,0:0:0:0:
192,192,135790,1,0,0:0:0:0:
320,192,136019,1,2,0:0:0:0:
448,192,136019,1,4,0:0:0:0:
64,192,136019,128,0,136477:0:0:0:0:
448,192,136248,128,0,136477:0:0:0:0:
192,192,136477,1,0,0:0:0:0:
448,192,136706,1,2,0:0:0:0:
320,192,136706,128,0,136935:0:0:0:0:
64,192,136935,1,0,0:0:0:0:
192,192,136935,128,0,137851:0:0:0:0:
64,192,137393,1,0,0:0:0:0:
64,192,137851,1,0,0:0:0:0:
320,192,137851,1,0,0:0:0:0:
448,192,138309,1,0,0:0:0:0:
448,192,138538,1,0,0:0:0:0:
320,192,138653,1,0,0:0:0:0:
64,192,138767,1,0,0:0:0:0:
192,192,138767,1,0,0:0:0:0:
448,192,138996,1,0,0:0:0:0:
64,192,138996,1,0,0:0:0:0:
448,192,139111,1,0,0:0:0:0:
448,192,139225,128,0,139454:0:0:0:0:
64,192,139454,1,0,0:0:0:0:
320,192,139454,1,0,0:0:0:0:
192,192,139569,1,0,0:0:0:0:
64,192,139683,128,2,140141:0:0:0:0:
448,192,139683,1,0,0:0:0:0:
320,192,139683,1,0,0:0:0:0:
192,192,140141,1,0,0:0:0:0:
448,192,140370,128,2,140599:0:0:0:0:
320,192,140370,1,0,0:0:0:0:
64,192,140599,128,0,141515:0:0:0:0:
192,192,140599,1,0,0:0:0:0:
320,192,140828,1,0,0:0:0:0:
448,192,141057,128,0,141515:0:0:0:0:
192,192,141515,1,0,0:0:0:0:
448,192,141744,128,0,141973:0:0:0:0:
192,192,141973,128,0,142202:0:0:0:0:
64,192,141973,1,0,0:0:0:0:
320,192,142202,128,2,142431:0:0:0:0:
448,192,142202,1,0,0:0:0:0:
64,192,142431,128,0,142660:0:0:0:0:
192,192,142431,1,0,0:0:0:0:
448,192,142660,128,2,142889:0:0:0:0:
320,192,142660,1,0,0:0:0:0:
192,192,142889,1,0,0:0:0:0:
64,192,142889,128,0,143118:0:0:0:0:
320,192,143004,1,0,0:0:0:0:
192,192,143118,1,0,0:0:0:0:
448,192,143118,128,0,143347:0:0:0:0:
320,192,143233,1,0,0:0:0:0:
192,192,143347,1,2,0:0:0:0:
64,192,143347,128,4,143805:0:0:0:0:
448,192,143576,128,0,143805:0:0:0:0:
320,192,143805,1,0,0:0:0:0:
192,192,144034,128,2,144263:0:0:0:0:
64,192,144034,1,0,0:0:0:0:
320,192,144263,128,0,145179:0:0:0:0:
448,192,144263,1,0,0:0:0:0:
448,192,144721,1,0,0:0:0:0:
192,192,145179,1,0,0:0:0:0:
448,192,145179,1,0,0:0:0:0:
64,192,145637,1,0,0:0:0:0:
64,192,145866,1,0,0:0:0:0:
192,192,145981,1,0,0:0:0:0:
320,192,146095,1,0,0:0:0:0:
448,192,146095,1,0,0:0:0:0:
64,192,146324,1,2,0:0:0:0:
448,192,146324,1,0,0:0:0:0:
64,192,146439,1,0,0:0:0:0:
64,192,146553,128,0,146782:0:0:0:0:
448,192,146782,1,2,0:0:0:0:
192,192,146782,1,0,0:0:0:0:
320,192,146897,1,0,0:0:0:0:
192,192,147011,1,2,0:0:0:0:
64,192,147011,1,0,0:0:0:0:
448,192,147011,128,0,147469:0:0:0:0:
320,192,147469,1,0,0:0:0:0:
64,192,147698,128,2,147927:0:0:0:0:
192,192,147698,1,0,0:0:0:0:
448,192,147927,128,0,148843:0:0:0:0:
320,192,147927,1,0,0:0:0:0:
64,192,148385,1,0,0:0:0:0:
64,192,148843,1,0,0:0:0:0:
192,192,148843,1,0,0:0:0:0:
192,192,149301,1,0,0:0:0:0:
64,192,149301,1,0,0:0:0:0:
320,192,149530,1,2,0:0:0:0:
448,192,149530,1,0,0:0:0:0:
192,192,149759,1,0,0:0:0:0:
64,192,149759,1,0,0:0:0:0:
448,192,149836,1,0,0:0:0:0:
320,192,149912,1,0,0:0:0:0:
64,192,149988,1,0,0:0:0:0:
192,192,149988,1,0,0:0:0:0:
448,192,150065,1,0,0:0:0:0:
320,192,150141,1,0,0:0:0:0:
64,192,150217,1,0,0:0:0:0:
192,192,150294,1,0,0:0:0:0:
320,192,150370,1,0,0:0:0:0:
64,192,150447,1,2,0:0:0:0:
448,192,150447,1,0,0:0:0:0:
64,192,150676,1,2,0:0:0:0:
192,192,150676,1,4,0:0:0:0:
448,192,150676,1,0,0:0:0:0:
448,192,150905,128,0,151134:0:0:0:0:
192,192,150905,1,0,0:0:0:0:
320,192,151134,1,0,0:0:0:0:
64,192,151363,128,2,151592:0:0:0:0:
192,192,151363,1,0,0:0:0:0:
448,192,151363,1,0,0:0:0:0:
448,192,151592,1,2,0:0:0:0:
320,192,151592,1,0,0:0:0:0:
64,192,151821,1,0,0:0:0:0:
192,192,151935,1,0,0:0:0:0:
448,192,152050,1,0,0:0:0:0:
320,192,152164,1,0,0:0:0:0:
64,192,152279,1,0,0:0:0:0:
192,192,152393,1,0,0:0:0:0:
320,192,152508,1,0,0:0:0:0:
448,192,152508,128,0,152737:0:0:0:0:
192,192,152737,1,0,0:0:0:0:
64,192,152737,1,0,0:0:0:0:
320,192,152966,1,0,0:0:0:0:
448,192,152966,1,0,0:0:0:0:
448,192,153195,1,2,0:0:0:0:
64,192,153195,1,0,0:0:0:0:
320,192,153309,1,0,0:0:0:0:
64,192,153424,1,2,0:0:0:0:
192,192,153424,1,0,0:0:0:0:
448,192,153653,1,2,0:0:0:0:
64,192,153653,1,0,0:0:0:0:
192,192,153767,1,0,0:0:0:0:
320,192,153882,1,0,0:0:0:0:
448,192,153996,1,2,0:0:0:0:
64,192,153996,1,0,0:0:0:0:
192,192,154111,1,0,0:0:0:0:
320,192,154225,1,0,0:0:0:0:
448,192,154340,1,2,0:0:0:0:
64,192,154340,1,0,0:0:0:0:
320,192,154569,1,0,0:0:0:0:
64,192,154798,1,0,0:0:0:0:
448,192,154798,1,0,0:0:0:0:
64,192,155027,1,2,0:0:0:0:
320,192,155027,1,0,0:0:0:0:
192,192,155141,1,0,0:0:0:0:
448,192,155256,1,2,0:0:0:0:
64,192,155256,1,0,0:0:0:0:
320,192,155485,1,0,0:0:0:0:
192,192,155599,1,0,0:0:0:0:
64,192,155714,1,2,0:0:0:0:
448,192,155714,1,0,0:0:0:0:
320,192,155828,1,2,0:0:0:0:
64,192,155943,1,2,0:0:0:0:
192,192,156057,1,2,0:0:0:0:
320,192,156172,1,2,0:0:0:0:
448,192,156172,1,0,0:0:0:0:
64,192,156401,128,0,156630:0:0:0:0:
448,192,156630,1,2,0:0:0:0:
192,192,156630,1,0,0:0:0:0:
320,192,156744,1,2,0:0:0:0:
192,192,156859,1,2,0:0:0:0:
320,192,156973,1,2,0:0:0:0:
448,192,157088,1,2,0:0:0:0:
64,192,157088,1,0,0:0:0:0:
320,192,157317,1,0,0:0:0:0:
448,192,157546,1,2,0:0:0:0:
64,192,157546,1,0,0:0:0:0:
192,192,157660,1,2,0:0:0:0:
320,192,157775,1,2,0:0:0:0:
192,192,157889,1,2,0:0:0:0:
64,192,158004,1,2,0:0:0:0:
448,192,158004,1,4,0:0:0:0:
320,192,158004,1,0,0:0:0:0:
320,192,158233,1,0,0:0:0:0:
192,192,158347,1,0,0:0:0:0:
64,192,158462,5,0,0:0:0:0:
448,192,158691,1,2,0:0:0:0:
192,192,158691,1,0,0:0:0:0:
320,192,158805,1,0,0:0:0:0:
192,192,158920,1,2,0:0:0:0:
64,192,158920,1,0,0:0:0:0:
448,192,158920,1,0,0:0:0:0:
64,192,159149,1,0,0:0:0:0:
192,192,159263,1,0,0:0:0:0:
320,192,159378,1,0,0:0:0:0:
192,192,159607,5,0,0:0:0:0:
320,192,159721,1,0,0:0:0:0:
64,192,159836,1,0,0:0:0:0:
448,192,159836,1,0,0:0:0:0:
448,192,160065,1,0,0:0:0:0:
320,192,160065,1,0,0:0:0:0:
192,192,160294,1,0,0:0:0:0:
64,192,160294,1,0,0:0:0:0:
448,192,160523,1,2,0:0:0:0:
64,192,160523,1,0,0:0:0:0:
320,192,160637,1,2,0:0:0:0:
192,192,160752,1,2,0:0:0:0:
448,192,160752,1,0,0:0:0:0:
64,192,160752,1,0,0:0:0:0:
320,192,160981,1,2,0:0:0:0:
448,192,160981,1,0,0:0:0:0:
64,192,161095,1,0,0:0:0:0:
192,192,161210,1,0,0:0:0:0:
320,192,161324,1,2,0:0:0:0:
448,192,161324,1,0,0:0:0:0:
64,192,161439,1,0,0:0:0:0:
192,192,161553,1,0,0:0:0:0:
320,192,161668,1,2,0:0:0:0:
448,192,161668,128,0,161897:0:0:0:0:
192,192,161897,128,0,162126:0:0:0:0:
64,192,161897,1,0,0:0:0:0:
448,192,162126,128,0,162355:0:0:0:0:
320,192,162126,1,0,0:0:0:0:
64,192,162355,128,2,162584:0:0:0:0:
192,192,162355,1,0,0:0:0:0:
320,192,162584,128,2,162813:0:0:0:0:
448,192,162584,1,0,0:0:0:0:
64,192,162813,128,0,163042:0:0:0:0:
192,192,162813,1,0,0:0:0:0:
320,192,163042,128,2,163271:0:0:0:0:
448,192,163042,1,0,0:0:0:0:
192,192,163271,128,2,163500:0:0:0:0:
64,192,163271,1,0,0:0:0:0:
448,192,163500,1,2,0:0:0:0:
64,192,163500,1,0,0:0:0:0:
320,192,163614,1,0,0:0:0:0:
192,192,163729,1,0,0:0:0:0:
448,192,163843,1,2,0:0:0:0:
64,192,163843,1,0,0:0:0:0:
192,192,163958,1,0,0:0:0:0:
320,192,164072,1,0,0:0:0:0:
448,192,164187,1,2,0:0:0:0:
64,192,164187,1,0,0:0:0:0:
192,192,164301,1,0,0:0:0:0:
320,192,164416,1,2,0:0:0:0:
448,192,164416,1,0,0:0:0:0:
64,192,164645,128,0,164874:0:0:0:0:
192,192,164874,1,0,0:0:0:0:
320,192,164988,1,0,0:0:0:0:
448,192,164988,1,0,0:0:0:0:
192,192,165103,1,2,0:0:0:0:
64,192,165103,1,0,0:0:0:0:
320,192,165217,1,2,0:0:0:0:
192,192,165332,1,2,0:0:0:0:
64,192,165332,1,4,0:0:0:0:
448,192,165332,1,0,0:0:0:0:
448,192,165561,128,0,165790:0:0:0:0:
320,192,165561,1,0,0:0:0:0:
192,192,165790,1,8,0:0:0:0:
64,192,165790,1,0,0:0:0:0:
448,192,166019,128,0,166248:0:0:0:0:
192,192,166019,1,0,0:0:0:0:
320,192,166248,1,0,0:0:0:0:
64,192,166248,1,8,0:0:0:0:
64,192,166477,1,0,0:0:0:0:
448,192,166477,128,0,166706:0:0:0:0:
320,192,166706,1,8,0:0:0:0:
192,192,166706,1,0,0:0:0:0:
320,192,166935,1,2,0:0:0:0:
448,192,166935,1,0,0:0:0:0:
192,192,167164,1,2,0:0:0:0:
64,192,167164,1,8,0:0:0:0:
448,192,167164,1,0,0:0:0:0:
64,192,167393,128,0,167622:0:0:0:0:
192,192,167393,1,0,0:0:0:0:
448,192,167622,1,8,0:0:0:0:
320,192,167622,1,0,0:0:0:0:
64,192,167851,128,0,168080:0:0:0:0:
320,192,167851,1,0,0:0:0:0:
448,192,168080,1,8,0:0:0:0:
192,192,168080,1,0,0:0:0:0:
192,192,168309,1,0,0:0:0:0:
64,192,168309,128,0,168538:0:0:0:0:
448,192,168538,1,8,0:0:0:0:
320,192,168538,1,0,0:0:0:0:
448,192,168767,1,0,0:0:0:0:
64,192,168767,1,0,0:0:0:0:
192,192,168882,1,0,0:0:0:0:
320,192,168996,1,8,0:0:0:0:
448,192,168996,1,2,0:0:0:0:
192,192,169225,1,0,0:0:0:0:
64,192,169225,1,0,0:0:0:0:
320,192,169454,1,8,0:0:0:0:
448,192,169454,1,0,0:0:0:0:
64,192,169683,1,0,0:0:0:0:
448,192,169683,1,0,0:0:0:0:
192,192,169798,1,0,0:0:0:0:
64,192,169912,1,8,0:0:0:0:
320,192,169912,1,0,0:0:0:0:
448,192,170141,1,0,0:0:0:0:
64,192,170141,1,0,0:0:0:0:
320,192,170256,1,0,0:0:0:0:
192,192,170370,1,8,0:0:0:0:
448,192,170370,1,0,0:0:0:0:
448,192,170599,1,2,0:0:0:0:
64,192,170599,1,0,0:0:0:0:
320,192,170714,1,0,0:0:0:0:
64,192,170828,1,8,0:0:0:0:
192,192,170828,1,2,0:0:0:0:
320,192,171057,1,0,0:0:0:0:
448,192,171057,1,0,0:0:0:0:
192,192,171172,1,2,0:0:0:0:
64,192,171172,1,0,0:0:0:0:
320,192,171286,1,2,0:0:0:0:
448,192,171286,1,8,0:0:0:0:
448,192,171515,1,2,0:0:0:0:
64,192,171515,1,0,0:0:0:0:
320,192,171630,1,0,0:0:0:0:
64,192,171744,1,8,0:0:0:0:
192,192,171744,1,0,0:0:0:0:
320,192,171973,1,2,0:0:0:0:
448,192,171973,1,0,0:0:0:0:
64,192,172202,1,8,0:0:0:0:
448,192,172202,1,0,0:0:0:0:
320,192,172317,1,2,0:0:0:0:
192,192,172317,1,0,0:0:0:0:
64,192,172431,1,2,0:0:0:0:
448,192,172431,1,0,0:0:0:0:
448,192,172660,5,2,0:0:0:0:
192,192,172660,1,4,0:0:0:0:
64,192,172660,1,0,0:0:0:0:
320,192,172775,1,0,0:0:0:0:
192,192,172889,1,0,0:0:0:0:
64,192,172889,1,0,0:0:0:0:
448,192,173004,1,0,0:0:0:0:
192,192,173118,1,2,0:0:0:0:
320,192,173118,1,0,0:0:0:0:
64,192,173233,1,0,0:0:0:0:
320,192,173347,1,0,0:0:0:0:
448,192,173347,1,0,0:0:0:0:
192,192,173462,1,0,0:0:0:0:
64,192,173576,1,2,0:0:0:0:
448,192,173576,1,0,0:0:0:0:
320,192,173691,1,0,0:0:0:0:
192,192,173805,1,0,0:0:0:0:
64,192,173805,1,0,0:0:0:0:
320,192,173920,1,0,0:0:0:0:
64,192,174034,1,2,0:0:0:0:
448,192,174034,1,0,0:0:0:0:
192,192,174263,1,0,0:0:0:0:
320,192,174263,1,0,0:0:0:0:
64,192,174492,1,2,0:0:0:0:
448,192,174492,1,0,0:0:0:0:
320,192,174607,1,0,0:0:0:0:
192,192,174721,1,0,0:0:0:0:
64,192,174721,1,0,0:0:0:0:
64,192,174950,1,2,0:0:0:0:
448,192,174950,1,0,0:0:0:0:
192,192,175065,1,0,0:0:0:0:
320,192,175179,1,0,0:0:0:0:
448,192,175179,1,0,0:0:0:0:
448,192,175408,1,2,0:0:0:0:
64,192,175408,1,0,0:0:0:0:
320,192,175523,1,0,0:0:0:0:
192,192,175637,1,0,0:0:0:0:
64,192,175637,1,0,0:0:0:0:
320,192,175866,1,2,0:0:0:0:
448,192,175866,1,0,0:0:0:0:
64,192,176095,1,0,0:0:0:0:
192,192,176095,1,0,0:0:0:0:
448,192,176324,1,2,0:0:0:0:
320,192,176324,1,0,0:0:0:0:
64,192,176324,1,0,0:0:0:0:
192,192,176439,1,0,0:0:0:0:
448,192,176553,1,2,0:0:0:0:
320,192,176553,1,0,0:0:0:0:
64,192,176668,1,0,0:0:0:0:
192,192,176782,1,2,0:0:0:0:
448,192,176782,1,0,0:0:0:0:
320,192,176897,1,0,0:0:0:0:
64,192,177011,1,2,0:0:0:0:
448,192,177011,1,0,0:0:0:0:
192,192,177126,1,0,0:0:0:0:
320,192,177240,1,2,0:0:0:0:
448,192,177240,1,0,0:0:0:0:
64,192,177355,1,2,0:0:0:0:
192,192,177355,1,0,0:0:0:0:
448,192,177469,1,2,0:0:0:0:
320,192,177469,1,0,0:0:0:0:
64,192,177584,1,2,0:0:0:0:
192,192,177584,1,0,0:0:0:0:
448,192,177698,1,2,0:0:0:0:
320,192,177698,1,0,0:0:0:0:
64,192,177813,1,2,0:0:0:0:
192,192,177813,1,0,0:0:0:0:
448,192,177927,1,2,0:0:0:0:
320,192,177927,1,0,0:0:0:0:
64,192,178042,1,2,0:0:0:0:
192,192,178042,1,0,0:0:0:0:
448,192,178156,1,2,0:0:0:0:
320,192,178156,1,0,0:0:0:0:
64,192,178214,1,0,0:0:0:0:
192,192,178271,1,0,0:0:0:0:
448,192,178328,1,0,0:0:0:0:
320,192,178385,1,0,0:0:0:0:
64,192,178443,1,0,0:0:0:0:
192,192,178500,1,0,0:0:0:0:
320,192,178557,1,0,0:0:0:0:
448,192,178614,1,0,0:0:0:0:
64,192,178614,1,0,0:0:0:0:
192,192,178672,1,0,0:0:0:0:
320,192,178729,1,0,0:0:0:0:
448,192,178786,1,0,0:0:0:0:
64,192,178843,1,0,0:0:0:0:
192,192,178901,1,0,0:0:0:0:
448,192,178958,1,0,0:0:0:0:
320,192,179015,1,0,0:0:0:0:
64,192,179072,128,0,179530:0:0:0:0:
192,192,179072,1,0,0:0:0:0:
320,192,179530,1,2,0:0:0:0:
448,192,179530,1,0,0:0:0:0:
192,192,179530,1,0,0:0:0:0:
448,192,179988,1,2,0:0:0:0:
64,192,179988,1,4,0:0:0:0:
192,192,179988,1,0,0:0:0:0:
448,192,180217,1,0,0:0:0:0:
192,192,180217,1,0,0:0:0:0:
320,192,180332,1,0,0:0:0:0:
64,192,180447,1,2,0:0:0:0:
448,192,180447,1,0,0:0:0:0:
192,192,180561,1,0,0:0:0:0:
448,192,180676,1,0,0:0:0:0:
320,192,180676,1,0,0:0:0:0:
192,192,180905,1,2,0:0:0:0:
320,192,180905,1,0,0:0:0:0:
64,192,181134,1,0,0:0:0:0:
448,192,181134,1,0,0:0:0:0:
320,192,181248,1,0,0:0:0:0:
192,192,181363,1,2,0:0:0:0:
64,192,181363,1,0,0:0:0:0:
448,192,181477,1,0,0:0:0:0:
320,192,181592,1,0,0:0:0:0:
64,192,181592,1,0,0:0:0:0:
192,192,181706,1,0,0:0:0:0:
448,192,181821,1,2,0:0:0:0:
320,192,181821,1,0,0:0:0:0:
64,192,182050,1,0,0:0:0:0:
320,192,182050,1,0,0:0:0:0:
192,192,182164,1,0,0:0:0:0:
448,192,182279,1,2,0:0:0:0:
64,192,182279,1,0,0:0:0:0:
320,192,182393,1,0,0:0:0:0:
64,192,182508,1,0,0:0:0:0:
192,192,182508,1,0,0:0:0:0:
320,192,182737,1,2,0:0:0:0:
192,192,182737,1,0,0:0:0:0:
448,192,182966,1,8,0:0:0:0:
64,192,182966,1,0,0:0:0:0:
320,192,182966,1,0,0:0:0:0:
64,192,183195,1,8,0:0:0:0:
448,192,183195,1,2,0:0:0:0:
192,192,183195,1,0,0:0:0:0:
64,192,183424,1,0,0:0:0:0:
448,192,183424,1,0,0:0:0:0:
192,192,183538,1,0,0:0:0:0:
320,192,183653,1,2,0:0:0:0:
448,192,183653,1,0,0:0:0:0:
64,192,183882,1,0,0:0:0:0:
192,192,183882,1,0,0:0:0:0:
448,192,184111,1,2,0:0:0:0:
64,192,184111,1,0,0:0:0:0:
320,192,184225,1,0,0:0:0:0:
64,192,184340,1,0,0:0:0:0:
192,192,184340,1,0,0:0:0:0:
448,192,184569,1,2,0:0:0:0:
320,192,184569,1,0,0:0:0:0:
448,192,184798,1,0,0:0:0:0:
64,192,184798,1,0,0:0:0:0:
320,192,184912,1,0,0:0:0:0:
192,192,185027,1,2,0:0:0:0:
64,192,185027,1,0,0:0:0:0:
448,192,185141,1,0,0:0:0:0:
64,192,185256,1,0,0:0:0:0:
320,192,185256,1,0,0:0:0:0:
192,192,185370,1,0,0:0:0:0:
448,192,185485,1,2,0:0:0:0:
320,192,185485,1,0,0:0:0:0:
192,192,185599,1,0,0:0:0:0:
64,192,185714,1,0,0:0:0:0:
448,192,185714,1,0,0:0:0:0:
320,192,185943,1,2,0:0:0:0:
448,192,185943,1,0,0:0:0:0:
64,192,186057,1,0,0:0:0:0:
192,192,186172,1,0,0:0:0:0:
320,192,186286,1,0,0:0:0:0:
448,192,186401,1,2,0:0:0:0:
64,192,186401,1,0,0:0:0:0:
192,192,186515,1,0,0:0:0:0:
320,192,186630,1,0,0:0:0:0:
192,192,186744,1,0,0:0:0:0:
64,192,186859,1,2,0:0:0:0:
320,192,186859,1,0,0:0:0:0:
448,192,186859,128,0,187317:0:0:0:0:
192,192,187088,1,0,0:0:0:0:
320,192,187317,1,2,0:0:0:0:
192,192,187317,1,4,0:0:0:0:
64,192,187317,1,0,0:0:0:0:
448,192,187546,1,0,0:0:0:0:
64,192,187546,1,0,0:0:0:0:
192,192,187660,1,0,0:0:0:0:
320,192,187775,1,2,0:0:0:0:
448,192,187775,1,0,0:0:0:0:
64,192,187889,1,0,0:0:0:0:
192,192,188004,1,0,0:0:0:0:
448,192,188004,1,0,0:0:0:0:
192,192,188233,1,2,0:0:0:0:
320,192,188233,1,0,0:0:0:0:
448,192,188462,1,0,0:0:0:0:
64,192,188462,1,0,0:0:0:0:
320,192,188576,1,0,0:0:0:0:
64,192,188691,1,2,0:0:0:0:
192,192,188691,1,0,0:0:0:0:
320,192,188805,1,0,0:0:0:0:
448,192,188920,1,0,0:0:0:0:
64,192,188920,1,0,0:0:0:0:
320,192,189149,1,2,0:0:0:0:
448,192,189149,1,0,0:0:0:0:
64,192,189263,1,0,0:0:0:0:
448,192,189378,1,0,0:0:0:0:
192,192,189378,1,0,0:0:0:0:
320,192,189492,1,0,0:0:0:0:
64,192,189607,1,2,0:0:0:0:
192,192,189607,1,0,0:0:0:0:
320,192,189721,1,0,0:0:0:0:
448,192,189836,1,0,0:0:0:0:
64,192,189836,1,0,0:0:0:0:
192,192,190065,1,2,0:0:0:0:
320,192,190065,1,0,0:0:0:0:
64,192,190294,1,0,0:0:0:0:
448,192,190294,1,0,0:0:0:0:
192,192,190294,1,8,0:0:0:0:
448,192,190523,1,2,0:0:0:0:
320,192,190523,1,8,0:0:0:0:
64,192,190523,1,0,0:0:0:0:
448,192,190752,1,0,0:0:0:0:
192,192,190752,1,0,0:0:0:0:
320,192,190866,1,0,0:0:0:0:
192,192,190981,1,2,0:0:0:0:
64,192,190981,1,0,0:0:0:0:
448,192,191210,1,0,0:0:0:0:
320,192,191210,1,0,0:0:0:0:
448,192,191439,1,2,0:0:0:0:
64,192,191439,1,0,0:0:0:0:
192,192,191553,1,0,0:0:0:0:
448,192,191668,1,0,0:0:0:0:
320,192,191668,1,0,0:0:0:0:
64,192,191897,1,2,0:0:0:0:
192,192,191897,1,0,0:0:0:0:
448,192,192126,1,0,0:0:0:0:
64,192,192126,1,0,0:0:0:0:
320,192,192240,1,0,0:0:0:0:
192,192,192355,1,2,0:0:0:0:
64,192,192355,1,0,0:0:0:0:
448,192,192469,1,0,0:0:0:0:
64,192,192584,1,0,0:0:0:0:
320,192,192584,1,0,0:0:0:0:
192,192,192698,1,0,0:0:0:0:
320,192,192813,5,2,0:0:0:0:
448,192,192813,1,0,0:0:0:0:
448,192,193042,1,2,0:0:0:0:
64,192,193042,1,0,0:0:0:0:
192,192,193156,1,0,0:0:0:0:
64,192,193271,1,2,0:0:0:0:
320,192,193271,1,0,0:0:0:0:
320,192,193500,1,2,0:0:0:0:
448,192,193500,1,0,0:0:0:0:
448,192,193729,1,2,0:0:0:0:
64,192,193729,1,0,0:0:0:0:
192,192,193843,1,0,0:0:0:0:
320,192,193958,1,0,0:0:0:0:
192,192,194072,1,0,0:0:0:0:
448,192,194187,1,2,0:0:0:0:
64,192,194187,1,0,0:0:0:0:
320,192,194416,1,0,0:0:0:0:
448,192,194645,128,2,195561:0:0:0:0:
320,192,194645,1,0,0:0:0:0:
192,192,194645,1,0,0:0:0:0:
64,192,194874,1,0,0:0:0:0:
320,192,194988,1,0,0:0:0:0:
192,192,195103,1,0,0:0:0:0:
64,192,195217,1,0,0:0:0:0:
320,192,195332,1,0,0:0:0:0:
64,192,195561,128,2,196477:0:0:0:0:
192,192,195561,1,0,0:0:0:0:
448,192,195790,1,0,0:0:0:0:
320,192,195905,1,0,0:0:0:0:
192,192,196019,1,0,0:0:0:0:
448,192,196134,1,0,0:0:0:0:
320,192,196248,1,0,0:0:0:0:
192,192,196363,1,0,0:0:0:0:
448,192,196477,1,2,0:0:0:0:
320,192,196477,1,0,0:0:0:0:
448,192,196706,1,0,0:0:0:0:
64,192,196706,1,0,0:0:0:0:
192,192,196821,1,0,0:0:0:0:
64,192,196935,1,2,0:0:0:0:
320,192,196935,1,0,0:0:0:0:
448,192,197164,1,0,0:0:0:0:
320,192,197221,1,0,0:0:0:0:
192,192,197279,1,0,0:0:0:0:
64,192,197336,1,0,0:0:0:0:
448,192,197393,128,2,197851:0:0:0:0:
320,192,197393,1,0,0:0:0:0:
64,192,197851,1,2,0:0:0:0:
192,192,197851,1,4,0:0:0:0:
320,192,197851,1,0,0:0:0:0:
320,192,198309,1,2,0:0:0:0:
448,192,198309,1,0,0:0:0:0:
64,192,198309,128,0,198653:0:0:0:0:
448,192,198538,1,0,0:0:0:0:
64,192,198767,128,2,199111:0:0:0:0:
192,192,198767,1,0,0:0:0:0:
320,192,198996,1,0,0:0:0:0:
64,192,199225,128,2,199569:0:0:0:0:
192,192,199225,1,0,0:0:0:0:
448,192,199454,1,0,0:0:0:0:
448,192,199683,1,2,0:0:0:0:
64,192,199683,1,0,0:0:0:0:
320,192,199798,1,0,0:0:0:0:
192,192,199912,1,0,0:0:0:0:
64,192,199912,1,0,0:0:0:0:
320,192,200027,1,0,0:0:0:0:
448,192,200027,1,0,0:0:0:0:
192,192,200141,1,2,0:0:0:0:
64,192,200141,128,0,200485:0:0:0:0:
448,192,200370,1,0,0:0:0:0:
192,192,200599,1,2,0:0:0:0:
64,192,200599,128,0,200943:0:0:0:0:
448,192,200828,1,0,0:0:0:0:
192,192,201057,1,2,0:0:0:0:
64,192,201057,1,0,0:0:0:0:
448,192,201286,1,0,0:0:0:0:
448,192,201515,1,2,0:0:0:0:
64,192,201515,1,0,0:0:0:0:
192,192,201744,1,0,0:0:0:0:
320,192,201973,1,2,0:0:0:0:
448,192,201973,128,0,202317:0:0:0:0:
64,192,202202,1,0,0:0:0:0:
448,192,202431,128,2,202775:0:0:0:0:
320,192,202431,1,0,0:0:0:0:
192,192,202660,1,0,0:0:0:0:
448,192,202889,128,2,203233:0:0:0:0:
320,192,202889,1,0,0:0:0:0:
64,192,203118,1,0,0:0:0:0:
64,192,203347,1,2,0:0:0:0:
448,192,203347,1,0,0:0:0:0:
192,192,203462,1,0,0:0:0:0:
320,192,203576,1,0,0:0:0:0:
448,192,203576,1,0,0:0:0:0:
192,192,203691,1,0,0:0:0:0:
64,192,203691,1,0,0:0:0:0:
320,192,203805,1,2,0:0:0:0:
448,192,203805,128,0,204149:0:0:0:0:
64,192,204034,1,0,0:0:0:0:
320,192,204263,1,2,0:0:0:0:
448,192,204263,128,0,204607:0:0:0:0:
64,192,204492,1,0,0:0:0:0:
64,192,204721,1,2,0:0:0:0:
192,192,204779,1,0,0:0:0:0:
448,192,204836,1,0,0:0:0:0:
320,192,204893,1,0,0:0:0:0:
64,192,204950,1,0,0:0:0:0:
192,192,205008,1,0,0:0:0:0:
448,192,205065,1,0,0:0:0:0:
320,192,205122,1,0,0:0:0:0:
64,192,205179,1,2,0:0:0:0:
192,192,205237,1,0,0:0:0:0:
448,192,205294,1,0,0:0:0:0:
320,192,205351,1,0,0:0:0:0:
64,192,205408,1,0,0:0:0:0:
192,192,205466,1,0,0:0:0:0:
320,192,205523,1,0,0:0:0:0:
192,192,205637,1,2,0:0:0:0:
448,192,205637,1,4,0:0:0:0:
64,192,205637,1,0,0:0:0:0:
320,192,205866,1,0,0:0:0:0:
64,192,206095,1,2,0:0:0:0:
448,192,206095,1,0,0:0:0:0:
192,192,206095,1,0,0:0:0:0:
192,192,206324,1,0,0:0:0:0:
64,192,206553,1,2,0:0:0:0:
320,192,206553,1,0,0:0:0:0:
448,192,206553,1,0,0:0:0:0:
320,192,206782,1,0,0:0:0:0:
448,192,207011,1,2,0:0:0:0:
64,192,207011,1,0,0:0:0:0:
192,192,207011,1,0,0:0:0:0:
320,192,207126,1,0,0:0:0:0:
192,192,207240,1,0,0:0:0:0:
320,192,207355,1,0,0:0:0:0:
448,192,207469,1,2,0:0:0:0:
64,192,207469,1,0,0:0:0:0:
192,192,207469,1,0,0:0:0:0:
320,192,207698,1,0,0:0:0:0:
448,192,207927,1,2,0:0:0:0:
64,192,207927,1,0,0:0:0:0:
192,192,207927,1,0,0:0:0:0:
320,192,208156,1,0,0:0:0:0:
192,192,208271,1,0,0:0:0:0:
64,192,208385,1,2,0:0:0:0:
448,192,208385,1,0,0:0:0:0:
320,192,208385,1,0,0:0:0:0:
192,192,208614,1,0,0:0:0:0:
64,192,208843,1,2,0:0:0:0:
448,192,208843,1,0,0:0:0:0:
320,192,208843,1,0,0:0:0:0:
320,192,209072,1,0,0:0:0:0:
64,192,209301,1,2,0:0:0:0:
192,192,209301,1,0,0:0:0:0:
448,192,209301,1,0,0:0:0:0:
320,192,209530,1,0,0:0:0:0:
448,192,209530,1,0,0:0:0:0:
320,192,209759,1,2,0:0:0:0:
192,192,209759,1,0,0:0:0:0:
64,192,209759,1,0,0:0:0:0:
448,192,209988,1,0,0:0:0:0:
64,192,209988,1,0,0:0:0:0:
192,192,210103,1,0,0:0:0:0:
64,192,210217,1,2,0:0:0:0:
320,192,210217,1,0,0:0:0:0:
448,192,210217,1,0,0:0:0:0:
192,192,210332,1,0,0:0:0:0:
320,192,210447,1,0,0:0:0:0:
448,192,210447,1,0,0:0:0:0:
64,192,210676,1,2,0:0:0:0:
192,192,210676,1,0,0:0:0:0:
448,192,210676,1,0,0:0:0:0:
320,192,210790,1,0,0:0:0:0:
64,192,210905,1,0,0:0:0:0:
448,192,210905,1,0,0:0:0:0:
192,192,211019,1,0,0:0:0:0:
64,192,211134,1,2,0:0:0:0:
320,192,211134,1,0,0:0:0:0:
448,192,211134,1,0,0:0:0:0:
64,192,211363,1,0,0:0:0:0:
320,192,211477,1,0,0:0:0:0:
192,192,211534,1,0,0:0:0:0:
64,192,211592,1,2,0:0:0:0:
448,192,211592,1,0,0:0:0:0:
320,192,211821,1,2,0:0:0:0:
192,192,211821,1,0,0:0:0:0:
192,192,212050,1,2,0:0:0:0:
64,192,212050,1,0,0:0:0:0:
448,192,212050,1,0,0:0:0:0:
448,192,212279,1,2,0:0:0:0:
320,192,212279,1,0,0:0:0:0:
64,192,212508,1,2,0:0:0:0:
320,192,212508,128,4,213424:0:0:0:0:
448,192,212508,128,0,213882:0:0:0:0:
