osu file format v13

[General]
AudioFilename: Blazing.mp3
AudioLeadIn: 0
PreviewTime: 54473
Countdown: 0
SampleSet: Normal
StackLeniency: 0.7
Mode: 0
LetterboxInBreaks: 1
WidescreenStoryboard: 1

[Editor]
DistanceSpacing: 0.8
BeatDivisor: 4
GridSize: 4
TimelineZoom: 1

[Metadata]
Title:Blazing
TitleUnicode:Blazing
Artist:GARNiDELiA
ArtistUnicode:GARNiDELiA
Creator:MorriSummer
Version:Normal
Source:Gundam G Reconguista
Tags:Gundam G Reconguista
BeatmapID:616257
BeatmapSetID:229206

[Difficulty]
HPDrainRate:5.5
CircleSize:3
OverallDifficulty:6
ApproachRate:7
SliderMultiplier:1.4
SliderTickRate:1

[Events]
//Background and Video events
0,0,"Gundam Reco.jpg",0,0
Video,0,"G reco Opening.avi"
//Break Periods
//Storyboard Layer 0 (Background)
//Storyboard Layer 1 (Fail)
//Storyboard Layer 2 (Pass)
//Storyboard Layer 3 (Foreground)
//Storyboard Sound Samples

[TimingPoints]
9947,315.789473684211,4,2,0,100,1,0
20052,-125,4,2,0,100,0,0
30157,-111.111111111111,4,2,0,100,0,0
55420,-100,4,3,0,100,0,1
70736,-100,4,3,0,100,0,0
83052,-90.9090909090909,4,3,0,100,0,0
86052,-90.9090909090909,4,1,0,100,0,0

[Colours]
Combo1 : 128,255,128
Combo2 : 128,255,255
Combo3 : 255,128,128
Combo4 : 255,255,128

[HitObjects]
204,184,9946,6,0,L|72:112,2,140,0|0|0,0:0|0:0|0:0,0:0:0:0:
308,184,10894,2,0,L|440:112,2,140,0|0|0,0:0|0:0|0:0,0:0:0:0:
255,274,11841,6,0,L|256:364,2,70,0|0|0,0:0|0:0|0:0,0:0:0:0:
240,244,12315,1,0,0:0:0:0:
195,189,12473,1,0,0:0:0:0:
203,83,12789,6,0,P|140:88|84:160,2,140,0|0|0,0:0|0:0|0:0,0:0:0:0:
308,83,13736,2,0,P|372:88|428:160,2,140,0|0|0,0:0|0:0|0:0,0:0:0:0:
292,120,14525,6,0,L|292:212,2,70,0|0|0,0:0|0:0|0:0,0:0:0:0:
272,84,14999,2,0,L|104:84,1,140
44,193,15631,2,0,L|193:194,1,140
208,224,16104,1,0,0:0:0:0:
236,252,16262,2,0,L|404:252,1,140
450,177,16894,2,0,P|468:216|456:320,1,140,0|0,0:0|0:0,0:0:0:0:
256,192,17525,12,0,19578,0:0:0:0:
80,192,20052,6,0,P|128:204|196:192,1,112,0|0,0:0|0:0,0:0:0:0:
281,129,20683,2,0,P|328:110|444:128,1,168
360,203,21473,2,0,L|360:320,2,112,0|0|0,0:0|0:0|0:0,0:0:0:0:
332,184,22262,6,0,P|288:168|208:200,2,112,0|0|0,0:0|0:0|0:0,0:0:0:0:
281,284,23210,2,0,P|208:296|128:236,1,168
83,146,23999,2,0,L|28:36,2,112,0|0|0,0:0|0:0|0:0,0:0:0:0:
116,144,24789,6,0,L|178:145,2,56,0|0|0,0:0|0:0|0:0,0:0:0:0:
152,38,25420,2,0,P|216:48|264:156,1,168
306,235,26210,2,0,P|332:256|412:272,2,112,0|0|0,0:0|0:0|0:0,0:0:0:0:
195,236,27157,2,0,P|169:256|89:272,1,112,0|0,0:0|0:0,0:0:0:0:
68,256,27631,6,0,P|88:188|152:112,3,168,0|0|0|0,0:0|0:0|0:0|0:0,0:0:0:0:
184,104,29210,2,0,L|428:104,1,224,0|0,0:0|0:0,0:0:0:0:
340,193,30157,6,0,L|200:192,1,125.999996154785,0|0,0:0|0:0,0:0:0:0:
98,298,30789,1,0,0:0:0:0:
255,315,31104,1,0,0:0:0:0:
413,298,31420,1,0,0:0:0:0:
342,158,31736,2,0,P|299:135|155:171,1,188.999994232178
148,184,32368,5,0,0:0:0:0:
128,216,32525,1,0,0:0:0:0:
108,244,32683,1,0,0:0:0:0:
225,349,32999,2,0,P|288:336|340:288,1,125.999996154785,0|0,0:0|0:0,0:0:0:0:
404,155,33631,1,0,0:0:0:0:
296,40,33947,1,0,0:0:0:0:
139,58,34262,2,0,P|148:132|252:204,1,188.999994232178,0|0,0:0|0:0,0:0:0:0:
272,208,34894,5,0,0:0:0:0:
312,216,35052,1,0,0:0:0:0:
352,224,35210,1,0,0:0:0:0:
380,346,35525,2,0,P|336:360|240:336,1,125.999996154785,0|0,0:0|0:0,0:0:0:0:
236,324,35999,6,0,P|192:312|100:340,2,125.999996154785,0|0|0,0:0|0:0|0:0,0:0:0:0:
236,168,36947,2,0,P|192:180|100:152,1,125.999996154785,0|0,0:0|0:0,0:0:0:0:
92,136,37420,1,0,0:0:0:0:
216,39,37736,2,0,L|408:100,3,188.999994232178,0|0|0|0,0:0|0:0|0:0|0:0,0:0:0:0:
432,112,39315,1,0,0:0:0:0:
256,192,39631,12,0,42157,0:0:0:0:
68,196,42473,5,0,0:0:0:0:
173,265,42789,2,0,P|248:288|368:256,1,188.999994232178
430,126,43578,2,0,L|472:248,2,125.999996154785,0|0|0,0:0|0:0|0:0,0:0:0:0:
400,100,44368,2,0,P|368:88|264:116,1,125.999996154785,0|0,0:0|0:0,0:0:0:0:
252,128,44841,5,0,0:0:0:0:
224,152,44999,1,0,0:0:0:0:
200,176,45157,1,0,0:0:0:0:
256,192,45315,12,0,47210,0:0:0:0:
96,196,47525,6,0,P|124:248|208:256,1,125.999996154785
224,264,47999,2,0,L|300:264,2,62.9999980773926,0|0|0,0:0|0:0|0:0,0:0:0:0:
92,351,48631,1,0,0:0:0:0:
224,264,48947,1,0,0:0:0:0:
352,173,49262,1,0,0:0:0:0:
481,82,49578,2,0,L|482:227,1,125.999996154785
481,208,50368,5,0,0:0:0:0:
292,209,50683,1,0,0:0:0:0:
103,211,50999,1,0,0:0:0:0:
255,255,51315,1,0,0:0:0:0:
444,254,51631,1,0,0:0:0:0:
440,96,51947,5,0,0:0:0:0:
283,96,52262,1,0,0:0:0:0:
94,96,52578,1,0,0:0:0:0:
244,144,52894,1,0,0:0:0:0:
401,144,53210,1,0,0:0:0:0:
403,301,53525,6,0,P|312:312|256:292,1,125.999996154785,0|0,0:0|0:0,0:0:0:0:
252,284,53999,1,0,0:0:0:0:
88,196,55420,6,0,P|132:216|220:200,1,140,8|8,0:0|0:0,0:0:0:0:
272,153,55894,2,0,L|333:100,2,70,0|8|0,0:0|0:0|0:0,0:0:0:0:
219,200,56368,5,8,0:0:0:0:
168,252,56525,2,0,L|56:360,1,140,8|8,0:0|0:0,0:0:0:0:
242,340,57157,2,0,L|348:232,1,140,8|8,0:0|0:0,0:0:0:0:
392,196,57631,1,0,0:0:0:0:
437,143,57789,1,8,0:0:0:0:
486,89,57947,2,0,L|344:88,1,140,8|8,0:0|0:0,0:0:0:0:
276,88,58420,1,0,0:0:0:0:
206,88,58578,2,0,L|124:88,2,70,8|0|8,0:0|0:0|0:0,0:0:0:0:
276,88,59052,6,0,P|344:68|420:88,2,140,8|8|8,0:0|0:0|0:0,0:0:0:0:
228,140,59841,1,0,0:0:0:0:
178,190,59999,2,0,L|121:249,2,70,8|0|8,0:0|0:0|0:0,0:0:0:0:
228,140,60473,6,0,L|340:252,1,140,8|8,0:0|0:0,0:0:0:0:
452,360,61104,1,8,0:0:0:0:
473,187,61420,1,8,0:0:0:0:
452,23,61736,1,8,0:0:0:0:
346,114,62052,2,0,P|332:164|352:264,1,140,8|8,0:0|0:0,0:0:0:0:
167,250,62683,2,0,P|181:182|165:114,1,140,8|8,0:0|0:0,0:0:0:0:
111,69,63157,6,0,P|156:84|260:68,1,140,8|8,0:0|0:0,0:0:0:0:
419,38,63789,1,8,0:0:0:0:
291,158,64104,1,8,0:0:0:0:
163,277,64420,1,8,0:0:0:0:
233,278,64578,1,0,0:0:0:0:
304,276,64736,1,8,0:0:0:0:
373,276,64894,2,0,L|484:164,1,140,8|8,0:0|0:0,0:0:0:0:
324,81,65525,2,0,P|267:65|177:99,1,140,8|8,0:0|0:0,0:0:0:0:
134,126,65999,2,0,L|72:172,2,70,0|8|0,0:0|0:0|0:0,0:0:0:0:
192,88,66473,5,8,0:0:0:0:
248,48,66631,2,0,L|402:48,1,140,8|8,0:0|0:0,0:0:0:0:
390,117,67104,2,0,L|320:160,1,70,0|8,0:0|0:0,0:0:0:0:
331,223,67420,2,0,P|384:240|480:220,2,140,8|8|8,0:0|0:0|0:0,0:0:0:0:
169,158,68368,2,0,L|72:160,1,70,8|0,0:0|0:0,0:0:0:0:
40,197,68683,2,0,P|24:244|40:344,1,140,8|8,0:0|0:0,0:0:0:0:
106,333,69157,2,0,L|260:332,1,140,8|8,0:0|0:0,0:0:0:0:
315,332,69631,1,8,0:0:0:0:
426,196,69947,6,0,L|336:196,2,70,8|0|8,0:0|0:0|0:0,0:0:0:0:
496,195,70420,1,8,0:0:0:0:
256,192,70736,12,0,75315,0:0:0:0:
168,192,75631,6,0,P|112:160|96:88,2,140,8|8|8,0:0|0:0|0:0,0:0:0:0:
344,192,76578,2,0,P|400:160|416:88,2,140,8|8|8,0:0|0:0|0:0,0:0:0:0:
256,250,77525,6,0,L|256:340,2,70,8|0|8,0:0|0:0|0:0,0:0:0:0:
255,179,77999,1,0,0:0:0:0:
256,110,78157,2,0,P|144:84|128:64,1,140,8|8,0:0|0:0,0:0:0:0:
305,34,78789,2,0,P|417:60|433:80,1,140,8|8,0:0|0:0,0:0:0:0:
344,227,79420,1,8,0:0:0:0:
167,227,79736,1,8,0:0:0:0:
62,88,80052,6,0,L|144:60,1,70,8|0,0:0|0:0,0:0:0:0:
188,101,80368,2,0,L|280:100,1,70,8|0,0:0|0:0,0:0:0:0:
314,141,80683,2,0,P|328:176|312:284,2,140,8|8|8,0:0|0:0|0:0,0:0:0:0:
314,141,81631,6,0,L|420:252,2,140,8|8|8,0:0|0:0|0:0,0:0:0:0:
314,141,82578,6,0,L|248:72,3,70,8|0|8|0,0:0|0:0|0:0|0:0,0:0:0:0:
208,144,83210,2,0,B|127:146|79:254|135:326|231:322|295:294|295:294|295:234|295:234|235:234,2,462.000014099122,8|8|0,0:0|0:0|0:0,0:0:0:0:
192,120,86052,6,0,L|128:176,1,77.0000023498536,4|4,0:0|0:0,0:0:0:0:
256,164,86368,2,0,L|256:264,1,77.0000023498536,4|4,0:0|0:0,0:0:0:0:
319,120,86683,2,0,L|384:176,1,77.0000023498536,4|4,0:0|0:0,0:0:0:0:
